osu file format v14

[General]
AudioFilename: meniscus pi.mp3
AudioLeadIn: 0
PreviewTime: 68273
Countdown: 0
SampleSet: Soft
StackLeniency: 0.7
Mode: 2
LetterboxInBreaks: 0
WidescreenStoryboard: 0

[Editor]
Bookmarks: 11016,24730,46587,57645,68530,90473,112502
DistanceSpacing: 1.2
BeatDivisor: 6
GridSize: 32
TimelineZoom: 2.4

[Metadata]
Title:Sakura Fubuki
TitleUnicode:Sakura Fubuki
Artist:Street
ArtistUnicode:Street
Creator:Sinnoh
Version:Rain
Source:CHUNITHM AIR
Tags:electronic instrumental video game yumeno himiko examination 桜吹雪 BMS bofu2015 of fighter ultimate maimai mai dynamix drumstep artcore
BeatmapID:2387895
BeatmapSetID:1143608

[Difficulty]
HPDrainRate:6
CircleSize:4
OverallDifficulty:9
ApproachRate:9
SliderMultiplier:2
SliderTickRate:2

[Events]
//Background and Video events
0,0,"68012889_p0.jpg",0,0
//Break Periods
2,46858,51372
//Storyboard Layer 0 (Background)
//Storyboard Layer 1 (Fail)
//Storyboard Layer 2 (Pass)
//Storyboard Layer 3 (Foreground)
//Storyboard Layer 4 (Overlay)
//Storyboard Sound Samples

[TimingPoints]
30,342.857142857143,4,2,1,100,1,0
10658,-83.3333333333333,4,2,1,100,0,0
16487,-83.3333333333333,4,2,2,60,0,0
19230,-83.3333333333333,4,2,97,60,0,0
20258,-83.3333333333333,4,2,2,60,0,0
24544,-66.6666666666667,4,2,2,100,0,1
25230,-83.3333333333333,4,2,2,100,0,1
26087,-83.3333333333333,4,2,2,100,0,1
26944,-83.3333333333333,4,2,2,100,0,1
27458,-66.6666666666667,4,2,2,100,0,1
27630,-83.3333333333333,4,2,2,100,0,1
28487,-83.3333333333333,4,2,2,100,0,1
28830,-83.3333333333333,4,2,2,100,0,1
30887,-83.3333333333333,4,2,2,100,0,1
31915,-83.3333333333333,4,2,2,100,0,1
32258,-83.3333333333333,4,2,2,100,0,1
32601,-83.3333333333333,4,2,2,100,0,1
35515,-66.6666666666667,4,2,2,100,0,1
37058,-83.3333333333333,4,2,2,100,0,1
37230,-83.3333333333333,4,2,2,100,0,1
39458,-83.3333333333333,4,2,2,100,0,1
39801,-83.3333333333333,4,2,2,100,0,1
41858,-66.6666666666667,4,2,2,100,0,1
42887,-83.3333333333333,4,2,2,100,0,1
45287,-66.6666666666667,4,2,2,100,0,1
46144,-83.3333333333333,4,2,2,100,0,1
46658,-83.3333333333333,4,2,2,100,0,0
52144,-83.3333333333333,4,2,0,100,0,0
57630,-83.3333333333333,4,2,2,50,0,0
63115,-83.3333333333333,4,2,2,60,0,0
64487,-83.3333333333333,4,2,2,80,0,0
65858,-83.3333333333333,4,2,2,90,0,0
68601,-83.3333333333333,4,2,3,100,0,1
90544,-83.3333333333333,4,2,1,100,0,0
91744,-100,4,2,0,100,0,0
110944,-200,4,2,1,100,0,0
112487,-100,4,2,2,100,0,0

[Colours]
Combo1 : 128,128,192
Combo2 : 255,128,192

[HitObjects]
256,192,8258,12,0,10658,0:0:0:0:
329,275,11001,6,0,L|337:121,1,119.999996337891,2|0,0:0|0:0,0:0:0:0:
186,275,11344,2,0,L|181:136,1,119.999996337891,2|0,0:0|0:0,0:0:0:0:
236,134,11601,1,0,0:0:0:0:
292,117,11687,2,0,L|419:86,1,119.999996337891,2|0,0:0|0:0,0:0:0:0:
276,242,12030,2,0,L|130:221,1,119.999996337891,2|0,0:0|0:0,0:0:0:0:
295,352,12372,5,2,0:0:0:0:
401,309,12543,1,0,0:0:0:0:
416,195,12714,1,2,0:0:0:0:
324,126,12886,1,0,0:0:0:0:
69,148,13058,2,0,L|210:118,2,119.999996337891,2|0|2,0:0|0:0|0:0,0:0:0:0:
325,314,13572,5,2,0:0:0:0:
326,254,13657,1,0,0:0:0:0:
327,194,13743,1,2,0:0:0:0:
198,158,13915,1,0,0:0:0:0:
325,115,14087,2,0,L|455:69,1,119.999996337891,2|0,0:0|0:0,0:0:0:0:
374,71,14344,1,0,0:0:0:0:
313,69,14430,1,2,0:0:0:0:
181,289,14601,2,0,L|175:111,1,119.999996337891,0|2,0:0|0:0,0:0:0:0:
438,261,14944,6,0,P|491:189|353:130,1,239.999992675781,2|0,0:0|0:0,0:0:0:0:
276,301,15458,2,0,L|285:162,1,119.999996337891,2|0,0:0|0:0,0:0:0:0:
396,188,15801,1,2,0:0:0:0:
201,202,15972,2,0,L|207:64,1,119.999996337891,2|2,0:0|0:0,0:0:0:0:
339,67,16315,1,2,0:0:0:0:
56,260,16487,6,0,L|48:124,1,119.999996337891,2|0,0:0|0:0,0:0:0:0:
181,253,16830,2,0,L|181:122,1,119.999996337891,2|0,0:0|0:0,0:0:0:0:
331,253,17172,2,0,L|331:133,1,119.999996337891,2|0,0:0|0:0,0:0:0:0:
456,260,17515,1,2,0:0:0:0:
193,178,17687,1,0,0:0:0:0:
364,132,17858,6,0,L|505:93,3,119.999996337891,2|2|2|2,0:0|0:0|0:0|0:0,0:0:0:0:
210,250,18544,2,0,L|69:211,3,119.999996337891,2|2|2|2,0:0|0:0|0:0|0:0,0:0:0:0:
344,351,19230,5,8,0:0:0:0:
386,337,19315,1,8,0:0:0:0:
423,312,19401,1,8,0:0:0:0:
452,277,19487,1,8,0:0:0:0:
470,236,19572,1,8,0:0:0:0:
475,191,19658,1,8,0:0:0:0:
468,147,19744,1,8,0:0:0:0:
448,107,19830,1,8,0:0:0:0:
418,73,19915,1,8,0:0:0:0:
380,50,20001,1,8,0:0:0:0:
337,38,20087,1,8,0:0:0:0:
292,39,20172,1,8,0:0:0:0:
114,166,20258,6,0,L|30:193,1,59.9999981689454,0|0,1:0|1:0,1:1:0:0:
234,20,20430,2,0,L|318:47,1,59.9999981689454,0|0,1:0|1:0,1:1:0:0:
118,301,20601,5,4,0:0:0:0:
101,281,20658,1,0,0:0:0:0:
85,252,20715,1,0,0:0:0:0:
97,195,20772,1,0,0:0:0:0:
147,165,20858,1,0,0:0:0:0:
224,145,20944,2,0,L|294:129,2,59.9999981689454,0|0|8,1:0|0:0|0:0,0:0:0:0:
169,98,21202,1,0,0:0:0:0:
235,69,21287,2,0,L|305:53,2,59.9999981689454,0|0|0,1:0|0:0|0:0,0:0:0:0:
100,306,21630,1,2,0:0:0:0:
90,247,21715,1,0,0:0:0:0:
118,196,21801,1,2,0:0:0:0:
173,172,21887,1,0,0:0:0:0:
387,258,21972,6,0,L|517:228,1,119.999996337891,6|6,0:0|0:0,0:0:0:0:
193,87,22486,2,0,L|309:113,1,119.999996337891,6|6,0:0|0:0,0:0:0:0:
31,260,23001,2,0,L|161:230,1,119.999996337891,6|6,0:0|0:0,0:0:0:0:
433,179,23515,2,0,L|317:205,1,119.999996337891,6|6,0:0|0:0,0:0:0:0:
120,317,24030,2,2,L|126:191,1,119.999996337891
188,186,24286,1,2,0:0:0:0:
336,151,24372,2,0,L|414:135,1,59.9999981689454,0|0,1:0|1:0,1:1:0:0:
232,226,24544,6,0,B|162:227|162:227|150:142|150:142|301:144|301:144|309:295|309:295|124:283,1,600.000022888185,6|0,0:0|0:0,0:0:0:0:
126,328,25315,1,0,0:0:0:0:
284,324,25401,2,0,L|433:275,1,119.999996337891,8|0,0:0|0:0,0:0:0:0:
340,242,25658,1,0,0:0:0:0:
285,213,25744,2,0,L|280:169,6,29.9999990844727,2|0|0|0|0|0|0,0:3|0:0|0:0|0:0|0:0|0:0|0:0,0:0:0:0:
208,169,26087,6,0,L|54:144,1,119.999996337891,2|0,0:0|0:0,0:0:0:0:
87,103,26344,1,0,0:0:0:0:
85,57,26430,1,0,0:0:0:0:
211,287,26601,1,0,0:0:0:0:
489,228,26772,2,0,L|483:128,1,59.9999981689454,8|0,0:0|0:0,0:0:0:0:
425,140,26944,2,0,L|150:142,1,239.999992675781,2|0,0:0|0:0,0:0:0:0:
124,83,27372,1,0,0:0:0:0:
333,290,27458,6,0,B|482:281|482:281|348:195|348:195|485:273,1,450.000017166138,2|0,0:0|0:0,0:0:0:0:
466,231,28059,1,0,0:0:0:0:
280,224,28144,2,0,L|291:67,1,119.999996337891,8|0,0:0|0:0,0:0:0:0:
42,202,28487,2,0,L|43:122,1,59.9999981689454,2|0,0:0|0:0,0:0:0:0:
226,128,28658,2,0,L|311:118,1,59.9999981689454,2|0,0:0|0:0,0:0:0:0:
108,292,28830,6,0,P|56:237|178:167,1,239.999992675781,2|2,0:0|0:3,0:0:0:0:
219,180,29258,1,0,0:0:0:0:
279,203,29344,1,2,0:3:0:0:
219,180,29430,1,0,0:0:0:0:
377,110,29515,6,0,L|496:69,1,119.999996337891,8|2,0:0|0:0,0:0:0:0:
179,241,29858,1,8,0:0:0:0:
478,276,30030,6,0,P|497:158|291:74,1,359.999989013672,6|0,0:0|0:0,0:0:0:0:
257,108,30630,1,0,0:0:0:0:
319,144,30715,1,0,0:0:0:0:
366,167,30802,1,0,0:0:0:0:
199,279,30887,2,0,P|159:217|273:129,1,239.999992675781,8|0,0:0|0:0,0:0:0:0:
391,292,31401,2,0,L|391:207,1,59.9999981689454,0|0,0:0|0:0,0:0:0:0:
321,200,31572,6,0,L|156:191,1,119.999996337891,2|0,0:0|0:0,0:0:0:0:
133,172,31830,1,0,0:0:0:0:
191,128,31916,2,0,L|324:106,1,119.999996337891,0|0,0:0|0:0,0:0:0:0:
42,260,32258,2,0,L|58:98,1,119.999996337891,8|2,0:0|0:0,0:0:0:0:
191,128,32601,1,0,0:0:0:0:
68,76,32772,2,0,L|168:53,1,59.9999981689454,0|0,0:0|0:0,0:0:0:0:
286,284,32944,5,6,0:0:0:0:
312,231,33029,1,0,0:0:0:0:
294,176,33115,1,0,0:0:0:0:
242,150,33201,1,0,0:0:0:0:
186,169,33286,1,0,0:0:0:0:
161,221,33372,1,0,0:0:0:0:
180,276,33458,1,2,0:0:0:0:
233,301,33543,1,0,0:0:0:0:
451,309,33630,6,0,L|444:182,1,119.999996337891,8|2,0:0|0:0,0:0:0:0:
372,173,33886,1,0,0:0:0:0:
301,171,33972,1,8,0:0:0:0:
41,196,34144,6,0,L|331:139,1,239.999992675781,6|0,0:0|0:0,0:0:0:0:
156,133,34658,1,2,0:3:0:0:
393,272,34830,2,0,L|405:136,1,119.999996337891,6|0,0:0|0:0,0:0:0:0:
119,272,35172,2,0,L|107:136,1,119.999996337891,6|0,0:0|0:0,0:0:0:0:
385,384,35515,6,0,B|388:235|388:235|94:196|94:196|94:21,1,600.000022888185,6|0,0:0|0:0,0:0:0:0:
136,27,36287,1,0,0:0:0:0:
318,297,36373,2,0,L|319:137,1,150.000005722046,8|0,0:0|0:0,0:0:0:0:
261,134,36630,1,0,0:0:0:0:
196,145,36715,2,0,L|191:101,6,37.5000014305115,0|0|0|0|0|0|0,0:0|0:0|0:0|0:0|0:0|0:0|0:0,0:0:0:0:
260,148,37058,6,0,L|400:134,1,119.999996337891,2|0,0:0|0:0,0:0:0:0:
428,128,37315,1,0,0:0:0:0:
370,213,37401,2,0,L|230:227,1,119.999996337891,0|0,0:0|0:0,0:0:0:0:
487,272,37744,1,8,0:0:0:0:
378,287,37915,2,0,P|363:181|485:106,1,239.999992675781,2|0,0:0|0:0,0:0:0:0:
151,261,38430,6,0,P|140:177|375:96,1,359.999989013672,2|0,0:0|0:0,0:0:0:0:
398,168,39030,1,0,0:0:0:0:
209,158,39115,2,0,L|67:107,1,119.999996337891,8|0,0:0|0:0,0:0:0:0:
159,89,39372,1,0,0:0:0:0:
320,262,39458,2,0,L|330:177,1,59.9999981689454,2|0,0:0|0:0,0:0:0:0:
154,241,39630,2,0,L|144:156,1,59.9999981689454,2|0,0:0|0:0,0:0:0:0:
336,279,39801,6,0,P|401:223|294:120,1,239.999992675781,2|0,0:0|0:0,0:0:0:0:
277,122,40230,1,0,0:0:0:0:
224,114,40315,1,0,0:0:0:0:
284,83,40401,1,0,0:0:0:0:
122,199,40487,2,0,L|137:54,1,119.999996337891,8|2,0:0|0:0,0:0:0:0:
284,83,40830,1,8,0:0:0:0:
33,252,41001,6,0,P|29:177|273:31,1,359.999989013672,6|0,0:0|0:0,0:0:0:0:
290,123,41601,1,0,0:0:0:0:
235,124,41687,1,0,0:0:0:0:
181,123,41772,1,0,0:0:0:0:
347,322,41858,2,0,P|434:261|312:136,1,299.999990844727,8|0,0:0|0:0,0:0:0:0:
224,224,42372,2,0,L|229:134,1,75.0000028610231,0|0,0:0|0:0,0:0:0:0:
271,120,42544,6,0,L|447:95,1,150.000005722046,2|0,0:0|0:0,0:0:0:0:
360,56,42800,1,0,0:0:0:0:
290,226,42887,2,0,L|136:216,1,119.999996337891,0|0,0:0|0:0,0:0:0:0:
447,235,43230,2,0,L|454:80,1,119.999996337891,8|2,0:0|0:0,0:0:0:0:
335,105,43572,1,0,0:0:0:0:
451,194,43744,2,0,L|361:155,1,59.9999981689454,0|0,0:0|0:0,0:0:0:0:
167,277,43915,6,0,P|127:197|245:137,1,239.999992675781,2|0,0:0|0:0,0:0:0:0:
348,192,44430,2,0,L|352:91,1,59.9999981689454
156,215,44601,2,0,L|159:71,1,119.999996337891,8|0,0:0|0:0,0:0:0:0:
216,82,44858,1,0,0:0:0:0:
393,286,44944,2,0,L|396:147,1,119.999996337891,8|2,0:0|0:0,0:0:0:0:
346,164,45172,2,0,L|307:166,1,39.9999987792969,2|2,0:0|0:0,0:0:0:0:
266,310,45287,6,0,B|262:156|262:156|429:146|429:146|134:136,1,600.000022888185,2|0,0:0|0:0,0:0:0:0:
291,188,46144,2,0,L|392:176,1,59.9999981689454,2|2,0:0|0:0,0:0:0:0:
114,268,46315,1,8,0:0:0:0:
91,213,46400,1,8,0:0:0:0:
108,156,46486,1,8,0:0:0:0:
156,122,46572,1,8,0:0:0:0:
304,96,46658,1,6,0:0:0:0:
249,307,51972,6,0,L|252:231,1,59.9999981689454
181,317,52144,2,0,P|151:269|246:348,1,599.999981689454,2|0,0:0|0:0,0:0:0:0:
114,365,53344,2,0,P|350:233|97:-10,1,719.999978027344,2|0,0:0|0:0,0:0:0:0:
358,380,54715,2,0,B|590:114|381:-85|242:-100|77:-52,1,719.999978027344,2|0,0:0|0:0,0:0:0:0:
256,192,56087,12,0,57287,0:0:0:0:
378,275,57630,6,0,P|395:203|196:20,1,359.999989013672,4|0,0:0|0:0,0:0:0:0:
118,153,58315,1,8,0:0:0:0:
230,235,58487,2,0,L|352:156,1,119.999996337891,0|0,0:0|0:0,0:0:0:0:
211,320,58830,1,2,0:0:0:0:
326,301,59001,6,0,L|331:173,1,119.999996337891,0|0,0:0|0:0,0:0:0:0:
210,33,59343,1,0,0:0:0:0:
144,131,59514,1,0,0:0:0:0:
147,249,59686,1,8,0:0:0:0:
219,343,59857,1,2,0:0:0:0:
332,377,60029,1,0,0:0:0:0:
153,340,60201,5,2,0:0:0:0:
90,253,60372,2,0,P|107:158|240:75,1,239.999992675781
406,246,61058,1,8,0:0:0:0:
274,314,61230,2,0,L|262:152,1,119.999996337891,0|0,0:0|0:0,0:0:0:0:
449,164,61572,5,2,0:0:0:0:
314,115,61744,2,0,L|76:45,1,239.999992675781,0|0,0:0|0:0,0:0:0:0:
194,240,62258,1,0,0:0:0:0:
39,186,62430,1,8,0:0:0:0:
173,324,62601,2,0,L|180:63,1,239.999992675781,2|2,0:0|0:0,0:0:0:0:
234,72,63030,1,0,0:0:0:0:
414,261,63115,6,0,L|429:92,1,119.999996337891,2|0,0:0|0:0,0:0:0:0:
262,198,63458,2,0,L|261:43,1,119.999996337891,2|0,0:0|0:0,0:0:0:0:
109,256,63801,2,0,L|94:87,1,119.999996337891,2|0,0:0|0:0,0:0:0:0:
261,305,64144,2,0,L|262:186,1,119.999996337891,2|0,0:0|0:0,0:0:0:0:
409,153,64487,5,2,0:0:0:0:
274,95,64657,1,2,0:0:0:0:
409,153,64830,1,2,0:0:0:0:
274,95,65000,1,2,0:0:0:0:
117,124,65173,1,2,0:0:0:0:
252,66,65345,1,2,0:0:0:0:
117,124,65515,1,2,0:0:0:0:
252,66,65687,1,2,0:0:0:0:
490,289,65858,5,8,0:0:0:0:
499,230,65943,1,8,0:0:0:0:
492,170,66029,1,8,0:0:0:0:
467,116,66115,1,8,0:0:0:0:
428,71,66200,1,8,0:0:0:0:
377,39,66286,1,8,0:0:0:0:
320,23,66372,1,10,0:0:0:0:
260,24,66458,1,8,0:0:0:0:
113,280,66544,5,2,0:0:0:0:
93,224,66629,1,8,0:0:0:0:
114,169,66715,1,10,0:0:0:0:
165,140,66801,1,8,0:0:0:0:
334,135,66887,2,0,L|418:133,1,59.9999981689454,8|8,0:0|0:0,0:0:0:0:
233,139,67059,2,0,L|149:141,1,59.9999981689454,8|8,0:0|0:0,0:0:0:0:
366,321,67230,5,6,0:0:0:0:
383,301,67287,1,0,0:0:0:0:
399,272,67344,1,0,0:0:0:0:
387,215,67401,1,0,0:0:0:0:
337,185,67487,1,0,0:0:0:0:
264,167,67572,2,0,L|173:129,2,59.9999981689454,8|0|0,1:2|0:0|0:0,0:0:0:0:
332,133,67830,1,0,0:0:0:0:
400,144,67915,6,0,L|347:88,1,59.9999981689454,8|0,1:2|0:0,0:0:0:0:
206,181,68087,2,0,L|130:137,1,59.9999981689454,2|0,0:0|0:0,0:0:0:0:
339,293,68258,1,2,0:0:0:0:
379,252,68343,1,2,0:0:0:0:
359,199,68429,1,2,0:0:0:0:
302,195,68515,1,2,0:0:0:0:
120,295,68601,6,0,P|77:194|155:172,1,179.999994506836,6|0,0:0|0:0,0:0:0:0:
183,139,68944,2,0,L|459:84,1,239.999992675781,8|0,0:0|0:0,0:0:0:0:
163,263,69458,2,0,L|175:102,1,119.999996337891,2|8,0:0|0:0,0:0:0:0:
436,252,69801,6,0,P|441:170|288:92,1,239.999992675781,2|2,0:0|0:0,0:0:0:0:
266,90,70230,1,0,0:0:0:0:
109,301,70315,1,10,0:0:0:0:
57,278,70400,1,0,0:0:0:0:
65,223,70486,1,2,0:0:0:0:
120,215,70572,1,0,0:0:0:0:
184,186,70658,2,0,L|106:141,1,59.9999981689454,2|0,0:0|0:0,0:0:0:0:
312,271,70830,1,6,0:0:0:0:
360,239,70915,1,0,0:0:0:0:
362,182,71001,1,10,0:0:0:0:
316,148,71087,1,0,0:0:0:0:
137,236,71172,6,0,L|130:83,1,119.999996337891,2|6,0:0|0:0,0:0:0:0:
252,69,71515,2,0,L|399:26,1,119.999996337891,2|8,0:0|0:0,0:0:0:0:
253,149,71858,2,0,L|184:158,2,59.9999981689454,2|0|2,0:0|0:0|0:0,0:0:0:0:
391,287,72201,2,0,L|401:123,1,119.999996337891,6|10,0:0|0:0,0:0:0:0:
117,200,72544,6,0,L|262:161,1,119.999996337891,2|0,0:0|0:0,0:0:0:0:
97,259,72887,2,0,L|92:160,1,59.9999981689454,2|0,0:0|0:0,0:0:0:0:
159,178,73058,1,10,0:0:0:0:
188,128,73143,1,0,0:0:0:0:
169,73,73229,1,2,0:0:0:0:
115,52,73315,1,0,0:0:0:0:
55,114,73401,2,0,L|140:95,1,59.9999981689454,2|0,0:0|0:0,0:0:0:0:
183,217,73572,2,0,L|185:130,1,59.9999981689454,6|0,0:0|0:0,0:0:0:0:
115,150,73744,2,0,L|109:70,1,59.9999981689454,10|0,0:0|0:0,0:0:0:0:
262,114,73915,2,0,L|366:135,1,59.9999981689454,2|0,0:0|0:0,0:0:0:0:
137,284,74087,6,0,P|107:216|214:142,1,179.999994506836,4|0,0:0|0:0,0:0:0:0:
247,124,74430,2,0,L|7:41,1,239.999992675781,8|0,0:0|0:0,0:0:0:0:
126,182,74944,2,0,L|-11:131,1,119.999996337891,6|10,0:0|0:0,0:0:0:0:
299,323,75287,5,2,0:0:0:0:
193,293,75458,2,0,P|175:227|335:135,1,239.999992675781,4|8,0:0|0:0,0:0:0:0:
440,212,75972,2,0,L|451:36,1,119.999996337891,2|0,0:0|0:0,0:0:0:0:
299,151,76315,2,0,L|456:124,1,119.999996337891,6|8,0:0|0:0,0:0:0:0:
178,300,76658,5,2,0:0:0:0:
299,334,76830,2,0,L|303:93,1,239.999992675781,4|8,0:0|0:0,0:0:0:0:
161,64,77344,2,0,L|16:83,1,119.999996337891,2|0,0:0|0:0,0:0:0:0:
185,154,77687,2,0,L|330:173,1,119.999996337891,6|8,0:0|0:0,0:0:0:0:
50,290,78029,5,2,0:0:0:0:
179,311,78201,2,0,L|183:182,1,119.999996337891,4|2,0:0|0:0,0:0:0:0:
43,160,78543,2,0,L|189:146,1,119.999996337891,10|2,0:0|0:0,0:0:0:0:
319,244,78886,2,0,L|319:87,1,119.999996337891,2|6,0:0|0:0,0:0:0:0:
265,115,79144,1,4,0:0:0:0:
117,84,79230,2,0,L|25:82,1,59.9999981689454,8|8,0:0|0:0,0:0:0:0:
203,232,79401,2,0,L|295:230,1,59.9999981689454,8|8,0:0|0:0,0:0:0:0:
54,300,79572,6,0,L|59:166,1,119.999996337891,6|2,0:0|0:0,0:0:0:0:
207,167,79916,1,10,0:0:0:0:
349,238,80087,1,2,0:0:0:0:
343,178,80172,1,0,0:0:0:0:
338,118,80258,1,2,0:0:0:0:
199,112,80430,2,0,L|107:91,2,59.9999981689454,6|0|10,0:0|0:0|0:0,0:0:0:0:
461,263,80772,5,2,0:0:0:0:
327,284,80944,2,0,L|318:138,1,119.999996337891,4|2,0:0|0:0,0:0:0:0:
454,115,81287,1,8,0:0:0:0:
313,235,81458,1,2,0:0:0:0:
279,187,81543,1,0,0:0:0:0:
294,130,81629,1,2,0:0:0:0:
346,105,81715,1,0,0:0:0:0:
400,107,81801,2,0,L|468:112,1,59.9999981689454,6|0,0:0|0:0,0:0:0:0:
384,235,81972,2,0,L|311:232,1,59.9999981689454,10|0,0:0|0:0,0:0:0:0:
475,193,82144,2,0,L|451:103,1,59.9999981689454,2|0,0:0|0:0,0:0:0:0:
248,304,82315,6,0,P|155:241|171:147,1,179.999994506836,4|0,0:0|0:0,0:0:0:0:
198,127,82658,2,0,L|453:50,1,239.999992675781,8|0,0:0|0:0,0:0:0:0:
306,219,83172,2,0,L|442:178,1,119.999996337891,6|10,0:0|0:0,0:0:0:0:
155,319,83515,5,2,0:0:0:0:
152,259,83600,1,0,0:0:0:0:
150,199,83686,1,4,0:0:0:0:
281,304,83858,1,2,0:0:0:0:
329,270,83943,1,0,0:0:0:0:
351,215,84029,1,10,0:0:0:0:
340,157,84115,1,0,0:0:0:0:
298,115,84200,1,2,0:0:0:0:
240,104,84286,1,0,0:0:0:0:
168,94,84372,6,0,L|100:107,1,59.9999981689454,2|0,0:0|0:0,0:0:0:0:
185,169,84544,2,0,L|264:150,1,59.9999981689454,6|0,0:0|0:0,0:0:0:0:
88,285,84715,1,10,0:0:0:0:
67,229,84800,1,0,0:0:0:0:
87,174,84886,1,2,0:0:0:0:
137,144,84972,1,0,0:0:0:0:
327,255,85058,6,0,P|402:220|383:94,1,179.999994506836,4|0,0:0|0:0,0:0:0:0:
350,113,85401,2,0,L|89:49,1,239.999992675781,8|0,0:0|0:0,0:0:0:0:
222,188,85915,2,0,L|343:227,1,119.999996337891,6|10,0:0|0:0,0:0:0:0:
75,259,86258,6,0,L|72:167,1,59.9999981689454,2|0,0:0|0:0,0:0:0:0:
136,183,86430,2,0,L|412:112,1,239.999992675781,4|8,0:0|0:0,0:0:0:0:
234,288,86944,2,0,L|225:149,1,119.999996337891,2|0,0:0|0:0,0:0:0:0:
386,212,87287,2,0,L|395:74,1,119.999996337891,6|8,0:0|0:0,0:0:0:0:
100,224,87630,5,2,0:0:0:0:
240,144,87801,1,4,0:0:0:0:
244,50,87972,1,4,0:0:0:0:
83,52,88144,1,8,0:0:0:0:
229,323,88315,1,6,0:0:0:0:
278,291,88400,1,0,0:0:0:0:
293,234,88486,1,2,0:0:0:0:
266,182,88572,1,0,0:0:0:0:
195,178,88658,2,0,L|189:91,1,59.9999981689454,4|4,0:2|0:2,0:2:0:0:
366,244,88830,2,8,L|453:221,1,59.9999981689454,8|8,0:0|0:0,0:0:0:0:
237,239,89001,2,8,L|163:217,1,59.9999981689454,8|8,0:0|0:0,0:0:0:0:
358,219,89172,5,6,0:0:0:0:
375,199,89230,1,0,0:0:0:0:
391,170,89287,1,0,0:0:0:0:
379,113,89343,1,0,0:0:0:0:
329,83,89429,1,0,0:0:0:0:
275,285,89515,1,8,1:2:0:0:
241,236,89600,1,0,0:0:0:0:
235,177,89686,1,0,0:0:0:0:
259,123,89772,1,0,0:0:0:0:
307,88,89857,5,0,0:0:0:0:
366,82,89943,1,0,0:0:0:0:
421,180,90030,2,0,L|332:153,1,59.9999981689454,4|0,0:0|0:0,0:0:0:0:
176,241,90201,1,10,1:2:0:0:
163,183,90286,1,0,0:0:0:0:
184,128,90372,1,2,0:0:0:0:
234,96,90458,1,0,0:0:0:0:
394,337,90544,6,0,P|448:239|216:312,1,599.999981689454,6|0,0:0|0:0,0:0:0:0:
392,355,91744,2,0,P|146:300|131:-18,1,600,2|0,0:0|0:0,0:0:0:0:
287,360,93115,2,0,P|431:284|233:-19,1,600,2|0,0:0|0:0,0:0:0:0:
116,302,94487,6,0,P|91:185|240:339,1,600,2|0,0:0|0:0,0:0:0:0:
121,329,95858,2,0,L|123:239,1,50
191,351,96030,6,0,P|369:302|383:9,1,500,2|0,0:0|0:0,0:0:0:0:
259,360,97230,2,0,P|169:268|451:44,1,600,2|0,0:0|0:0,0:0:0:0:
259,360,98601,2,0,P|376:239|93:25,1,600,2|0,0:0|0:0,0:0:0:0:
298,282,99972,2,0,P|338:143|158:309,1,700,2|0,0:0|0:0,0:0:0:0:
327,342,101515,6,0,B|422:300|422:300|419:201|419:201|220:198|220:198|326:192|326:192|321:178,1,500,2|0,0:0|0:0,0:0:0:0:
156,304,102715,2,0,B|51:302|51:302|248:303|248:303|247:203|247:203|41:192,1,600,2|0,0:0|0:0,0:0:0:0:
242,311,104087,6,0,B|245:210|245:210|152:208|152:208|449:202|449:202|329:211,1,600,2|0,0:0|0:0,0:0:0:0:
191,285,105458,2,0,B|91:284|91:284|93:183|93:183|197:187|197:187|199:83|199:83|-11:78,1,600,2|0,0:0|0:0,0:0:0:0:
219,333,106830,2,0,L|314:320,1,50,2|0,0:0|0:0,0:0:0:0:
188,309,107001,6,0,P|152:239|356:298,1,500,2|0,0:0|0:0,0:0:0:0:
168,343,108201,2,0,P|168:217|482:40,1,500,2|0,0:0|0:0,0:0:0:0:
197,369,109572,2,0,P|426:298|276:23,1,600,2|0,0:0|0:0,0:0:0:0:
104,369,110944,2,0,L|104:8,1,350,2|0,0:0|0:0,0:0:0:0:
130,65,112229,1,0,0:0:0:0:
179,91,112315,1,0,0:0:0:0:
245,90,112401,1,0,0:0:0:0:
405,72,112487,1,2,0:0:0:0:
