osu file format v14

[General]
AudioFilename: meniscus pi.mp3
AudioLeadIn: 0
PreviewTime: 68273
Countdown: 0
SampleSet: Soft
StackLeniency: 0.7
Mode: 2
LetterboxInBreaks: 0
WidescreenStoryboard: 1

[Editor]
Bookmarks: 11016,24730,46587,57645,68530,90473,112502
DistanceSpacing: 1.2
BeatDivisor: 6
GridSize: 32
TimelineZoom: 2.4

[Metadata]
Title:Sakura Fubuki
TitleUnicode:Sakura Fubuki
Artist:Street
ArtistUnicode:Street
Creator:Sinnoh
Version:Overdose
Source:CHUNITHM AIR
Tags:electronic instrumental video game yumeno himiko examination 桜吹雪 BMS bofu2015 of fighter ultimate maimai mai dynamix drumstep artcore
BeatmapID:2387894
BeatmapSetID:1143608

[Difficulty]
HPDrainRate:6
CircleSize:4
OverallDifficulty:9.2
ApproachRate:9.2
SliderMultiplier:2
SliderTickRate:2

[Events]
//Background and Video events
0,0,"68012889_p0.jpg",0,0
//Break Periods
2,46858,51403
//Storyboard Layer 0 (Background)
//Storyboard Layer 1 (Fail)
//Storyboard Layer 2 (Pass)
//Storyboard Layer 3 (Foreground)
//Storyboard Layer 4 (Overlay)
//Storyboard Sound Samples

[TimingPoints]
30,342.857142857143,4,2,1,100,1,0
10658,-83.3333333333333,4,2,1,100,0,0
16487,-83.3333333333333,4,2,2,60,0,0
19230,-83.3333333333333,4,2,97,60,0,0
20258,-83.3333333333333,4,2,2,60,0,0
24544,-66.6666666666667,4,2,2,100,0,1
25230,-83.3333333333334,4,2,2,100,0,1
26087,-83.3333333333333,4,2,2,100,0,1
26944,-83.3333333333333,4,2,2,100,0,1
28487,-83.3333333333333,4,2,1,100,0,1
28830,-83.3333333333333,4,2,2,100,0,1
30887,-83.3333333333333,4,2,2,100,0,1
31915,-83.3333333333333,4,2,2,100,0,1
32258,-83.3333333333333,4,2,2,100,0,1
32601,-83.3333333333333,4,2,2,100,0,1
35515,-66.6666666666667,4,2,2,100,0,1
37058,-83.3333333333334,4,2,2,100,0,1
37230,-83.3333333333333,4,2,2,100,0,1
39458,-83.3333333333333,4,2,0,100,0,1
39801,-83.3333333333333,4,2,2,100,0,1
45287,-66.6666666666667,4,2,0,100,0,1
46144,-83.3333333333333,4,2,2,100,0,1
46658,-83.3333333333333,4,2,2,100,0,0
52144,-83.3333333333333,4,2,0,100,0,0
57630,-83.3333333333333,4,2,2,50,0,0
63115,-83.3333333333333,4,2,2,60,0,0
64487,-83.3333333333333,4,2,2,80,0,0
65858,-83.3333333333333,4,2,2,90,0,0
68601,-71.4285714285714,4,2,3,100,0,1
90544,-83.3333333333333,4,2,1,100,0,0
110944,-200,4,2,1,100,0,0
112487,-100,4,2,2,100,0,0

[Colours]
Combo1 : 128,128,192
Combo2 : 255,128,192

[HitObjects]
256,192,8257,12,0,10658,0:0:0:0:
192,256,11002,5,2,0:0:0:0:
329,256,11172,1,0,0:0:0:0:
331,196,11257,1,0,0:0:0:0:
333,136,11343,1,2,0:0:0:0:
183,256,11515,1,0,0:0:0:0:
181,196,11600,1,0,0:0:0:0:
179,136,11686,1,2,0:0:0:0:
329,256,11858,2,0,L|332:164,1,59.9999981689454,0|0,0:0|0:0,0:0:0:0:
279,338,12030,5,2,0:0:0:0:
219,332,12115,1,0,0:0:0:0:
166,305,12201,1,0,0:0:0:0:
127,260,12287,1,0,0:0:0:0:
108,203,12372,1,2,0:0:0:0:
110,144,12458,1,0,0:0:0:0:
136,90,12544,1,0,0:0:0:0:
179,49,12630,1,0,0:0:0:0:
234,65,12715,5,2,0:0:0:0:
282,96,12800,1,0,0:0:0:0:
292,154,12886,1,0,0:0:0:0:
255,199,12972,1,0,0:0:0:0:
103,189,13058,2,0,L|243:164,2,119.999996337891,2|0|2,0:0|0:0|0:0,0:0:0:0:
352,300,13572,2,0,L|348:240,1,59.9999981689454,2|0,0:0|0:0,0:0:0:0:
293,210,13743,5,2,0:0:0:0:
173,139,13915,1,0,0:0:0:0:
231,126,14000,1,0,0:0:0:0:
290,114,14086,1,2,0:0:0:0:
408,139,14258,1,0,0:0:0:0:
349,126,14343,1,0,0:0:0:0:
290,114,14429,1,2,0:0:0:0:
173,139,14601,1,0,0:0:0:0:
231,126,14686,1,0,0:0:0:0:
290,114,14772,1,2,0:0:0:0:
35,153,14944,6,0,L|33:-2,1,119.999996337891,2|2,0:0|0:0,0:0:0:0:
93,29,15200,1,0,0:0:0:0:
149,48,15286,1,0,0:0:0:0:
195,87,15372,1,0,0:0:0:0:
223,140,15457,1,2,0:0:0:0:
229,199,15543,1,0,0:0:0:0:
214,256,15629,1,0,0:0:0:0:
178,304,15715,1,0,0:0:0:0:
127,336,15800,1,2,0:0:0:0:
69,346,15886,1,0,0:0:0:0:
251,302,15972,6,0,L|380:275,1,119.999996337891,2|2,0:0|0:0,0:0:0:0:
245,184,16315,2,0,L|153:164,1,59.9999981689454,2|0,0:0|0:0,0:0:0:0:
375,297,16487,6,0,L|517:272,1,119.999996337891,2|0,0:0|0:0,0:0:0:0:
360,194,16830,2,0,L|357:62,1,119.999996337891,2|0,0:0|0:0,0:0:0:0:
206,292,17172,2,0,L|64:267,1,119.999996337891,2|0,0:0|0:0,0:0:0:0:
221,189,17515,1,2,0:0:0:0:
477,118,17687,1,0,0:0:0:0:
222,138,17858,5,2,0:0:0:0:
79,96,18030,1,2,0:0:0:0:
222,138,18201,1,2,0:0:0:0:
79,96,18373,1,2,0:0:0:0:
346,211,18544,5,2,0:0:0:0:
489,169,18716,1,2,0:0:0:0:
346,211,18887,1,2,0:0:0:0:
109,221,19059,1,2,0:0:0:0:
257,360,19230,5,8,0:0:0:0:
313,342,19315,1,8,0:0:0:0:
358,302,19401,1,8,0:0:0:0:
382,248,19487,1,8,0:0:0:0:
383,188,19572,1,8,0:0:0:0:
358,134,19658,1,8,0:0:0:0:
314,94,19744,1,8,0:0:0:0:
257,76,19830,1,8,0:0:0:0:
208,78,19915,6,0,L|201:-3,1,59.9999981689454,8|8,0:0|0:0,0:0:0:0:
269,16,20087,2,0,L|275:76,1,59.9999981689454,8|8,0:0|0:0,0:0:0:0:
96,211,20258,2,0,L|18:176,1,59.9999981689454,0|0,1:0|1:0,1:1:0:0:
264,261,20430,2,0,L|342:226,1,59.9999981689454,0|0,1:0|1:0,1:1:0:0:
96,231,20601,6,0,L|87:173,2,39.9999987792969,4|0|0,0:0|0:0|0:0,0:0:0:0:
168,221,20772,2,0,L|245:209,1,59.9999981689454,0|0,0:0|0:0,0:0:0:0:
424,287,20944,2,0,L|418:212,1,59.9999981689454,0|0,1:0|0:0,0:0:0:0:
356,209,21115,2,0,L|277:191,1,59.9999981689454,8|0,0:0|0:0,0:0:0:0:
366,269,21287,1,0,1:0:0:0:
409,230,21372,1,0,0:0:0:0:
404,173,21458,1,0,0:0:0:0:
354,143,21544,1,0,0:0:0:0:
176,142,21630,6,2,L|125:132,2,39.9999987792969,2|2|2,0:0|0:0|0:0,0:0:0:0:
338,111,21801,2,2,L|389:101,2,39.9999987792969,2|2|2,0:0|0:0|0:0,0:0:0:0:
167,231,21972,6,0,L|83:209,1,59.9999981689454,6|0,0:0|0:0,0:0:0:0:
271,208,22144,2,0,L|466:163,1,179.999994506836,6|0,0:0|0:0,0:0:0:0:
294,323,22487,2,0,L|293:211,1,59.9999981689454,6|0,0:0|0:0,0:0:0:0:
446,167,22658,2,0,L|271:208,1,179.999994506836,6|0,0:0|0:0,0:0:0:0:
429,219,23001,6,0,L|521:192,1,59.9999981689454,6|0,0:0|0:0,0:0:0:0:
318,141,23172,2,0,L|143:182,1,179.999994506836,6|0,0:0|0:0,0:0:0:0:
310,260,23515,2,0,L|310:178,1,59.9999981689454,6|0,0:0|0:0,0:0:0:0:
143,182,23687,2,0,L|318:141,1,179.999994506836,6|0,0:0|0:0,0:0:0:0:
150,295,24030,6,0,L|141:254,2,29.9999990844727,2|0|0,0:0|0:0|0:0,0:0:0:0:
304,205,24201,2,2,L|372:185,1,59.9999981689454
156,130,24372,2,0,L|226:111,1,59.9999981689454,0|0,1:0|1:0,1:1:0:0:
433,347,24544,5,6,0:0:0:0:
465,329,24586,1,0,0:0:0:0:
485,297,24629,1,0,0:0:0:0:
488,260,24672,1,0,0:0:0:0:
477,224,24715,1,0,0:0:0:0:
457,193,24758,1,0,0:0:0:0:
430,167,24801,1,0,0:0:0:0:
400,145,24843,1,0,0:0:0:0:
367,127,24886,1,0,0:0:0:0:
332,113,24929,1,0,0:0:0:0:
297,101,24972,1,0,0:0:0:0:
260,92,25015,1,0,0:0:0:0:
223,85,25058,1,0,0:0:0:0:
320,208,25230,6,0,L|424:231,1,59.9999981689454,0|0,0:0|0:0,0:0:0:0:
170,299,25401,2,0,L|171:143,1,119.999996337891,8|0,0:0|0:0,0:0:0:0:
231,155,25659,1,0,0:0:0:0:
78,123,25744,2,0,L|37:97,6,29.9999990844727,2|0|0|0|0|0|0,0:3|0:0|0:0|0:0|0:0|0:0|0:0,0:0:0:0:
240,264,26087,6,0,L|347:239,1,59.9999981689454,2|0,0:0|0:0,0:0:0:0:
204,198,26258,2,0,L|311:173,1,59.9999981689454
415,179,26430,2,0,L|420:93,1,59.9999981689454
215,143,26601,2,0,L|204:108,2,29.9999990844727,0|0|0,0:0|0:0|0:0,0:0:0:0:
438,106,26772,2,0,L|506:89,1,59.9999981689454,8|0,0:0|0:0,0:0:0:0:
303,314,26944,2,0,L|301:84,1,179.999994506836,2|0,0:0|0:0,0:0:0:0:
496,91,27287,2,0,L|438:106,1,59.9999981689454,0|0,0:0|0:0,0:0:0:0:
210,247,27458,5,2,0:0:0:0:
187,215,27500,1,0,0:0:0:0:
190,177,27543,1,0,0:0:0:0:
216,149,27586,1,0,0:0:0:0:
254,145,27629,1,0,0:0:0:0:
286,166,27672,1,0,0:0:0:0:
298,202,27715,1,0,0:0:0:0:
283,238,27757,1,0,0:0:0:0:
250,256,27800,1,0,0:0:0:0:
116,211,27972,2,0,L|214:220,1,59.9999981689454,0|0,0:0|0:0,0:0:0:0:
377,254,28144,6,0,L|381:103,1,119.999996337891,8|0,0:0|0:0,0:0:0:0:
307,112,28400,1,0,0:0:0:0:
459,246,28487,2,0,L|474:149,1,59.9999981689454,2|0,0:0|0:0,0:0:0:0:
262,212,28658,2,0,L|263:136,1,59.9999981689454,2|0,0:0|0:0,0:0:0:0:
106,270,28830,5,2,0:0:0:0:
76,265,28872,1,0,0:0:0:0:
50,250,28915,1,0,0:0:0:0:
30,228,28958,1,0,0:0:0:0:
18,201,29001,1,0,0:0:0:0:
17,171,29044,1,0,0:0:0:0:
25,142,29087,1,0,0:0:0:0:
203,208,29172,6,0,L|211:137,1,59.9999981689454,2|0,0:3|0:0,0:0:0:0:
136,150,29344,2,0,L|144:79,1,59.9999981689454,2|0,0:3|0:0,0:0:0:0:
330,139,29515,2,0,L|405:125,1,59.9999981689454,8|0,0:0|0:0,0:0:0:0:
239,304,29687,2,0,L|234:216,1,59.9999981689454,2|0,0:0|0:0,0:0:0:0:
384,224,29858,2,0,L|379:136,1,59.9999981689454,8|0,0:0|0:0,0:0:0:0:
111,308,30030,5,6,0:0:0:0:
82,285,30072,1,0,0:0:0:0:
60,256,30115,1,0,0:0:0:0:
47,224,30158,1,0,0:0:0:0:
43,188,30201,1,0,0:0:0:0:
49,152,30244,1,0,0:0:0:0:
66,120,30287,1,0,0:0:0:0:
90,93,30329,1,0,0:0:0:0:
120,74,30372,1,0,0:0:0:0:
155,64,30415,1,0,0:0:0:0:
190,64,30458,1,0,0:0:0:0:
252,115,30544,6,0,L|257:204,1,59.9999981689454,0|0,0:0|0:0,0:0:0:0:
172,184,30715,2,0,L|177:273,1,59.9999981689454,0|0,0:0|0:0,0:0:0:0:
377,233,30887,2,0,L|387:185,6,29.9999990844727,8|0|0|0|0|0|0,0:0|0:0|0:0|0:0|0:0|0:0|0:0,0:0:0:0:
219,240,31230,2,0,L|95:235,1,119.999996337891,0|0,0:0|0:0,0:0:0:0:
164,112,31487,1,0,0:0:0:0:
311,192,31572,6,0,L|395:136,2,59.9999981689454,2|0|0,0:0|0:0|0:0,0:0:0:0:
229,214,31830,1,0,0:0:0:0:
408,302,31915,2,0,P|435:222|335:205,1,179.999994506836,0|0,0:0|0:0,0:0:0:0:
169,262,32258,2,0,L|166:132,1,119.999996337891,8|2,0:0|0:0,0:0:0:0:
299,77,32602,1,0,0:0:0:0:
156,80,32772,2,0,L|81:60,1,59.9999981689454,0|0,0:0|0:0,0:0:0:0:
323,271,32944,5,6,0:0:0:0:
358,211,33029,1,0,0:0:0:0:
328,149,33115,1,0,0:0:0:0:
259,139,33201,1,0,0:0:0:0:
181,166,33287,2,0,L|266:145,1,59.9999981689454,0|0,0:0|0:0,0:0:0:0:
308,198,33458,2,0,L|228:215,1,59.9999981689454,2|0,0:0|0:0,0:0:0:0:
63,213,33630,2,0,L|69:111,1,59.9999981689454,8|0,0:0|0:0,0:0:0:0:
214,106,33801,2,0,L|281:80,1,59.9999981689454,2|0,0:0|0:0,0:0:0:0:
103,80,33972,1,8,0:0:0:0:
419,251,34144,6,0,P|431:157|282:118,1,239.999992675781,6|0,0:0|0:0,0:0:0:0:
204,200,34658,2,0,L|296:179,1,59.9999981689454,2|2,0:3|0:3,0:0:0:0:
62,251,34830,2,0,B|32:199|32:199|72:118,1,119.999996337891,6|0,0:0|0:0,0:0:0:0:
450,251,35172,2,0,L|458:100,1,119.999996337891,6|0,0:0|0:0,0:0:0:0:
161,264,35516,5,6,0:0:0:0:
160,226,35558,1,0,0:0:0:0:
170,190,35601,1,0,0:0:0:0:
191,159,35644,1,0,0:0:0:0:
220,136,35687,1,0,0:0:0:0:
255,122,35730,1,0,0:0:0:0:
292,120,35773,1,0,0:0:0:0:
328,129,35816,1,0,0:0:0:0:
360,148,35858,1,0,0:0:0:0:
385,176,35901,1,0,0:0:0:0:
400,210,35944,1,0,0:0:0:0:
404,248,35987,1,0,0:0:0:0:
396,284,36030,1,0,0:0:0:0:
250,300,36201,6,0,L|177:258,1,75.0000028610231
351,231,36372,2,0,L|345:58,1,150.000005722046,8|0,0:0|0:0,0:0:0:0:
263,70,36630,1,0,0:0:0:0:
444,137,36715,2,0,L|477:98,6,37.5000014305115,0|0|0|0|0|0|0,0:0|0:0|0:0|0:0|0:0|0:0|0:0,0:0:0:0:
298,214,37058,6,0,L|213:191,1,59.9999981689454,2|0,0:0|0:0,0:0:0:0:
320,149,37230,2,0,L|243:139,1,59.9999981689454
111,204,37401,2,0,L|104:112,1,59.9999981689454,0|0,0:0|0:0,0:0:0:0:
278,199,37572,2,0,L|289:164,2,29.9999990844727,0|0|0,0:0|0:0|0:0,0:0:0:0:
86,220,37744,2,0,L|190:207,1,59.9999981689454,8|0,0:0|0:0,0:0:0:0:
325,286,37915,2,0,L|323:98,1,179.999994506836,2|0,0:0|0:0,0:0:0:0:
145,212,38258,2,0,L|86:220,1,59.9999981689454,0|0,0:0|0:0,0:0:0:0:
275,323,38430,5,2,0:0:0:0:
304,324,38472,1,0,0:0:0:0:
334,318,38515,1,0,0:0:0:0:
360,305,38558,1,0,0:0:0:0:
382,284,38601,1,0,0:0:0:0:
398,259,38644,1,0,0:0:0:0:
406,230,38687,1,0,0:0:0:0:
406,200,38730,1,0,0:0:0:0:
398,171,38772,1,0,0:0:0:0:
279,163,38944,6,0,L|379:135,1,59.9999981689454,0|0,0:0|0:0,0:0:0:0:
155,320,39115,2,0,L|155:177,1,119.999996337891,8|0,0:0|0:0,0:0:0:0:
219,175,39373,1,0,0:0:0:0:
46,135,39458,2,0,L|38:64,1,59.9999981689454,2|0,0:0|0:0,0:0:0:0:
198,110,39630,2,0,L|200:36,1,59.9999981689454,2|0,0:0|0:0,0:0:0:0:
398,259,39801,5,2,0:0:0:0:
422,242,39843,1,0,0:0:0:0:
441,219,39886,1,0,0:0:0:0:
452,192,39929,1,0,0:0:0:0:
454,161,39972,1,0,0:0:0:0:
445,133,40015,1,0,0:0:0:0:
428,109,40058,1,0,0:0:0:0:
268,141,40144,6,0,L|204:125,1,59.9999981689454,0|0,0:0|0:0,0:0:0:0:
270,148,40315,2,0,L|334:164,1,59.9999981689454,0|0,0:0|0:0,0:0:0:0:
150,274,40487,2,0,L|158:182,1,59.9999981689454,8|0,0:0|0:0,0:0:0:0:
328,188,40658,2,0,L|426:170,1,59.9999981689454,2|0,0:0|0:0,0:0:0:0:
200,162,40830,2,0,L|194:102,1,59.9999981689454,8|0,0:0|0:0,0:0:0:0:
419,314,41001,5,6,0:0:0:0:
444,288,41043,1,0,0:0:0:0:
461,256,41086,1,0,0:0:0:0:
463,221,41129,1,0,0:0:0:0:
453,186,41172,1,0,0:0:0:0:
432,157,41215,1,0,0:0:0:0:
402,138,41258,1,0,0:0:0:0:
367,131,41301,1,0,0:0:0:0:
332,139,41344,1,0,0:0:0:0:
295,152,41386,1,0,0:0:0:0:
259,166,41429,1,0,0:0:0:0:
329,215,41515,6,0,L|408:196,1,59.9999981689454,0|0,0:0|0:0,0:0:0:0:
319,153,41687,2,0,L|235:151,1,59.9999981689454,0|0,0:0|0:0,0:0:0:0:
462,261,41858,2,0,L|472:213,6,29.9999990844727,8|0|0|0|0|0|0,0:0|0:0|0:0|0:0|0:0|0:0|0:0,0:0:0:0:
309,257,42201,2,0,L|151:221,1,119.999996337891,0|0,0:0|0:0,0:0:0:0:
268,179,42458,1,0,0:0:0:0:
125,172,42544,6,0,L|35:144,2,59.9999981689454,2|0|0,0:0|0:0|0:0,0:0:0:0:
206,172,42802,1,0,0:0:0:0:
45,288,42887,2,0,P|26:218|143:171,1,179.999994506836,0|0,0:0|0:0,0:0:0:0:
297,256,43230,2,0,L|304:96,1,119.999996337891,8|2,0:0|0:0,0:0:0:0:
172,75,43572,1,0,0:0:0:0:
305,91,43745,2,0,L|391:68,1,59.9999981689454,0|0,0:0|0:0,0:0:0:0:
183,323,43915,5,2,0:0:0:0:
141,305,43957,1,0,0:0:0:0:
110,273,44000,1,0,0:0:0:0:
93,232,44043,1,0,0:0:0:0:
92,187,44086,1,0,0:0:0:0:
108,145,44129,1,0,0:0:0:0:
138,113,44172,1,0,0:0:0:0:
179,94,44215,1,0,0:0:0:0:
223,91,44257,1,0,0:0:0:0:
356,224,44430,6,0,L|362:114,1,59.9999981689454,0|0,0:0|0:0,0:0:0:0:
179,191,44601,1,8,0:0:0:0:
92,89,44772,2,0,L|198:74,1,59.9999981689454,0|0,0:0|0:0,0:0:0:0:
321,179,44944,2,0,L|325:141,2,29.9999990844727,8|0|0,0:0|0:0|0:0,0:0:0:0:
169,227,45116,2,0,L|114:220,2,39.9999987792969,2|2|0,0:0|0:0|0:0,0:0:0:0:
327,376,45287,6,0,B|482:332|459:197|329:184|309:191|309:191|424:194|459:57|352:-29,1,600.000022888185,2|0,0:0|0:0,0:0:0:0:
230,135,46144,2,0,L|156:107,1,59.9999981689454,2|2,0:0|0:0,0:0:0:0:
351,160,46315,2,0,L|440:136,1,59.9999981689454,8|8,0:0|0:0,0:0:0:0:
183,198,46487,2,0,L|277:171,1,59.9999981689454,8|8,0:0|0:0,0:0:0:0:
423,99,46658,1,6,0:0:0:0:
252,255,51973,6,0,L|247:181,1,59.9999981689454
333,370,52144,2,0,P|472:284|281:-13,1,599.999981689454,2|0,0:0|0:0,0:0:0:0:
78,363,53344,2,0,P|71:179|371:349,1,719.999978027344,2|0,0:0|0:0,0:0:0:0:
180,0,54715,6,0,P|428:168|186:406,1,719.999978027344,2|0,0:0|0:0,0:0:0:0:
256,192,56087,12,0,57287,0:0:0:0:
444,319,57630,6,0,P|457:217|251:89,1,359.999989013672,4|0,0:0|0:0,0:0:0:0:
149,333,58315,2,0,L|146:88,1,239.999992675781,8|0,0:0|0:0,0:0:0:0:
285,161,58830,1,2,0:0:0:0:
145,117,59001,6,0,L|11:65,1,119.999996337891,0|0,0:0|0:0,0:0:0:0:
152,46,59343,1,0,0:0:0:0:
228,136,59514,1,0,0:0:0:0:
233,254,59686,1,10,0:0:0:0:
165,350,59857,1,0,0:0:0:0:
52,386,60029,1,0,0:0:0:0:
223,353,60201,5,2,0:0:0:0:
344,338,60372,2,0,P|408:285|305:182,1,239.999992675781,0|0,0:0|0:0,0:0:0:0:
104,149,61058,1,8,0:0:0:0:
230,108,61230,2,0,L|390:76,1,119.999996337891,0|0,0:0|0:0,0:0:0:0:
218,275,61572,2,0,L|139:256,1,59.9999981689454,2|0,0:0|0:0,0:0:0:0:
232,209,61744,6,0,L|492:158,1,239.999992675781,0|0,0:0|0:0,0:0:0:0:
311,113,62258,1,0,0:0:0:0:
454,97,62430,1,8,0:0:0:0:
299,274,62601,2,0,L|45:222,1,239.999992675781,2|2,0:0|0:0,0:0:0:0:
126,194,63030,1,0,0:0:0:0:
348,232,63116,6,0,L|357:109,1,119.999996337891,2|0,0:0|0:0,0:0:0:0:
191,220,63458,2,0,L|182:97,1,119.999996337891,2|0,0:0|0:0,0:0:0:0:
348,232,63801,2,0,L|357:109,1,119.999996337891,2|0,0:0|0:0,0:0:0:0:
191,220,64143,2,0,L|182:97,1,119.999996337891,2|0,0:0|0:0,0:0:0:0:
458,232,64487,5,2,0:0:0:0:
314,191,64658,1,2,0:0:0:0:
458,232,64830,1,2,0:0:0:0:
314,191,65001,1,2,0:0:0:0:
54,232,65172,5,2,0:0:0:0:
198,191,65343,1,2,0:0:0:0:
54,232,65515,1,2,0:0:0:0:
198,191,65686,1,2,0:0:0:0:
457,266,65858,5,8,0:0:0:0:
470,209,65943,1,8,0:0:0:0:
437,160,66029,1,8,0:0:0:0:
380,152,66115,1,8,0:0:0:0:
220,282,66202,1,8,0:0:0:0:
165,263,66288,1,8,0:0:0:0:
146,209,66372,1,10,0:0:0:0:
177,159,66459,1,8,0:0:0:0:
342,58,66544,6,0,L|348:117,1,59.9999981689454,2|8,0:0|0:0,0:0:0:0:
169,100,66715,2,0,L|160:21,1,59.9999981689454,10|8,0:0|0:0,0:0:0:0:
408,244,66887,2,0,L|496:257,1,59.9999981689454,8|8,0:0|0:0,0:0:0:0:
196,229,67059,2,0,L|117:220,1,59.9999981689454,8|8,0:0|0:0,0:0:0:0:
362,212,67230,6,0,L|366:167,2,39.9999987792969,6|0|0,0:0|0:0|0:0,0:0:0:0:
301,228,67401,2,0,L|222:217,1,59.9999981689454,0|0,0:0|0:0,0:0:0:0:
419,143,67572,2,0,L|511:131,2,59.9999981689454,8|0|0,1:2|0:0|0:0,0:0:0:0:
351,151,67830,1,0,0:0:0:0:
186,177,67915,6,0,L|195:104,1,59.9999981689454,8|0,1:2|0:0,0:0:0:0:
387,84,68087,2,0,L|465:61,1,59.9999981689454,2|0,0:0|0:0,0:0:0:0:
152,190,68258,2,0,L|168:132,1,59.9999981689454,2|2,0:0|0:0,0:0:0:0:
438,211,68430,2,0,L|360:234,1,59.9999981689454,2|2,0:0|0:0,0:0:0:0:
110,308,68601,6,0,P|48:272|163:164,1,279.999991455078,6|8,0:0|0:0,0:0:0:0:
299,248,69115,1,0,0:0:0:0:
301,178,69200,1,0,0:0:0:0:
303,108,69286,1,0,0:0:0:0:
51,108,69458,2,0,L|205:65,1,139.999995727539,2|8,0:0|0:0,0:0:0:0:
449,162,69801,1,2,0:0:0:0:
188,312,69972,6,0,L|185:156,1,139.999995727539,0|2,0:0|0:0,0:0:0:0:
257,143,70230,1,0,0:0:0:0:
105,301,70315,2,0,L|20:272,1,69.9999978637696,10|0,0:0|0:0,0:0:0:0:
104,232,70486,1,2,0:0:0:0:
129,167,70572,1,0,0:0:0:0:
111,101,70657,1,2,0:0:0:0:
57,58,70743,1,0,0:0:0:0:
227,204,70830,2,0,L|331:224,1,69.9999978637696,6|0,0:0|0:0,0:0:0:0:
128,127,71001,2,0,L|28:100,1,69.9999978637696,10|0,0:0|0:0,0:0:0:0:
325,296,71172,6,0,L|457:222,1,139.999995727539,2|6,0:0|0:0,0:0:0:0:
285,89,71515,1,2,0:0:0:0:
155,147,71687,1,8,0:0:0:0:
317,217,71858,2,0,L|416:173,2,69.9999978637696,2|0|2,0:0|0:0|0:0,0:0:0:0:
183,235,72201,1,6,0:0:0:0:
472,258,72372,1,10,0:0:0:0:
188,314,72544,6,0,L|181:215,1,69.9999978637696,2|0,0:0|0:0,0:0:0:0:
233,223,72715,2,0,L|398:169,1,139.999995727539,4|2,0:0|0:0,0:0:0:0:
416,160,72972,1,0,0:0:0:0:
232,317,73058,1,10,0:0:0:0:
211,250,73143,1,0,0:0:0:0:
219,181,73229,1,2,0:0:0:0:
255,122,73315,1,0,0:0:0:0:
312,82,73400,1,2,0:0:0:0:
381,70,73486,1,0,0:0:0:0:
196,255,73572,2,0,L|108:288,1,69.9999978637696,6|0,0:0|0:0,0:0:0:0:
310,287,73744,2,0,L|385:254,1,69.9999978637696,10|0,0:0|0:0,0:0:0:0:
309,203,73915,2,0,L|205:191,1,69.9999978637696,2|0,0:0|0:0,0:0:0:0:
411,289,74087,6,0,P|480:218|347:134,1,279.999991455078,4|8,0:0|0:0,0:0:0:0:
223,284,74601,1,0,0:0:0:0:
220,214,74686,1,0,0:0:0:0:
217,144,74772,1,0,0:0:0:0:
466,264,74944,2,0,L|473:84,1,139.999995727539,6|10,0:0|0:0,0:0:0:0:
223,228,75287,2,0,L|121:206,1,69.9999978637696,2|0,0:0|0:0,0:0:0:0:
224,145,75458,6,0,L|519:72,1,279.999991455078,4|8,0:0|0:0,0:0:0:0:
353,323,75972,2,0,L|189:280,1,139.999995727539,2|0,0:0|0:0,0:0:0:0:
465,256,76315,2,0,L|469:106,1,139.999995727539,6|8,0:0|0:0,0:0:0:0:
112,136,76658,5,2,0:0:0:0:
250,300,76830,2,0,L|269:-8,1,279.999991455078,4|8,0:0|0:0,0:0:0:0:
26,83,77344,2,0,L|176:40,1,139.999995727539,2|0,0:0|0:0,0:0:0:0:
318,145,77687,1,6,0:0:0:0:
38,198,77858,1,8,0:0:0:0:
342,248,78030,6,0,P|414:214|459:155,2,139.999995727539,2|4|2,0:0|0:0|0:0,0:0:0:0:
193,261,78544,2,0,L|185:105,1,139.999995727539,10|2,0:0|0:0,0:0:0:0:
325,119,78887,1,2,0:0:0:0:
183,88,79058,2,0,L|184:-6,1,69.9999978637696,6|4,0:0|0:0,0:0:0:0:
361,223,79230,2,0,L|461:241,1,69.9999978637696,8|8,0:0|0:0,0:0:0:0:
222,232,79401,2,0,L|134:194,1,69.9999978637696,8|8,0:0|0:0,0:0:0:0:
448,302,79572,6,0,L|455:157,1,139.999995727539,6|2,0:0|0:0,0:0:0:0:
205,126,79915,1,10,0:0:0:0:
343,85,80087,2,0,L|411:45,2,69.9999978637696,2|0|2,0:0|0:0|0:0,0:0:0:0:
203,202,80430,2,0,L|140:139,1,69.9999978637696,6|0,0:0|0:0,0:0:0:0:
349,214,80601,1,10,0:0:0:0:
81,265,80772,6,0,P|55:183|215:91,1,279.999991455078,2|2,0:0|0:0,0:0:0:0:
441,203,81286,1,8,0:0:0:0:
321,286,81458,2,0,L|310:197,1,69.9999978637696,2|0,0:0|0:0,0:0:0:0:
355,174,81630,2,0,L|439:128,1,69.9999978637696,2|0,0:0|0:0,0:0:0:0:
248,138,81801,2,0,L|170:106,1,69.9999978637696,6|0,0:0|0:0,0:0:0:0:
353,307,81972,1,10,0:0:0:0:
397,256,82057,1,0,0:0:0:0:
383,190,82143,1,2,0:0:0:0:
322,161,82229,1,0,0:0:0:0:
151,243,82315,6,0,P|93:191|224:84,1,279.999991455078,4|8,0:0|0:0,0:0:0:0:
329,248,82830,1,0,0:0:0:0:
331,178,82915,1,0,0:0:0:0:
333,108,83001,1,0,0:0:0:0:
180,142,83172,2,0,L|40:83,1,139.999995727539,6|10,0:0|0:0,0:0:0:0:
352,262,83515,6,0,L|498:201,1,139.999995727539,2|4,0:0|0:0,0:0:0:0:
344,230,83858,2,0,L|268:202,1,69.9999978637696,2|0,0:0|0:0,0:0:0:0:
454,266,84030,1,10,0:0:0:0:
476,201,84115,1,0,0:0:0:0:
454,135,84201,1,2,0:0:0:0:
397,97,84287,1,0,0:0:0:0:
331,265,84372,1,2,0:0:0:0:
266,242,84457,1,0,0:0:0:0:
227,185,84543,1,6,0:0:0:0:
229,116,84629,1,0,0:0:0:0:
400,116,84715,2,0,L|503:75,1,69.9999978637696,10|0,0:0|0:0,0:0:0:0:
273,287,84887,2,0,L|172:247,1,69.9999978637696,2|0,0:0|0:0,0:0:0:0:
427,285,85058,6,0,P|452:184|309:114,1,279.999991455078,4|8,0:0|0:0,0:0:0:0:
173,299,85572,1,0,0:0:0:0:
169,229,85657,1,0,0:0:0:0:
166,159,85743,1,0,0:0:0:0:
308,135,85915,1,2,0:0:0:0:
440,117,86087,1,8,0:0:0:0:
177,208,86258,2,0,L|103:141,1,69.9999978637696,2|0,0:0|0:0,0:0:0:0:
184,269,86430,6,0,P|298:217|275:75,1,279.999991455078,4|8,0:0|0:0,0:0:0:0:
149,225,86944,2,0,L|137:84,1,139.999995727539,2|0,0:0|0:0,0:0:0:0:
284,203,87287,2,0,L|300:50,1,139.999995727539,6|8,0:0|0:0,0:0:0:0:
54,72,87630,1,2,0:0:0:0:
307,282,87800,5,4,0:0:0:0:
182,215,87972,1,4,0:0:0:0:
436,283,88144,2,0,L|448:129,1,139.999995727539,8|6,0:0|0:0,0:0:0:0:
385,137,88401,1,0,0:0:0:0:
316,150,88487,2,0,L|312:73,1,69.9999978637696,2|0,0:0|0:0,0:0:0:0:
478,153,88659,2,4,L|479:77,1,69.9999978637696,4|4,0:3|0:3,0:3:0:0:
270,236,88830,2,8,L|196:209,1,69.9999978637696,8|8,0:0|0:0,0:0:0:0:
402,59,89002,2,8,L|476:32,1,69.9999978637696,8|8,0:0|0:0,0:0:0:0:
230,156,89172,6,0,L|222:105,2,46.6666652425131,6|0|0,0:0|0:0|0:0,0:0:0:0:
277,168,89344,2,0,L|354:122,1,69.9999978637696,0|0,0:0|0:0,0:0:0:0:
159,284,89515,1,8,1:2:0:0:
123,225,89600,1,0,0:0:0:0:
140,159,89686,1,0,0:0:0:0:
199,125,89772,1,0,0:0:0:0:
264,104,89858,6,0,L|343:75,1,69.9999978637696,0|0,0:0|0:0,0:0:0:0:
149,208,90030,2,0,L|63:163,1,69.9999978637696,4|0,0:0|0:0,0:0:0:0:
299,261,90202,1,10,1:2:0:0:
343,210,90287,1,0,0:0:0:0:
332,143,90373,1,2,0:0:0:0:
273,110,90459,1,0,0:0:0:0:
62,195,90544,5,6,0:0:0:0:
256,192,90715,12,2,94487,0:0:0:0:
386,361,95858,6,0,L|389:283,1,59.9999981689454,0|0,0:0|0:0,0:0:0:0:
329,316,96030,6,0,P|225:306|386:35,1,599.999981689454,2|0,0:0|0:0,0:0:0:0:
139,329,97230,2,0,P|135:139|414:338,1,719.999978027344,2|0,0:0|0:0,0:0:0:0:
251,384,98601,6,0,P|504:181|273:-69,1,719.999978027344,2|0,0:0|0:0,0:0:0:0:
85,380,99972,2,0,P|54:297|472:-61,1,719.999978027344,2|0,0:0|0:0,0:0:0:0:
179,356,101515,6,0,B|173:234|173:234|411:225|411:225|409:106|409:106|271:107,1,599.999981689454,2|0,0:0|0:0,0:0:0:0:
104,301,102715,2,0,B|345:300|345:300|344:183|344:183|100:180|100:180|234:174,1,719.999978027344,2|0,0:0|0:0,0:0:0:0:
411,324,104087,2,0,B|407:203|407:203|168:198|168:198|411:186|411:186|410:61,1,719.999978027344,2|0,0:0|0:0,0:0:0:0:
208,337,105458,2,0,B|205:216|205:216|327:214|327:214|208:216|208:216|205:94|205:94|453:89,1,719.999978027344,2|0,0:0|0:0,0:0:0:0:
256,352,106830,2,0,L|192:320,1,59.9999981689454,2|0,0:0|0:0,0:0:0:0:
277,355,107001,6,0,P|456:262|270:-7,1,599.999981689454,2|0,0:0|0:0,0:0:0:0:
115,357,108201,2,0,P|348:323|440:-13,1,599.999981689454,2|0,0:0|0:0,0:0:0:0:
183,340,109572,2,0,P|166:132|336:357,1,719.999978027344,2|0,0:0|0:0,0:0:0:0:
205,381,110944,2,0,L|211:29,1,350,2|0,0:0|0:0,0:0:0:0:
268,36,112230,1,0,0:0:0:0:
435,37,112315,1,0,0:0:0:0:
493,38,112402,1,0,0:0:0:0:
196,209,112487,1,2,0:0:0:0:
