osu file format v14

[General]
AudioFilename: meniscus pi.mp3
AudioLeadIn: 0
PreviewTime: 68273
Countdown: 0
SampleSet: Soft
StackLeniency: 0.7
Mode: 2
LetterboxInBreaks: 0
WidescreenStoryboard: 0

[Editor]
Bookmarks: 11016,24730,46587,57645,68530,90473,112502
DistanceSpacing: 1.2
BeatDivisor: 4
GridSize: 32
TimelineZoom: 2.4

[Metadata]
Title:Sakura Fubuki
TitleUnicode:Sakura Fubuki
Artist:Street
ArtistUnicode:Street
Creator:Sinnoh
Version:Master
Source:CHUNITHM AIR
Tags:electronic instrumental video game yumeno himiko examination 桜吹雪 BMS bofu2015 of fighter ultimate maimai mai dynamix drumstep artcore
BeatmapID:2387893
BeatmapSetID:1143608

[Difficulty]
HPDrainRate:6
CircleSize:4
OverallDifficulty:9.5
ApproachRate:9.5
SliderMultiplier:2
SliderTickRate:2

[Events]
//Background and Video events
0,0,"68012889_p0.jpg",0,0
//Break Periods
2,46858,51447
//Storyboard Layer 0 (Background)
//Storyboard Layer 1 (Fail)
//Storyboard Layer 2 (Pass)
//Storyboard Layer 3 (Foreground)
//Storyboard Layer 4 (Overlay)
//Storyboard Sound Samples

[TimingPoints]
30,342.857142857143,4,2,1,100,1,0
10658,-83.3333333333333,4,2,1,100,0,0
16487,-83.3333333333333,4,2,2,60,0,0
19230,-83.3333333333333,4,2,97,60,0,0
20258,-83.3333333333333,4,2,2,60,0,0
24544,-66.6666666666667,4,2,2,100,0,1
25230,-76.923076923077,4,2,2,100,0,1
26087,-66.6666666666667,4,2,2,100,0,1
26944,-76.923076923077,4,2,2,100,0,1
28487,-76.923076923077,4,2,1,100,0,1
28830,-76.923076923077,4,2,2,100,0,1
30887,-66.6666666666667,4,2,2,100,0,1
31915,-76.923076923077,4,2,2,100,0,1
32258,-66.6666666666667,4,2,2,100,0,1
32601,-76.923076923077,4,2,2,100,0,1
35515,-66.6666666666667,4,2,2,100,0,1
37230,-76.923076923077,4,2,2,100,0,1
39458,-76.923076923077,4,2,0,100,0,1
39801,-76.923076923077,4,2,2,100,0,1
46658,-83.3333333333333,4,2,2,100,0,0
52144,-83.3333333333333,4,2,0,100,0,0
57630,-83.3333333333333,4,2,2,50,0,0
63115,-83.3333333333333,4,2,2,60,0,0
64487,-83.3333333333333,4,2,2,80,0,0
65858,-83.3333333333333,4,2,2,90,0,0
68601,-71.4285714285714,4,2,3,100,0,1
90544,-83.3333333333333,4,2,1,100,0,0
110944,-200,4,2,1,100,0,0
112487,-200,4,2,2,100,0,0

[Colours]
Combo1 : 128,128,192
Combo2 : 255,128,192

[HitObjects]
256,192,8257,12,0,10487,0:0:0:0:
445,254,10658,5,0,0:0:0:0:
454,225,10700,1,0,0:0:0:0:
453,195,10743,1,0,0:0:0:0:
442,167,10786,1,0,0:0:0:0:
422,145,10829,1,0,0:0:0:0:
396,130,10872,1,0,0:0:0:0:
367,125,10915,1,0,0:0:0:0:
167,244,11001,6,0,P|105:202|209:92,1,239.999992675781,2|2,0:0|0:0,0:0:0:0:
304,169,11515,2,0,L|311:88,2,59.9999981689454,0|0|2,0:0|0:0|0:0,0:0:0:0:
162,182,11858,2,0,L|155:101,2,59.9999981689454,0|0|2,0:0|0:0|0:0,0:0:0:0:
282,273,12201,2,0,L|343:260,1,59.9999981689454,0|0,0:0|0:0,0:0:0:0:
272,304,12372,5,2,0:0:0:0:
237,256,12457,1,0,0:0:0:0:
247,198,12543,1,0,0:0:0:0:
294,165,12629,1,0,0:0:0:0:
352,175,12714,1,2,0:0:0:0:
385,223,12800,1,0,0:0:0:0:
375,280,12886,1,0,0:0:0:0:
327,313,12972,1,0,0:0:0:0:
109,183,13058,2,0,L|250:164,2,119.999996337891,2|0|2,0:0|0:0|0:0,0:0:0:0:
370,331,13572,6,0,L|369:181,1,119.999996337891,2|2,0:0|0:0,0:0:0:0:
315,187,13829,1,0,0:0:0:0:
293,132,13915,1,0,0:0:0:0:
315,78,14001,1,0,0:0:0:0:
368,54,14086,1,2,0:0:0:0:
474,199,14258,1,0,0:0:0:0:
414,196,14343,1,0,0:0:0:0:
354,193,14429,1,2,0:0:0:0:
226,275,14601,1,0,0:0:0:0:
286,278,14686,1,0,0:0:0:0:
346,281,14772,1,2,0:0:0:0:
98,359,14944,6,0,L|92:224,1,119.999996337891,2|2,0:0|0:0,0:0:0:0:
157,355,15200,1,0,0:0:0:0:
210,329,15286,1,0,0:0:0:0:
250,284,15372,1,0,0:0:0:0:
272,229,15457,1,2,0:0:0:0:
273,169,15543,1,0,0:0:0:0:
253,113,15629,1,0,0:0:0:0:
214,68,15715,1,0,0:0:0:0:
161,40,15800,1,2,0:0:0:0:
102,32,15886,1,0,0:0:0:0:
269,145,15972,2,0,L|335:138,1,59.9999981689454,2|0,0:0|0:0,0:0:0:0:
269,145,16144,2,0,L|203:152,1,59.9999981689454,2|0,0:0|0:0,0:0:0:0:
269,145,16315,2,0,L|335:138,1,59.9999981689454,2|0,0:0|0:0,0:0:0:0:
76,268,16487,6,0,L|71:138,1,119.999996337891,2|0,0:0|0:0,0:0:0:0:
212,247,16830,2,0,L|207:117,1,119.999996337891,2|0,0:0|0:0,0:0:0:0:
348,226,17173,2,0,L|343:96,1,119.999996337891,2|0,0:0|0:0,0:0:0:0:
483,215,17515,1,2,0:0:0:0:
212,273,17687,1,0,0:0:0:0:
480,119,17858,5,2,0:0:0:0:
330,82,18030,1,2,0:0:0:0:
83,207,18201,1,2,0:0:0:0:
233,170,18373,1,2,0:0:0:0:
480,119,18544,5,2,0:0:0:0:
330,82,18716,1,2,0:0:0:0:
83,207,18887,1,2,0:0:0:0:
330,82,19059,1,2,0:0:0:0:
202,326,19230,5,10,0:0:0:0:
157,288,19315,1,8,0:0:0:0:
152,230,19401,1,8,0:0:0:0:
191,186,19487,1,8,0:0:0:0:
251,111,19572,2,0,L|335:100,1,59.9999981689454,8|8,0:0|0:0,0:0:0:0:
242,186,19744,2,0,L|158:197,1,59.9999981689454,8|8,0:0|0:0,0:0:0:0:
251,111,19916,2,0,L|335:100,1,59.9999981689454,8|8,0:0|0:0,0:0:0:0:
242,186,20087,2,0,L|158:197,1,59.9999981689454,8|8,0:0|0:0,0:0:0:0:
404,108,20258,6,0,L|464:107,1,59.9999981689454,0|0,1:0|1:0,1:0:0:0:
129,268,20429,2,0,L|69:269,1,59.9999981689454,0|0,1:0|1:0,1:0:0:0:
301,217,20601,6,0,B|312:146|308:169,2,39.9999987792969,4|0|0,0:0|0:0|0:0,0:0:0:0:
103,171,20772,2,0,L|109:73,1,59.9999981689454,0|0,0:0|0:0,0:0:0:0:
354,295,20944,2,0,L|426:285,1,59.9999981689454,0|0,1:0|0:0,0:0:0:0:
236,205,21115,2,0,L|233:127,1,59.9999981689454,8|0,0:0|0:0,0:0:0:0:
44,111,21287,2,0,L|134:98,1,59.9999981689454,0|0,1:0|0:0,0:0:0:0:
287,146,21458,2,0,L|380:134,1,59.9999981689454,0|0,0:0|0:0,0:0:0:0:
179,152,21629,2,2,L|129:147,1,39.9999987792969,2|2,0:0|0:0,0:0:0:0:
281,256,21744,2,2,L|331:261,1,39.9999987792969,2|2,0:0|0:0,0:0:0:0:
179,152,21858,2,2,L|129:147,1,39.9999987792969,2|2,0:0|0:0,0:0:0:0:
363,309,21972,6,0,L|448:304,1,59.9999981689454,6|0,0:0|0:0,0:0:0:0:
230,302,22144,2,0,P|142:243|150:160,1,179.999994506836,6|0,0:0|0:0,0:0:0:0:
319,186,22487,2,0,L|315:93,1,59.9999981689454,6|0,0:0|0:0,0:0:0:0:
138,93,22658,2,0,L|344:77,1,179.999994506836,6|0,0:0|0:0,0:0:0:0:
142,317,23001,6,0,L|57:312,1,59.9999981689454,6|0,0:0|0:0,0:0:0:0:
275,310,23173,2,0,P|363:251|355:168,1,179.999994506836,6|0,0:0|0:0,0:0:0:0:
186,194,23516,2,0,L|190:101,1,59.9999981689454,6|0,0:0|0:0,0:0:0:0:
367,101,23687,2,0,L|161:85,1,179.999994506836,6|0,0:0|0:0,0:0:0:0:
386,228,24030,2,0,L|391:186,2,29.9999990844727,2|0|0,0:0|0:0|0:0,0:0:0:0:
200,138,24201,2,2,L|306:134,1,59.9999981689454,2|2,0:0|0:0,0:0:0:0:
94,198,24372,2,0,L|167:193,1,59.9999981689454,0|0,1:0|1:0,1:0:0:0:
350,334,24544,5,6,0:0:0:0:
378,304,24586,1,0,0:0:0:0:
396,269,24629,1,0,0:0:0:0:
405,228,24672,1,0,0:0:0:0:
401,189,24715,1,0,0:0:0:0:
388,151,24758,1,0,0:0:0:0:
364,119,24801,1,0,0:0:0:0:
331,94,24843,1,0,0:0:0:0:
290,198,24887,2,0,P|234:137|333:83,1,225.000008583069
153,192,25230,6,0,L|72:181,1,64.9999970245363
284,335,25401,2,0,L|280:178,1,129.999994049073,8|0,0:0|0:0,0:0:0:0:
381,178,25659,1,0,0:0:0:0:
180,115,25744,2,0,L|148:119,6,32.4999985122681,2|0|0|0|0|0|0,0:3|0:0|0:0|0:0|0:0|0:0|0:0,0:0:0:0:
377,301,26087,6,0,L|384:201,1,75.0000028610231,2|0,0:0|0:0,0:0:0:0:
201,172,26258,2,0,L|285:169,1,75.0000028610231,0|0,0:0|0:0,0:0:0:0:
95,232,26430,2,0,L|89:131,1,75.0000028610231,0|0,0:0|0:0,0:0:0:0:
329,125,26601,2,0,L|334:83,2,37.5000014305115,0|0|0,0:0|0:0|0:0,0:0:0:0:
94,107,26772,2,0,L|211:100,1,75.0000028610231,8|0,0:0|0:0,0:0:0:0:
392,226,26944,2,0,L|159:194,1,194.999991073609,2|0,0:0|0:0,0:0:0:0:
357,96,27287,1,0,0:0:0:0:
287,99,27372,1,0,0:0:0:0:
129,278,27458,5,2,0:0:0:0:
104,249,27500,1,0,0:0:0:0:
91,214,27543,1,0,0:0:0:0:
91,177,27586,1,0,0:0:0:0:
103,141,27629,1,0,0:0:0:0:
126,112,27672,1,0,0:0:0:0:
157,92,27715,1,0,0:0:0:0:
194,85,27757,1,0,0:0:0:0:
231,89,27801,2,0,L|314:104,1,64.9999970245363,0|0,0:0|0:0,0:0:0:0:
89,209,27972,2,0,L|177:204,1,64.9999970245363,0|0,0:0|0:0,0:0:0:0:
366,289,28144,6,0,L|358:132,1,129.999994049073,8|0,0:0|0:0,0:0:0:0:
274,136,28401,1,0,0:0:0:0:
117,108,28487,1,2,0:0:0:0:
274,136,28572,1,0,0:0:0:0:
117,108,28659,1,2,0:0:0:0:
274,136,28744,1,0,0:0:0:0:
463,311,28830,5,2,0:0:0:0:
480,284,28872,1,0,0:0:0:0:
487,252,28915,1,0,0:0:0:0:
482,220,28958,1,0,0:0:0:0:
466,192,29001,1,0,0:0:0:0:
440,172,29044,1,0,0:0:0:0:
409,163,29087,1,0,0:0:0:0:
213,159,29172,5,2,0:3:0:0:
60,138,29259,1,0,0:0:0:0:
213,159,29344,1,2,0:3:0:0:
366,138,29431,1,0,0:0:0:0:
169,277,29515,2,0,L|174:183,1,64.9999970245363,8|0,0:0|0:0,0:0:0:0:
351,223,29687,2,0,L|442:210,1,64.9999970245363,2|0,0:0|0:0,0:0:0:0:
242,111,29858,2,0,L|245:46,1,64.9999970245363,8|0,0:0|0:0,0:0:0:0:
59,311,30030,5,6,0:0:0:0:
47,280,30072,1,0,0:0:0:0:
43,248,30115,1,0,0:0:0:0:
44,215,30158,1,0,0:0:0:0:
51,184,30201,1,0,0:0:0:0:
65,154,30244,1,0,0:0:0:0:
83,128,30287,1,0,0:0:0:0:
107,105,30329,1,0,0:0:0:0:
134,88,30372,1,0,0:0:0:0:
164,76,30415,1,0,0:0:0:0:
196,70,30458,1,0,0:0:0:0:
350,237,30544,6,0,L|346:152,1,64.9999970245363,0|0,0:0|0:0,0:0:0:0:
184,218,30715,2,0,L|180:133,1,64.9999970245363,0|0,0:0|0:0,0:0:0:0:
395,339,30887,1,8,0:0:0:0:
431,331,30929,1,0,0:0:0:0:
461,310,30972,1,0,0:0:0:0:
480,277,31015,1,0,0:0:0:0:
479,217,31058,2,0,L|333:154,1,150.000005722046
182,179,31401,2,0,L|176:83,1,75.0000028610231,0|0,0:0|0:0,0:0:0:0:
348,269,31572,6,0,L|344:180,1,75.0000028610231,2|0,0:0|0:0,0:0:0:0:
156,187,31744,2,0,L|64:166,1,75.0000028610231,0|0,0:0|0:0,0:0:0:0:
234,285,31915,2,0,L|238:253,6,32.4999985122681,0|0|0|0|0|0|0,0:0|0:0|0:0|0:0|0:0|0:0|0:0,0:0:0:0:
387,145,32258,6,0,L|470:126,1,75.0000028610231,8|0,0:0|0:0,0:0:0:0:
265,247,32430,2,0,L|258:112,1,75.0000028610231,2|0,0:0|0:0,0:0:0:0:
471,203,32601,2,0,L|317:187,1,129.999994049073,0|0,0:0|0:0,0:0:0:0:
405,140,32858,1,0,0:0:0:0:
226,334,32944,6,0,L|219:249,1,64.9999970245363,6|0,0:0|0:0,0:0:0:0:
301,256,33116,2,0,L|294:171,1,64.9999970245363
214,180,33287,2,0,L|116:162,1,64.9999970245363
297,95,33458,2,0,L|382:50,1,64.9999970245363,2|0,0:0|0:0,0:0:0:0:
118,274,33630,2,0,L|128:160,1,64.9999970245363,8|0,0:0|0:0,0:0:0:0:
298,195,33801,1,2,0:0:0:0:
228,169,33887,1,0,0:0:0:0:
379,294,33972,2,0,L|463:274,1,64.9999970245363,8|0,0:0|0:0,0:0:0:0:
210,236,34144,6,0,L|54:205,1,129.999994049073,6|0,0:0|0:0,0:0:0:0:
222,175,34486,2,0,L|217:68,1,64.9999970245363,0|0,0:0|0:0,0:0:0:0:
409,126,34658,2,0,L|306:94,1,64.9999970245363,2|2,0:3|0:3,0:3:0:0:
149,217,34830,2,0,L|316:199,1,129.999994049073,6|0,0:0|0:0,0:0:0:0:
17,68,35172,2,0,L|178:86,1,129.999994049073,6|0,0:0|0:0,0:0:0:0:
461,28,35515,5,6,0:0:0:0:
423,27,35557,1,0,0:0:0:0:
386,35,35600,1,0,0:0:0:0:
352,50,35643,1,0,0:0:0:0:
322,72,35686,1,0,0:0:0:0:
297,100,35729,1,0,0:0:0:0:
279,133,35772,1,0,0:0:0:0:
269,169,35815,1,0,0:0:0:0:
266,206,35857,1,0,0:0:0:0:
271,243,35900,1,0,0:0:0:0:
284,278,35944,1,0,0:0:0:0:
303,309,35986,1,0,0:0:0:0:
332,329,36030,6,0,L|436:357,1,75.0000028610231,0|0,0:0|0:0,0:0:0:0:
234,194,36201,2,0,L|143:140,1,75.0000028610231,0|0,0:0|0:0,0:0:0:0:
371,260,36372,2,0,L|371:98,1,150.000005722046,8|0,0:0|0:0,0:0:0:0:
305,91,36629,1,0,0:0:0:0:
123,223,36715,2,0,L|375:197,1,225.000008583069,0|0,0:0|0:0,0:0:0:0:
178,153,37058,6,0,L|172:31,1,75.0000028610231,2|0,0:0|0:0,0:0:0:0:
349,96,37230,2,0,L|265:85,1,64.9999970245363,0|0,0:0|0:0,0:0:0:0:
465,290,37401,2,0,L|470:203,1,64.9999970245363,0|0,0:0|0:0,0:0:0:0:
251,232,37572,2,0,L|246:190,2,32.4999985122681,0|0|0,0:0|0:0|0:0,0:0:0:0:
456,86,37744,6,0,L|350:116,1,64.9999970245363,8|0,0:0|0:0,0:0:0:0:
202,46,37915,2,0,L|449:90,1,194.999991073609,2|0,0:0|0:0,0:0:0:0:
246,250,38258,2,0,L|129:219,1,64.9999970245363,0|0,0:0|0:0,0:0:0:0:
366,325,38430,5,2,0:0:0:0:
401,313,38472,1,0,0:0:0:0:
430,290,38515,1,0,0:0:0:0:
448,258,38558,1,0,0:0:0:0:
452,221,38601,1,0,0:0:0:0:
442,185,38644,1,0,0:0:0:0:
419,156,38687,1,0,0:0:0:0:
386,137,38730,1,0,0:0:0:0:
350,133,38772,1,0,0:0:0:0:
249,246,38944,2,0,L|356:248,1,64.9999970245363,0|0,0:0|0:0,0:0:0:0:
145,293,39115,6,0,L|142:130,1,129.999994049073,8|0,0:0|0:0,0:0:0:0:
220,140,39372,1,0,0:0:0:0:
377,112,39459,1,2,0:0:0:0:
220,140,39545,1,0,0:0:0:0:
377,112,39630,1,2,0:0:0:0:
220,140,39716,1,0,0:0:0:0:
49,303,39801,5,2,0:0:0:0:
34,273,39843,1,0,0:0:0:0:
30,241,39886,1,0,0:0:0:0:
38,210,39929,1,0,0:0:0:0:
55,183,39972,1,0,0:0:0:0:
81,163,40015,1,0,0:0:0:0:
111,153,40058,1,0,0:0:0:0:
276,137,40144,6,0,L|388:118,1,64.9999970245363,0|0,0:0|0:0,0:0:0:0:
175,51,40315,2,0,L|63:70,1,64.9999970245363,0|0,0:0|0:0,0:0:0:0:
372,284,40487,2,0,L|378:186,1,64.9999970245363,8|0,0:0|0:0,0:0:0:0:
191,220,40658,2,0,L|196:128,1,64.9999970245363,2|0,0:0|0:0,0:0:0:0:
390,109,40830,2,0,L|496:89,1,64.9999970245363,8|0,0:0|0:0,0:0:0:0:
233,320,41001,5,6,0:0:0:0:
193,318,41043,1,0,0:0:0:0:
157,304,41086,1,0,0:0:0:0:
127,279,41129,1,0,0:0:0:0:
107,236,41172,2,0,L|100:193,6,32.4999985122681,0|0|0|0|0|0|0,0:0|0:0|0:0|0:0|0:0|0:0|0:0,0:0:0:0:
299,179,41515,2,0,L|288:99,1,64.9999970245363,0|0,0:0|0:0,0:0:0:0:
126,106,41687,2,0,L|134:41,1,64.9999970245363,0|0,0:0|0:0,0:0:0:0:
390,252,41859,5,8,0:0:0:0:
357,248,41901,1,0,0:0:0:0:
325,244,41944,1,0,0:0:0:0:
293,240,41987,1,0,0:0:0:0:
260,237,42030,1,0,0:0:0:0:
228,233,42073,1,0,0:0:0:0:
196,229,42116,1,0,0:0:0:0:
163,226,42159,1,0,0:0:0:0:
131,222,42201,2,0,L|270:208,1,129.999994049073,0|0,0:0|0:0,0:0:0:0:
331,198,42458,1,0,0:0:0:0:
105,241,42544,6,0,L|100:140,1,64.9999970245363,2|0,0:0|0:0,0:0:0:0:
283,94,42715,2,0,L|372:62,1,64.9999970245363,0|0,0:0|0:0,0:0:0:0:
164,269,42887,1,0,0:0:0:0:
127,200,42972,1,0,0:0:0:0:
177,136,43058,1,0,0:0:0:0:
248,119,43144,1,0,0:0:0:0:
407,121,43230,2,0,L|309:99,1,64.9999970245363,8|0,0:0|0:0,0:0:0:0:
160,304,43401,2,0,L|258:326,1,64.9999970245363,2|0,0:0|0:0,0:0:0:0:
429,307,43572,2,0,L|423:127,1,129.999994049073
356,161,43830,1,0,0:0:0:0:
149,159,43915,6,0,L|291:135,1,129.999994049073,2|0,0:0|0:0,0:0:0:0:
333,115,44173,1,0,0:0:0:0:
166,314,44258,2,0,L|156:164,1,129.999994049073,0|0,0:0|0:0,0:0:0:0:
230,174,44515,1,0,0:0:0:0:
83,176,44601,2,0,L|76:105,1,64.9999970245363,8|0,0:0|0:0,0:0:0:0:
292,70,44772,2,0,L|217:57,1,64.9999970245363
402,300,44944,2,0,L|408:192,1,64.9999970245363,8|0,0:0|0:0,0:0:0:0:
223,187,45116,2,0,L|152:175,2,43.3333313496908,2|2|2,0:0|0:0|0:0,0:0:0:0:
400,336,45287,6,0,B|536:316|471:189|368:179|368:179|481:176|503:47|314:48,1,519.99997619629,2|0,0:0|0:0,0:0:0:0:
201,208,46144,2,0,L|114:179,1,64.9999970245363,2|2,0:0|0:0,0:0:0:0:
312,110,46315,2,0,L|399:81,1,64.9999970245363,8|8,0:0|0:0,0:0:0:0:
79,228,46487,2,0,L|110:114,1,64.9999970245363,8|8,0:0|0:0,0:0:0:0:
305,128,46658,5,6,0:0:0:0:
206,294,51972,6,0,L|277:286,1,59.9999981689454
334,309,52144,6,0,P|382:226|249:326,1,599.999981689454,2|0,0:0|0:0,0:0:0:0:
446,383,53344,6,0,P|283:348|454:-15,1,719.999978027344,2|0,0:0|0:0,0:0:0:0:
215,22,54715,6,0,P|407:98|134:328,1,719.999978027344,2|0,0:0|0:0,0:0:0:0:
256,192,56087,12,0,57287,0:0:0:0:
365,339,57630,6,0,P|421:282|294:55,1,359.999989013672,4|0,0:0|0:0,0:0:0:0:
192,243,58315,2,0,P|139:147|227:81,1,239.999992675781,8|0,0:0|0:0,0:0:0:0:
351,161,58830,1,2,0:0:0:0:
246,210,59001,2,0,L|79:163,1,119.999996337891,0|0,0:0|0:0,0:0:0:0:
251,42,59343,1,0,0:0:0:0:
323,135,59514,1,0,0:0:0:0:
323,253,59686,1,8,0:0:0:0:
252,346,59857,1,2,0:0:0:0:
138,376,60029,1,0,0:0:0:0:
394,352,60201,5,2,0:0:0:0:
475,261,60372,2,0,P|489:199|286:42,1,359.999989013672,0|0,0:0|0:0,0:0:0:0:
186,120,61058,1,8,0:0:0:0:
309,172,61230,2,0,L|443:123,1,119.999996337891,0|0,0:0|0:0,0:0:0:0:
236,315,61572,1,2,0:0:0:0:
155,193,61744,6,0,L|505:32,1,359.999989013672,0|0,0:0|0:0,0:0:0:0:
339,266,62430,1,8,0:0:0:0:
473,272,62601,2,0,L|466:29,1,239.999992675781,2|2,0:0|0:0,0:0:0:0:
403,42,63030,1,0,0:0:0:0:
243,304,63115,6,0,L|102:277,1,119.999996337891,2|0,0:0|0:0,0:0:0:0:
264,199,63458,2,0,L|135:173,1,119.999996337891,2|0,0:0|0:0,0:0:0:0:
300,256,63801,2,0,L|441:229,1,119.999996337891,2|0,0:0|0:0,0:0:0:0:
279,151,64144,2,0,L|408:125,1,119.999996337891,2|0,0:0|0:0,0:0:0:0:
44,206,64487,6,0,L|197:175,1,119.999996337891,2|2,0:0|0:0,0:0:0:0:
398,187,64830,2,0,L|245:218,1,119.999996337891,2|2,0:0|0:0,0:0:0:0:
44,206,65172,2,0,L|197:175,1,119.999996337891,2|2,0:0|0:0,0:0:0:0:
468,178,65515,2,0,L|315:209,1,119.999996337891,2|2,0:0|0:0,0:0:0:0:
87,263,65858,5,8,0:0:0:0:
63,197,65943,1,8,0:0:0:0:
95,134,66029,1,8,0:0:0:0:
162,115,66115,1,8,0:0:0:0:
332,203,66201,2,0,L|406:199,1,59.9999981689454,8|8,0:0|0:0,0:0:0:0:
315,166,66372,2,0,L|241:170,1,59.9999981689454,10|8,0:0|0:0,0:0:0:0:
462,268,66544,6,0,L|456:191,1,59.9999981689454,2|8,0:0|0:0,0:0:0:0:
372,174,66715,2,0,L|287:172,1,59.9999981689454,10|8,0:0|0:0,0:0:0:0:
122,159,66887,2,0,L|121:74,1,59.9999981689454,8|8,0:0|0:0,0:0:0:0:
326,114,67058,2,0,L|409:103,1,59.9999981689454,8|8,0:0|0:0,0:0:0:0:
88,214,67230,6,0,L|74:175,2,39.9999987792969,6|0|0,0:0|0:0|0:0,0:0:0:0:
133,213,67401,2,0,L|238:209,1,59.9999981689454,0|0,0:0|0:0,0:0:0:0:
353,201,67572,2,0,L|344:98,1,59.9999981689454,8|0,1:2|0:0,0:0:0:0:
282,114,67744,2,0,L|167:92,1,59.9999981689454,0|0,0:0|0:0,0:0:0:0:
399,224,67915,6,0,L|499:211,1,59.9999981689454,8|0,1:2|0:0,0:0:0:0:
201,288,68087,2,0,L|111:268,1,59.9999981689454,2|0,0:0|0:0,0:0:0:0:
325,135,68258,1,2,0:0:0:0:
490,84,68344,1,2,0:0:0:0:
325,135,68430,1,2,0:0:0:0:
156,146,68516,1,2,0:0:0:0:
425,290,68601,6,0,B|494:238|494:238|484:153|484:153|344:107,1,279.999991455078,6|8,0:0|0:0,0:0:0:0:
232,138,69115,1,0,0:0:0:0:
232,138,69201,1,0,0:0:0:0:
232,138,69287,1,0,0:0:0:0:
476,71,69458,2,0,L|321:38,1,139.999995727539,2|8,0:0|0:0,0:0:0:0:
48,187,69801,6,0,L|215:139,1,139.999995727539,2|4,0:0|0:0,0:0:0:0:
59,37,70144,2,0,L|48:107,1,69.9999978637696,2|0,0:0|0:0,0:0:0:0:
258,253,70315,1,10,0:0:0:0:
285,191,70400,1,0,0:0:0:0:
250,134,70486,1,2,0:0:0:0:
183,132,70572,1,0,0:0:0:0:
359,292,70658,2,0,L|428:258,1,69.9999978637696,2|0,0:0|0:0,0:0:0:0:
232,251,70830,2,0,L|236:151,1,69.9999978637696,6|0,0:0|0:0,0:0:0:0:
420,122,71001,2,0,L|328:101,1,69.9999978637696,10|0,0:0|0:0,0:0:0:0:
130,243,71172,6,0,L|118:61,1,139.999995727539,2|6,0:0|0:0,0:0:0:0:
261,121,71515,1,2,0:0:0:0:
118,65,71687,1,8,0:0:0:0:
274,241,71858,2,0,L|375:291,1,69.9999978637696,2|0,0:0|0:0,0:0:0:0:
271,186,72030,2,0,L|109:117,1,139.999995727539,2|6,0:0|0:0,0:0:0:0:
429,105,72372,1,10,0:0:0:0:
139,261,72544,6,0,P|103:199|254:109,1,279.999991455078,2|2,0:0|0:0,0:0:0:0:
309,118,72972,1,0,0:0:0:0:
112,298,73058,1,10,0:0:0:0:
80,237,73143,1,0,0:0:0:0:
96,170,73229,1,2,0:0:0:0:
154,134,73315,1,0,0:0:0:0:
315,202,73401,6,0,L|304:120,1,69.9999978637696,2|0,0:0|0:0,0:0:0:0:
143,79,73572,2,0,L|47:58,1,69.9999978637696,6|0,0:0|0:0,0:0:0:0:
291,278,73744,2,0,L|389:251,1,69.9999978637696,10|0,0:0|0:0,0:0:0:0:
137,148,73915,2,0,L|236:124,1,69.9999978637696,2|0,0:0|0:0,0:0:0:0:
428,209,74087,6,0,P|435:127|257:43,1,279.999991455078,4|8,0:0|0:0,0:0:0:0:
401,279,74601,1,0,0:0:0:0:
403,209,74687,1,0,0:0:0:0:
406,139,74772,1,0,0:0:0:0:
255,185,74944,2,0,L|65:130,1,139.999995727539,6|10,0:0|0:0,0:0:0:0:
425,217,75287,2,0,L|417:127,1,69.9999978637696,2|0,0:0|0:0,0:0:0:0:
341,117,75458,6,0,L|54:33,1,279.999991455078,4|8,0:0|0:0,0:0:0:0:
190,190,75972,2,0,L|378:246,1,139.999995727539,2|0,0:0|0:0,0:0:0:0:
64,280,76315,2,0,L|55:133,1,139.999995727539,6|8,0:0|0:0,0:0:0:0:
411,254,76658,1,2,0:0:0:0:
264,269,76830,6,0,P|164:208|255:75,1,279.999991455078,4|8,0:0|0:0,0:0:0:0:
493,118,77344,2,0,L|351:74,1,139.999995727539,2|0,0:0|0:0,0:0:0:0:
130,227,77686,2,0,L|272:271,1,139.999995727539,6|8,0:0|0:0,0:0:0:0:
30,282,78030,6,0,L|48:122,1,139.999995727539,2|4,0:0|0:0,0:0:0:0:
301,214,78373,1,2,0:0:0:0:
175,217,78544,2,0,L|159:44,1,139.999995727539,10|2,0:0|0:0,0:0:0:0:
320,96,78887,1,2,0:0:0:0:
167,266,79058,2,0,L|103:234,1,69.9999978637696,6|4,0:0|0:0,0:0:0:0:
321,194,79230,2,0,L|416:157,1,69.9999978637696,8|8,0:0|0:0,0:0:0:0:
142,154,79401,2,0,L|47:117,1,69.9999978637696,8|8,0:0|0:0,0:0:0:0:
408,298,79572,6,0,L|422:90,1,139.999995727539,6|2,0:0|0:0,0:0:0:0:
160,183,79915,1,10,0:0:0:0:
276,79,80087,2,0,L|174:65,1,69.9999978637696,2|0,0:0|0:0,0:0:0:0:
420,278,80258,2,0,L|426:121,1,139.999995727539,2|6,0:0|0:0,0:0:0:0:
344,164,80515,1,0,0:0:0:0:
139,206,80602,1,10,0:0:0:0:
466,129,80772,6,0,L|303:73,1,139.999995727539,2|4,0:0|0:0,0:0:0:0:
98,218,81115,2,0,L|261:274,1,139.999995727539,2|8,0:0|0:0,0:0:0:0:
100,296,81458,1,2,0:0:0:0:
63,238,81543,1,0,0:0:0:0:
82,173,81629,1,2,0:0:0:0:
143,145,81715,1,0,0:0:0:0:
297,137,81801,2,0,L|378:119,1,69.9999978637696,6|0,0:0|0:0,0:0:0:0:
188,252,81972,2,0,L|185:143,1,69.9999978637696,10|0,0:0|0:0,0:0:0:0:
379,206,82144,2,0,L|367:108,1,69.9999978637696,2|0,0:0|0:0,0:0:0:0:
184,299,82315,6,0,P|183:206|339:100,1,279.999991455078,4|8,0:0|0:0,0:0:0:0:
449,251,82830,1,0,0:0:0:0:
450,181,82915,1,0,0:0:0:0:
451,111,83001,1,0,0:0:0:0:
178,127,83172,2,0,L|345:100,1,139.999995727539,6|10,0:0|0:0,0:0:0:0:
57,268,83515,6,0,L|70:85,1,139.999995727539,2|4,0:0|0:0,0:0:0:0:
207,211,83858,2,0,L|276:180,1,69.9999978637696,2|0,0:0|0:0,0:0:0:0:
82,249,84030,1,10,0:0:0:0:
62,182,84115,1,0,0:0:0:0:
75,114,84201,1,2,0:0:0:0:
118,59,84287,1,0,0:0:0:0:
181,31,84372,1,2,0:0:0:0:
250,35,84458,1,0,0:0:0:0:
86,255,84544,2,0,L|78:166,1,69.9999978637696,6|0,0:0|0:0,0:0:0:0:
266,184,84715,2,0,L|375:164,1,69.9999978637696,10|0,0:0|0:0,0:0:0:0:
163,163,84887,2,0,L|165:57,1,69.9999978637696,2|0,0:0|0:0,0:0:0:0:
397,290,85058,6,0,P|420:187|282:107,1,279.999991455078,4|8,0:0|0:0,0:0:0:0:
136,262,85572,1,0,0:0:0:0:
131,192,85657,1,0,0:0:0:0:
127,122,85743,1,0,0:0:0:0:
266,154,85915,1,6,0:0:0:0:
413,88,86087,1,8,0:0:0:0:
284,116,86258,2,0,L|187:59,1,69.9999978637696,2|0,0:0|0:0,0:0:0:0:
372,296,86430,6,0,P|464:262|402:107,1,279.999991455078,4|8,0:0|0:0,0:0:0:0:
143,157,86944,2,0,L|312:110,1,139.999995727539,2|0,0:0|0:0,0:0:0:0:
398,48,87287,2,0,L|229:95,1,139.999995727539,6|8,0:0|0:0,0:0:0:0:
28,184,87630,1,2,0:0:0:0:
308,210,87801,5,4,0:0:0:0:
161,182,87972,1,4,0:0:0:0:
427,123,88143,1,8,0:0:0:0:
300,297,88315,2,0,L|301:211,1,69.9999978637696,6|0,0:0|0:0,0:0:0:0:
380,206,88487,2,0,L|389:108,1,69.9999978637696,2|0,0:0|0:0,0:0:0:0:
200,118,88658,2,4,L|85:85,1,69.9999978637696
387,267,88830,6,8,L|481:240,1,69.9999978637696
185,244,89001,2,8,L|91:217,1,69.9999978637696
424,214,89172,6,0,L|437:164,2,46.6666652425131,6|0|0,0:0|0:0|0:0,0:0:0:0:
379,213,89344,2,0,L|274:209,1,69.9999978637696
159,129,89515,2,0,L|153:199,1,69.9999978637696,8|0,1:2|0:0,0:0:0:0:
221,130,89686,2,0,L|332:78,1,69.9999978637696,0|0,0:0|0:0,0:0:0:0:
199,74,89858,6,0,L|104:17,1,69.9999978637696,0|0,0:0|0:0,0:0:0:0:
363,273,90029,2,0,L|453:253,1,69.9999978637696,4|0,0:0|0:0,0:0:0:0:
178,295,90201,1,10,1:2:0:0:
141,237,90286,1,0,0:0:0:0:
161,172,90372,1,2,0:0:0:0:
224,146,90458,1,0,0:0:0:0:
446,115,90544,5,6,0:0:0:0:
256,192,90715,12,2,94487,0:0:0:0:
367,311,95858,6,0,L|434:280,1,59.9999981689454,0|0,0:0|0:0,0:0:0:0:
360,351,96030,2,0,P|234:315|454:101,1,599.999981689454,2|0,0:0|0:0,0:0:0:0:
235,295,97230,2,0,P|186:175|339:326,1,719.999978027344,2|0,0:0|0:0,0:0:0:0:
205,378,98601,6,0,P|476:158|232:-38,1,719.999978027344,2|0,0:0|0:0,0:0:0:0:
87,310,99972,2,0,P|69:202|384:336,1,719.999978027344,2|0,0:0|0:0,0:0:0:0:
162,367,101515,6,0,B|384:275|384:275|386:158|386:158|136:69,1,599.999981689454,2|0,0:0|0:0,0:0:0:0:
343,257,102715,2,0,B|469:238|469:238|116:202|116:202|367:159,1,719.999978027344,2|0,0:0|0:0,0:0:0:0:
149,311,104087,6,0,B|151:188|151:188|271:184|271:184|29:171|29:171|309:161,1,719.999978027344,2|0,0:0|0:0,0:0:0:0:
412,297,105458,2,0,B|413:175|413:175|53:170|53:170|51:52|51:52|182:51,1,719.999978027344,2|0,0:0|0:0,0:0:0:0:
383,344,106830,2,0,L|386:271,1,59.9999981689454,2|0,0:0|0:0,0:0:0:0:
322,346,107001,6,0,P|226:321|417:57,1,599.999981689454,2|0,0:0|0:0,0:0:0:0:
189,359,108200,2,0,P|285:334|94:70,1,599.999981689454,2|0,0:0|0:0,0:0:0:0:
396,348,109573,6,0,P|427:171|201:360,1,719.999978027344,2|0,0:0|0:0,0:0:0:0:
406,384,110944,2,0,L|403:34,1,350,2|0,0:0|0:0,0:0:0:0:
344,37,112230,1,0,0:0:0:0:
183,127,112315,1,0,0:0:0:0:
125,92,112401,1,0,0:0:0:0:
409,114,112487,1,2,0:0:0:0:
