osu file format v14

[General]
AudioFilename: audio.mp3
AudioLeadIn: 0
PreviewTime: 68492
Countdown: 0
SampleSet: Soft
StackLeniency: 0.7
Mode: 3
LetterboxInBreaks: 0
SpecialStyle: 0
WidescreenStoryboard: 1

[Editor]
Bookmarks: 24864,46978,68921
DistanceSpacing: 2
BeatDivisor: 4
GridSize: 16
TimelineZoom: 2

[Metadata]
Title:Sakura Fubuki
TitleUnicode:Sakura Fubuki
Artist:Street
ArtistUnicode:Street
Creator:Shima Rin
Version:mint's Pink Another
Source:SOUND VOLTEX EXCEED GEAR
Tags:Tofu1222 FAMoss qqqant -mint- Murumoo Muse Dash SDVX 6 VI Dynamix maimai MURASAKi CHUNITHM AIR オンゲキ ONGEKI PLUS O.N.G.E.K.I. BEMANI KONAMI SEGA 桜吹雪 BMS of Fighters Ultimate BOFU2015 osu! FA Featured Artist Artcore Video Game Electronic Instrumental
BeatmapID:2727122
BeatmapSetID:1224402

[Difficulty]
HPDrainRate:8.5
CircleSize:4
OverallDifficulty:8.5
ApproachRate:5
SliderMultiplier:1.4
SliderTickRate:1

[Events]
//Background and Video events
0,0,"BG.jpg",0,0
//Break Periods
//Storyboard Layer 0 (Background)
//Storyboard Layer 1 (Fail)
//Storyboard Layer 2 (Pass)
//Storyboard Layer 3 (Foreground)
//Storyboard Layer 4 (Overlay)
//Storyboard Sound Samples

[TimingPoints]
362,342.857142857143,4,2,1,30,1,0
11333,-100,4,2,1,50,0,0
16819,-100,4,2,1,60,0,0
19562,-100,4,2,1,70,0,0
47162,-100,4,2,1,30,0,0
57962,-100,4,2,1,50,0,0
63447,-100,4,2,1,60,0,0
66190,-100,4,2,1,70,0,0
68933,-100,4,2,1,70,0,1
90876,-100,4,2,1,30,0,0

[HitObjects]
192,192,362,128,4,447:0:0:0:0:
448,192,362,1,0,0:0:0:100:PF1_5C.wav
320,192,2419,128,0,2504:0:0:0:100:PF3_5D.wav
64,192,2933,128,0,3019:0:0:0:100:PF1_4G.wav
320,192,3276,1,0,0:0:0:0:
192,192,3362,1,0,0:0:0:0:
448,192,3447,1,0,0:0:0:0:
64,192,3533,1,0,0:0:0:0:
320,192,3619,1,0,0:0:0:0:
448,192,3704,1,0,0:0:0:0:
192,192,3790,1,0,0:0:0:0:
448,192,3876,1,0,0:0:0:0:
64,192,3962,1,0,0:0:0:0:
320,192,4047,1,0,0:0:0:0:
64,192,4133,1,0,0:0:0:0:
448,192,4219,1,0,0:0:0:0:
192,192,4304,1,0,0:0:0:0:
320,192,4390,1,0,0:0:0:0:
64,192,4476,1,0,0:0:0:0:
448,192,4562,1,0,0:0:0:0:
192,192,4647,1,0,0:0:0:0:
320,192,4733,1,0,0:0:0:0:
192,192,4819,1,0,0:0:0:0:
448,192,4904,1,0,0:0:0:0:
64,192,4990,1,0,0:0:0:0:
320,192,5076,1,0,0:0:0:0:
192,192,5162,1,0,0:0:0:0:
320,192,5247,1,0,0:0:0:0:
64,192,5333,1,0,0:0:0:0:
192,192,5419,1,0,0:0:0:0:
448,192,5504,1,0,0:0:0:0:
64,192,5590,1,0,0:0:0:0:
448,192,5676,1,0,0:0:0:0:
192,192,5762,1,0,0:0:0:0:
320,192,5847,128,0,5933:0:0:0:100:PF1_5F.wav
64,192,5933,1,0,0:0:0:0:
448,192,6019,1,0,0:0:0:0:
192,192,6104,1,0,0:0:0:0:
448,192,6190,1,0,0:0:0:0:
64,192,6276,1,0,0:0:0:0:
320,192,6362,1,0,0:0:0:0:
192,192,6447,1,0,0:0:0:0:
320,192,6533,1,0,0:0:0:0:
64,192,6619,1,0,0:0:0:0:
448,192,6704,1,0,0:0:0:0:
192,192,6790,1,0,0:0:0:0:
320,192,6876,1,0,0:0:0:0:
448,192,7904,128,0,7990:0:0:0:100:PF3_5G.wav
192,192,8419,128,0,8504:0:0:0:100:PF1_5D.wav
64,192,8762,1,0,0:0:0:0:
320,192,8847,1,0,0:0:0:0:
192,192,8933,1,0,0:0:0:0:
448,192,9019,1,0,0:0:0:0:
320,192,9104,1,0,0:0:0:0:
64,192,9190,1,0,0:0:0:0:
448,192,9276,1,0,0:0:0:0:
64,192,9362,1,0,0:0:0:0:
320,192,9447,1,0,0:0:0:0:
192,192,9533,1,0,0:0:0:0:
320,192,9619,1,0,0:0:0:0:
64,192,9704,1,0,0:0:0:0:
192,192,9790,1,0,0:0:0:0:
448,192,9876,1,0,0:0:0:0:
64,192,9962,1,0,0:0:0:0:
448,192,10047,1,0,0:0:0:0:
192,192,10133,1,0,0:0:0:0:
320,192,10219,1,0,0:0:0:0:
192,192,10304,1,0,0:0:0:0:
448,192,10390,1,0,0:0:0:0:
64,192,10476,1,0,0:0:0:0:
320,192,10562,1,0,0:0:0:0:
192,192,10647,1,0,0:0:0:0:
448,192,10733,1,0,0:0:0:0:
64,192,10819,1,0,0:0:0:0:
320,192,10876,1,0,0:0:0:0:
448,192,10933,1,0,0:0:0:0:
192,192,10990,1,0,0:0:0:0:
320,192,11033,1,0,0:0:0:0:
64,192,11076,1,0,0:0:0:0:
192,192,11119,1,0,0:0:0:0:
448,192,11162,1,0,0:0:0:0:
64,192,11204,1,0,0:0:0:0:
320,192,11247,1,0,0:0:0:0:
448,192,11290,1,0,0:0:0:0:
64,192,11333,1,2,0:0:0:0:
192,192,11333,1,0,0:0:0:100:PF1_5C.wav
320,192,11419,1,0,0:0:0:0:
448,192,11504,1,0,0:0:0:0:
320,192,11590,1,0,0:0:0:0:
192,192,11676,1,0,0:0:0:0:
448,192,11762,1,0,0:0:0:0:
320,192,11847,1,0,0:0:0:0:
448,192,11933,1,0,0:0:0:0:
192,192,12019,1,0,0:0:0:0:
320,192,12104,1,0,0:0:0:0:
448,192,12190,1,0,0:0:0:0:
320,192,12276,1,0,0:0:0:0:
192,192,12362,1,0,0:0:0:0:
448,192,12447,1,0,0:0:0:0:
64,192,12533,1,0,0:0:0:0:
320,192,12619,1,0,0:0:0:0:
192,192,12704,1,0,0:0:0:0:
448,192,12790,1,0,0:0:0:0:
64,192,12876,1,0,0:0:0:0:
448,192,12962,1,0,0:0:0:0:
192,192,13047,1,0,0:0:0:0:
320,192,13133,1,0,0:0:0:0:
64,192,13219,1,0,0:0:0:0:
192,192,13304,1,0,0:0:0:0:
448,192,13390,1,0,0:0:0:100:PF3_5D.wav
64,192,13476,1,0,0:0:0:0:
320,192,13562,1,0,0:0:0:0:
192,192,13647,1,0,0:0:0:0:
448,192,13733,1,0,0:0:0:0:
64,192,13819,1,0,0:0:0:0:
320,192,13904,1,0,0:0:0:100:PF1_4G.wav
192,192,13990,1,0,0:0:0:0:
64,192,14076,1,0,0:0:0:0:
448,192,14162,1,0,0:0:0:0:
320,192,14247,1,0,0:0:0:0:
448,192,14333,1,0,0:0:0:0:
64,192,14419,1,0,0:0:0:0:
320,192,14504,1,0,0:0:0:0:
448,192,14590,1,0,0:0:0:0:
320,192,14676,1,0,0:0:0:0:
64,192,14762,1,0,0:0:0:0:
448,192,14847,1,0,0:0:0:0:
320,192,14933,1,0,0:0:0:0:
448,192,15019,1,0,0:0:0:0:
64,192,15104,1,0,0:0:0:0:
320,192,15190,1,0,0:0:0:0:
192,192,15276,1,0,0:0:0:100:PF15_5F.wav
448,192,15362,1,0,0:0:0:0:
320,192,15447,1,0,0:0:0:0:
64,192,15533,1,0,0:0:0:0:
448,192,15619,1,0,0:0:0:0:
64,192,15704,1,0,0:0:0:0:
320,192,15790,1,0,0:0:0:0:
192,192,15876,1,0,0:0:0:0:
64,192,15962,1,0,0:0:0:0:
192,192,16047,1,0,0:0:0:0:
320,192,16133,1,0,0:0:0:0:
64,192,16219,1,0,0:0:0:0:
448,192,16304,1,0,0:0:0:0:
192,192,16390,1,0,0:0:0:0:
320,192,16476,1,0,0:0:0:0:
64,192,16562,1,0,0:0:0:0:
192,192,16647,1,0,0:0:0:0:
448,192,16733,1,0,0:0:0:0:
64,192,16819,1,2,0:0:0:0:
192,192,16819,1,0,0:0:0:0:
320,192,16904,1,0,0:0:0:0:
448,192,16990,1,0,0:0:0:0:
320,192,17076,1,0,0:0:0:0:
64,192,17162,1,2,0:0:0:0:
192,192,17162,1,0,0:0:0:0:
448,192,17247,1,0,0:0:0:0:
320,192,17333,1,0,0:0:0:0:
448,192,17419,1,0,0:0:0:0:
64,192,17504,1,2,0:0:0:0:
192,192,17504,1,0,0:0:0:0:
320,192,17590,1,0,0:0:0:0:
448,192,17676,1,0,0:0:0:0:
320,192,17762,1,0,0:0:0:0:
64,192,17847,1,2,0:0:0:0:
192,192,17847,1,0,0:0:0:0:
448,192,17933,1,0,0:0:0:0:
64,192,18019,1,0,0:0:0:0:
192,192,18104,1,0,0:0:0:0:
320,192,18190,1,2,0:0:0:0:
448,192,18190,1,0,0:0:0:0:
64,192,18276,1,0,0:0:0:0:
192,192,18362,1,2,0:0:0:0:
448,192,18362,1,0,0:0:0:0:
64,192,18447,1,0,0:0:0:0:
320,192,18533,1,2,0:0:0:0:
448,192,18533,1,0,0:0:0:0:
192,192,18619,1,0,0:0:0:0:
64,192,18704,1,2,0:0:0:0:
448,192,18704,1,0,0:0:0:0:
320,192,18790,1,0,0:0:0:0:
64,192,18876,1,2,0:0:0:0:
192,192,18876,1,0,0:0:0:0:
448,192,18962,1,0,0:0:0:0:
64,192,19047,1,2,0:0:0:0:
320,192,19047,1,0,0:0:0:0:
448,192,19133,1,0,0:0:0:0:
64,192,19219,1,2,0:0:0:0:
192,192,19219,1,0,0:0:0:0:
320,192,19304,1,0,0:0:0:0:
64,192,19390,1,2,0:0:0:0:
448,192,19390,1,0,0:0:0:0:
192,192,19476,1,0,0:0:0:0:
320,192,19562,1,2,0:0:0:0:
448,192,19562,1,0,0:0:0:0:
320,192,19647,1,2,0:0:0:0:
448,192,19647,1,0,0:0:0:0:
192,192,19733,1,2,0:0:0:0:
192,192,19819,1,2,0:0:0:0:
320,192,19904,1,2,0:0:0:0:
320,192,19990,1,2,0:0:0:0:
192,192,20076,1,2,0:0:0:0:
192,192,20162,1,2,0:0:0:0:
448,192,20247,1,2,0:0:0:0:
64,192,20333,1,2,0:0:0:0:
448,192,20419,1,2,0:0:0:0:
64,192,20504,1,2,0:0:0:0:
320,192,20590,1,8,0:0:0:0:
448,192,20590,1,0,0:0:0:0:
64,192,20676,1,8,0:0:0:0:
192,192,20676,1,0,0:0:0:0:
64,192,20762,1,8,0:0:0:0:
448,192,20762,1,0,0:0:0:0:
192,192,20847,1,8,0:0:0:0:
320,192,20847,1,0,0:0:0:0:
64,192,20933,1,2,0:0:0:0:
320,192,20933,1,0,0:0:0:0:
448,192,20933,1,0,0:0:0:0:
192,192,20990,1,0,0:0:0:100:FillD_02.wav
320,192,21047,1,0,0:0:0:100:FillD_02.wav
192,192,21104,1,0,0:0:0:100:FillD_02.wav
320,192,21190,1,0,0:0:0:100:FillD_02.wav
64,192,21276,1,0,0:0:0:100:FillD_02.wav
448,192,21276,1,0,0:0:0:0:
192,192,21362,1,0,0:0:0:100:FillD_02.wav
320,192,21447,1,2,0:0:0:0:
320,192,21533,1,2,0:0:0:0:
64,192,21619,1,0,0:0:0:100:FillD_02.wav
448,192,21619,1,0,0:0:0:0:
64,192,21704,1,0,0:0:0:100:FillD_02.wav
448,192,21704,1,0,0:0:0:0:
192,192,21790,1,0,0:0:0:100:FillD_02.wav
320,192,21876,1,0,0:0:0:100:FillD_02.wav
64,192,21962,1,2,0:0:0:0:
448,192,22019,1,2,0:0:0:0:
192,192,22047,1,0,0:0:0:0:
320,192,22076,1,2,0:0:0:0:
448,192,22133,1,2,0:0:0:0:
64,192,22190,1,2,0:0:0:0:
320,192,22219,1,0,0:0:0:0:
192,192,22247,1,2,0:0:0:0:
64,192,22304,1,2,0:0:0:0:
320,192,22304,1,8,0:0:0:0:
448,192,22304,1,4,0:0:0:0:
64,192,22476,1,2,0:0:0:0:
320,192,22476,1,8,0:0:0:0:
448,192,22476,1,4,0:0:0:0:
64,192,22819,1,2,0:0:0:0:
320,192,22819,1,8,0:0:0:0:
448,192,22819,1,4,0:0:0:0:
64,192,22990,1,2,0:0:0:0:
320,192,22990,1,8,0:0:0:0:
448,192,22990,1,4,0:0:0:0:
64,192,23333,1,4,0:0:0:0:
320,192,23333,1,8,0:0:0:0:
448,192,23333,1,2,0:0:0:0:
64,192,23504,1,4,0:0:0:0:
320,192,23504,1,8,0:0:0:0:
448,192,23504,1,2,0:0:0:0:
64,192,23847,1,2,0:0:0:0:
192,192,23847,1,8,0:0:0:0:
448,192,23847,1,4,0:0:0:0:
64,192,24019,1,2,0:0:0:0:
192,192,24019,1,8,0:0:0:0:
448,192,24019,1,4,0:0:0:0:
64,192,24362,1,8,0:0:0:0:
320,192,24362,128,0,24533:0:0:0:0:
64,192,24533,1,2,0:0:0:0:
192,192,24533,1,0,0:0:0:0:
320,192,24619,1,2,0:0:0:0:
448,192,24619,1,0,0:0:0:0:
64,192,24704,1,8,0:0:0:0:
448,192,24704,1,0,0:0:0:0:
192,192,24790,1,8,0:0:0:0:
320,192,24790,1,0,0:0:0:0:
64,192,24876,1,2,0:0:0:0:
192,192,24876,1,4,0:0:0:0:
448,192,24876,1,0,0:0:0:0:
320,192,24962,1,0,0:0:0:0:
192,192,25047,1,0,0:0:0:0:
64,192,25090,1,0,0:0:0:0:
320,192,25133,1,0,0:0:0:0:
192,192,25176,1,0,0:0:0:0:
448,192,25219,1,0,0:0:0:0:
64,192,25262,1,0,0:0:0:0:
320,192,25304,1,0,0:0:0:0:
448,192,25347,1,0,0:0:0:0:
192,192,25390,1,0,0:0:0:0:
320,192,25476,1,0,0:0:0:0:
192,192,25562,1,0,0:0:0:0:
192,192,25647,1,0,0:0:0:0:
64,192,25733,1,8,0:0:0:0:
448,192,25733,1,0,0:0:0:0:
320,192,25904,1,0,0:0:0:0:
320,192,25990,1,0,0:0:0:0:
192,192,26076,1,0,0:0:0:0:
448,192,26119,1,0,0:0:0:0:
64,192,26162,1,0,0:0:0:0:
320,192,26204,1,0,0:0:0:0:
448,192,26247,1,0,0:0:0:0:
192,192,26290,1,0,0:0:0:0:
320,192,26333,1,0,0:0:0:0:
448,192,26376,1,0,0:0:0:0:
64,192,26419,1,2,0:0:0:0:
192,192,26419,1,0,0:0:0:0:
320,192,26504,1,0,0:0:0:0:
64,192,26590,1,0,0:0:0:0:
64,192,26676,1,0,0:0:0:0:
64,192,26762,1,0,0:0:0:0:
320,192,26819,1,0,0:0:0:0:
192,192,26876,1,0,0:0:0:0:
448,192,26933,1,0,0:0:0:0:
64,192,26976,1,0,0:0:0:0:
192,192,27019,1,0,0:0:0:0:
320,192,27062,1,0,0:0:0:0:
64,192,27104,1,8,0:0:0:0:
448,192,27104,128,0,27276:0:0:0:0:
64,192,27276,1,2,0:0:0:0:
192,192,27276,1,0,0:0:0:0:
320,192,27362,1,0,0:0:0:0:
192,192,27404,1,0,0:0:0:0:
448,192,27447,1,0,0:0:0:0:
64,192,27490,1,0,0:0:0:0:
192,192,27533,1,0,0:0:0:0:
320,192,27619,1,0,0:0:0:0:
320,192,27704,1,0,0:0:0:0:
64,192,27790,1,2,0:0:0:0:
192,192,27790,1,0,0:0:0:0:
448,192,27876,1,0,0:0:0:0:
320,192,27919,1,0,0:0:0:0:
192,192,27962,1,0,0:0:0:0:
64,192,28004,1,0,0:0:0:0:
448,192,28047,1,0,0:0:0:0:
192,192,28090,1,0,0:0:0:0:
320,192,28133,1,0,0:0:0:0:
448,192,28176,1,0,0:0:0:0:
64,192,28219,1,0,0:0:0:0:
320,192,28304,1,0,0:0:0:0:
320,192,28390,1,0,0:0:0:0:
192,192,28476,1,8,0:0:0:0:
448,192,28476,1,0,0:0:0:0:
64,192,28647,1,0,0:0:0:0:
64,192,28733,1,0,0:0:0:0:
448,192,28819,1,0,0:0:0:0:
448,192,28904,1,0,0:0:0:0:
448,192,28990,1,0,0:0:0:0:
448,192,29076,1,0,0:0:0:0:
64,192,29162,1,2,0:0:0:0:
192,192,29162,1,0,0:0:0:0:
320,192,29247,1,0,0:0:0:0:
448,192,29304,1,0,0:0:0:0:
192,192,29362,1,0,0:0:0:0:
64,192,29419,1,0,0:0:0:0:
320,192,29504,1,0,0:0:0:0:
320,192,29590,1,0,0:0:0:0:
192,192,29676,1,0,0:0:0:0:
192,192,29762,1,0,0:0:0:0:
64,192,29847,1,8,0:0:0:0:
448,192,29847,1,0,0:0:0:0:
320,192,29933,1,0,0:0:0:0:
64,192,30019,1,2,0:0:0:0:
192,192,30019,1,0,0:0:0:0:
448,192,30104,1,0,0:0:0:0:
64,192,30190,1,8,0:0:0:0:
320,192,30190,1,0,0:0:0:0:
320,192,30276,1,0,0:0:0:0:
64,192,30362,1,4,0:0:0:0:
192,192,30362,1,2,0:0:0:0:
448,192,30362,1,0,0:0:0:0:
320,192,30447,1,0,0:0:0:0:
192,192,30533,1,0,0:0:0:0:
64,192,30576,1,0,0:0:0:0:
320,192,30619,1,0,0:0:0:0:
192,192,30662,1,0,0:0:0:0:
448,192,30704,1,0,0:0:0:0:
64,192,30747,1,0,0:0:0:0:
320,192,30790,1,0,0:0:0:0:
448,192,30833,1,0,0:0:0:0:
192,192,30876,1,0,0:0:0:0:
192,192,30962,1,0,0:0:0:0:
320,192,31047,1,0,0:0:0:0:
320,192,31133,1,0,0:0:0:0:
64,192,31219,1,8,0:0:0:0:
448,192,31219,1,0,0:0:0:0:
192,192,31276,1,0,0:0:0:0:
320,192,31333,1,0,0:0:0:0:
64,192,31390,1,0,0:0:0:0:
448,192,31433,1,0,0:0:0:0:
320,192,31476,1,0,0:0:0:0:
192,192,31519,1,0,0:0:0:0:
64,192,31562,128,0,31690:0:0:0:0:
448,192,31733,1,0,0:0:0:0:
448,192,31819,1,0,0:0:0:0:
64,192,31904,1,2,0:0:0:0:
192,192,31904,1,0,0:0:0:0:
192,192,32076,1,0,0:0:0:0:
192,192,32162,1,0,0:0:0:0:
192,192,32247,1,0,0:0:0:0:
448,192,32290,1,0,0:0:0:0:
320,192,32333,1,0,0:0:0:0:
64,192,32376,1,0,0:0:0:0:
448,192,32419,1,0,0:0:0:0:
192,192,32462,1,0,0:0:0:0:
64,192,32504,1,0,0:0:0:0:
320,192,32547,1,0,0:0:0:0:
192,192,32590,1,8,0:0:0:0:
448,192,32590,1,0,0:0:0:0:
64,192,32762,1,2,0:0:0:0:
192,192,32762,1,0,0:0:0:0:
320,192,32847,1,0,0:0:0:0:
448,192,32933,128,0,33062:0:0:0:0:
64,192,33104,1,0,0:0:0:0:
64,192,33190,1,0,0:0:0:0:
320,192,33276,1,2,0:0:0:0:
448,192,33276,1,0,0:0:0:0:
64,192,33362,1,0,0:0:0:0:
192,192,33404,1,0,0:0:0:0:
320,192,33447,1,0,0:0:0:0:
448,192,33490,1,0,0:0:0:0:
64,192,33533,1,0,0:0:0:0:
320,192,33576,1,0,0:0:0:0:
192,192,33619,1,0,0:0:0:0:
64,192,33662,1,0,0:0:0:0:
448,192,33704,1,0,0:0:0:0:
192,192,33790,1,0,0:0:0:0:
192,192,33876,1,0,0:0:0:0:
64,192,33962,1,8,0:0:0:0:
448,192,33962,1,0,0:0:0:0:
320,192,34133,1,0,0:0:0:0:
320,192,34219,1,0,0:0:0:0:
64,192,34304,1,8,0:0:0:0:
448,192,34304,1,0,0:0:0:0:
192,192,34333,1,0,0:0:0:0:
64,192,34476,1,4,0:0:0:0:
320,192,34476,1,2,0:0:0:0:
448,192,34476,1,0,0:0:0:0:
320,192,34647,1,0,0:0:0:0:
192,192,34819,1,0,0:0:0:0:
64,192,34876,1,0,0:0:0:0:
320,192,34933,1,0,0:0:0:0:
448,192,34990,1,0,0:0:0:0:
448,192,35076,1,0,0:0:0:0:
64,192,35162,1,4,0:0:0:0:
192,192,35162,1,2,0:0:0:0:
320,192,35162,1,0,0:0:0:0:
64,192,35333,1,8,0:0:0:0:
448,192,35333,1,0,0:0:0:0:
64,192,35504,1,2,0:0:0:0:
192,192,35504,1,4,0:0:0:0:
320,192,35504,1,0,0:0:0:0:
64,192,35676,1,8,0:0:0:0:
448,192,35676,1,0,0:0:0:0:
64,192,35847,1,2,0:0:0:0:
192,192,35847,1,4,0:0:0:0:
448,192,35847,1,0,0:0:0:0:
320,192,35933,1,0,0:0:0:0:
192,192,36019,1,0,0:0:0:0:
64,192,36062,1,0,0:0:0:0:
320,192,36104,1,0,0:0:0:0:
192,192,36147,1,0,0:0:0:0:
448,192,36190,1,0,0:0:0:0:
64,192,36233,1,0,0:0:0:0:
320,192,36276,1,0,0:0:0:0:
448,192,36319,1,0,0:0:0:0:
192,192,36362,1,0,0:0:0:0:
320,192,36447,1,0,0:0:0:0:
192,192,36533,1,0,0:0:0:0:
192,192,36619,1,0,0:0:0:0:
64,192,36704,1,8,0:0:0:0:
448,192,36704,1,0,0:0:0:0:
320,192,36876,1,0,0:0:0:0:
320,192,36962,1,0,0:0:0:0:
192,192,37047,1,0,0:0:0:0:
448,192,37090,1,0,0:0:0:0:
64,192,37133,1,0,0:0:0:0:
320,192,37176,1,0,0:0:0:0:
448,192,37219,1,0,0:0:0:0:
192,192,37262,1,0,0:0:0:0:
320,192,37304,1,0,0:0:0:0:
448,192,37347,1,0,0:0:0:0:
64,192,37390,1,2,0:0:0:0:
192,192,37390,1,0,0:0:0:0:
320,192,37476,1,0,0:0:0:0:
64,192,37562,1,0,0:0:0:0:
64,192,37647,1,0,0:0:0:0:
64,192,37733,1,0,0:0:0:0:
320,192,37790,1,0,0:0:0:0:
192,192,37847,1,0,0:0:0:0:
448,192,37904,1,0,0:0:0:0:
64,192,37947,1,0,0:0:0:0:
192,192,37990,1,0,0:0:0:0:
320,192,38033,1,0,0:0:0:0:
64,192,38076,1,8,0:0:0:0:
448,192,38076,128,0,38247:0:0:0:0:
64,192,38247,1,2,0:0:0:0:
192,192,38247,1,0,0:0:0:0:
320,192,38333,1,0,0:0:0:0:
192,192,38376,1,0,0:0:0:0:
448,192,38419,1,0,0:0:0:0:
64,192,38462,1,0,0:0:0:0:
192,192,38504,1,0,0:0:0:0:
320,192,38590,1,0,0:0:0:0:
320,192,38676,1,0,0:0:0:0:
64,192,38762,1,2,0:0:0:0:
192,192,38762,1,0,0:0:0:0:
448,192,38847,1,0,0:0:0:0:
320,192,38890,1,0,0:0:0:0:
192,192,38933,1,0,0:0:0:0:
64,192,38976,1,0,0:0:0:0:
448,192,39019,1,0,0:0:0:0:
192,192,39062,1,0,0:0:0:0:
320,192,39104,1,0,0:0:0:0:
448,192,39147,1,0,0:0:0:0:
64,192,39190,1,0,0:0:0:0:
320,192,39276,1,0,0:0:0:0:
320,192,39362,1,0,0:0:0:0:
192,192,39447,1,8,0:0:0:0:
448,192,39447,1,0,0:0:0:0:
64,192,39619,1,0,0:0:0:0:
64,192,39704,1,0,0:0:0:0:
448,192,39790,1,0,0:0:0:0:
448,192,39876,1,0,0:0:0:0:
448,192,39962,1,0,0:0:0:0:
448,192,40047,1,0,0:0:0:0:
64,192,40133,1,2,0:0:0:0:
192,192,40133,1,0,0:0:0:0:
320,192,40219,1,0,0:0:0:0:
448,192,40276,1,0,0:0:0:0:
192,192,40333,1,0,0:0:0:0:
64,192,40390,1,0,0:0:0:0:
320,192,40476,1,0,0:0:0:0:
320,192,40562,1,0,0:0:0:0:
192,192,40647,1,0,0:0:0:0:
192,192,40733,1,0,0:0:0:0:
64,192,40819,1,8,0:0:0:0:
448,192,40819,1,0,0:0:0:0:
320,192,40904,1,0,0:0:0:0:
64,192,40990,1,2,0:0:0:0:
192,192,40990,1,0,0:0:0:0:
448,192,41076,1,0,0:0:0:0:
64,192,41162,1,8,0:0:0:0:
320,192,41162,1,0,0:0:0:0:
320,192,41247,1,0,0:0:0:0:
64,192,41333,1,4,0:0:0:0:
192,192,41333,1,2,0:0:0:0:
448,192,41333,1,0,0:0:0:0:
320,192,41419,1,0,0:0:0:0:
192,192,41504,1,0,0:0:0:0:
64,192,41547,1,0,0:0:0:0:
320,192,41590,1,0,0:0:0:0:
192,192,41633,1,0,0:0:0:0:
448,192,41676,1,0,0:0:0:0:
64,192,41719,1,0,0:0:0:0:
320,192,41762,1,0,0:0:0:0:
448,192,41804,1,0,0:0:0:0:
192,192,41847,1,0,0:0:0:0:
192,192,41933,1,0,0:0:0:0:
320,192,42019,1,0,0:0:0:0:
320,192,42104,1,0,0:0:0:0:
64,192,42190,1,8,0:0:0:0:
448,192,42190,1,0,0:0:0:0:
192,192,42247,1,0,0:0:0:0:
320,192,42304,1,0,0:0:0:0:
64,192,42362,1,0,0:0:0:0:
448,192,42404,1,0,0:0:0:0:
320,192,42447,1,0,0:0:0:0:
192,192,42490,1,0,0:0:0:0:
64,192,42533,128,0,42662:0:0:0:0:
448,192,42704,1,0,0:0:0:0:
448,192,42790,1,0,0:0:0:0:
64,192,42876,1,2,0:0:0:0:
192,192,42876,1,0,0:0:0:0:
192,192,43047,1,0,0:0:0:0:
192,192,43133,1,0,0:0:0:0:
192,192,43219,1,0,0:0:0:0:
448,192,43262,1,0,0:0:0:0:
320,192,43304,1,0,0:0:0:0:
64,192,43347,1,0,0:0:0:0:
448,192,43390,1,0,0:0:0:0:
192,192,43433,1,0,0:0:0:0:
64,192,43476,1,0,0:0:0:0:
320,192,43519,1,0,0:0:0:0:
192,192,43562,1,8,0:0:0:0:
448,192,43562,1,0,0:0:0:0:
64,192,43733,1,2,0:0:0:0:
192,192,43733,1,0,0:0:0:0:
320,192,43819,1,0,0:0:0:0:
448,192,43904,128,0,44033:0:0:0:0:
64,192,44076,1,0,0:0:0:0:
64,192,44162,1,0,0:0:0:0:
320,192,44247,1,2,0:0:0:0:
448,192,44247,1,0,0:0:0:0:
64,192,44333,1,0,0:0:0:0:
192,192,44376,1,0,0:0:0:0:
320,192,44419,1,0,0:0:0:0:
448,192,44462,1,0,0:0:0:0:
64,192,44504,1,0,0:0:0:0:
320,192,44547,1,0,0:0:0:0:
192,192,44590,1,0,0:0:0:0:
64,192,44633,1,0,0:0:0:0:
448,192,44676,1,0,0:0:0:0:
192,192,44762,1,0,0:0:0:0:
192,192,44847,1,0,0:0:0:0:
64,192,44933,1,8,0:0:0:0:
448,192,44933,1,0,0:0:0:0:
320,192,45104,1,0,0:0:0:0:
320,192,45190,1,0,0:0:0:0:
64,192,45276,1,8,0:0:0:0:
448,192,45276,1,0,0:0:0:0:
192,192,45362,1,0,0:0:0:0:
320,192,45447,1,2,0:0:0:0:
448,192,45447,1,0,0:0:0:0:
64,192,45504,1,2,0:0:0:0:
192,192,45504,1,0,0:0:0:0:
320,192,45562,1,2,0:0:0:0:
448,192,45562,1,0,0:0:0:0:
64,192,45619,1,2,0:0:0:0:
192,192,45619,1,0,0:0:0:0:
448,192,45704,1,0,0:0:0:0:
320,192,45747,1,0,0:0:0:0:
192,192,45790,1,0,0:0:0:0:
64,192,45833,1,0,0:0:0:0:
448,192,45876,1,0,0:0:0:0:
192,192,45919,1,0,0:0:0:0:
320,192,45962,1,0,0:0:0:0:
64,192,46019,1,0,0:0:0:0:
320,192,46076,1,0,0:0:0:0:
192,192,46133,1,0,0:0:0:0:
448,192,46190,1,0,0:0:0:0:
64,192,46247,1,0,0:0:0:0:
320,192,46304,1,0,0:0:0:0:
192,192,46347,1,0,0:0:0:0:
448,192,46390,1,0,0:0:0:0:
320,192,46433,1,0,0:0:0:0:
64,192,46476,1,2,0:0:0:0:
192,192,46476,1,0,0:0:0:0:
64,192,46562,1,2,0:0:0:0:
192,192,46562,1,0,0:0:0:0:
320,192,46647,1,8,0:0:0:0:
448,192,46647,1,0,0:0:0:0:
64,192,46733,1,8,0:0:0:0:
192,192,46733,1,0,0:0:0:0:
64,192,46819,1,8,0:0:0:0:
448,192,46819,1,0,0:0:0:0:
192,192,46904,1,8,0:0:0:0:
320,192,46904,1,0,0:0:0:0:
64,192,46990,1,4,0:0:0:0:
320,192,46990,1,2,0:0:0:0:
448,192,46990,1,0,0:0:0:100:PF1_5D.wav
64,192,47504,1,0,0:0:0:0:
320,192,47590,1,0,0:0:0:0:
64,192,47676,1,0,0:0:0:0:
320,192,47762,1,0,0:0:0:0:
448,192,47847,1,0,0:0:0:0:
192,192,47933,1,0,0:0:0:0:
448,192,48019,1,0,0:0:0:0:
64,192,48104,1,0,0:0:0:0:
320,192,48190,128,0,48276:0:0:0:100:PF1_4G.wav
192,192,48276,1,0,0:0:0:0:
448,192,48362,1,0,0:0:0:0:
64,192,48447,1,0,0:0:0:0:
320,192,48533,1,0,0:0:0:0:
192,192,48619,1,0,0:0:0:0:
64,192,48790,1,0,0:0:0:0:
320,192,48876,1,0,0:0:0:0:
192,192,48962,1,0,0:0:0:0:
448,192,49562,128,0,49647:0:0:0:100:PF1_5G.wav
320,192,49904,1,0,0:0:0:0:
448,192,49990,1,0,0:0:0:0:
192,192,50076,1,0,0:0:0:0:
448,192,50162,1,0,0:0:0:0:
64,192,50247,1,0,0:0:0:0:
320,192,50333,1,0,0:0:0:0:
192,192,50419,1,0,0:0:0:0:
448,192,50504,1,0,0:0:0:0:
192,192,50590,1,0,0:0:0:0:
320,192,50676,1,0,0:0:0:0:
64,192,50762,1,0,0:0:0:0:
448,192,50847,1,0,0:0:0:0:
64,192,50933,128,0,51019:0:0:0:100:PF1_5C.wav
320,192,51019,1,0,0:0:0:0:
192,192,51104,1,0,0:0:0:0:
448,192,51190,1,0,0:0:0:0:
64,192,51276,1,0,0:0:0:0:
320,192,51362,1,0,0:0:0:0:
448,192,51533,1,0,0:0:0:0:
64,192,51619,1,0,0:0:0:0:
320,192,51704,1,0,0:0:0:0:
448,192,52304,1,0,0:0:0:100:PF16_5F.wav
320,192,52390,1,0,0:0:0:100:PF16_5Eb.wav
192,192,52476,128,0,52562:0:0:0:100:PF1_5D.wav
64,192,52819,1,0,0:0:0:0:
320,192,52904,1,0,0:0:0:0:
192,192,52990,1,0,0:0:0:0:
448,192,53076,1,0,0:0:0:0:
320,192,53162,1,0,0:0:0:0:
448,192,53247,1,0,0:0:0:0:
192,192,53333,1,0,0:0:0:0:
64,192,53419,1,0,0:0:0:0:
192,192,53504,1,0,0:0:0:0:
448,192,53590,1,0,0:0:0:0:
320,192,53676,128,0,53762:0:0:0:100:PF1_4G.wav
64,192,53762,1,0,0:0:0:0:
320,192,53847,1,0,0:0:0:0:
192,192,53933,1,0,0:0:0:0:
448,192,54019,1,0,0:0:0:0:
64,192,54104,1,0,0:0:0:0:
320,192,54190,1,0,0:0:0:0:
192,192,54276,1,0,0:0:0:0:
448,192,54362,1,0,0:0:0:0:
64,192,54447,1,0,0:0:0:0:
192,192,54619,1,0,0:0:0:0:
448,192,54704,1,0,0:0:0:0:
64,192,54790,1,0,0:0:0:0:
448,192,55047,128,0,55133:0:0:0:100:PF1_5G.wav
64,192,55219,1,0,0:0:0:0:
320,192,55304,1,0,0:0:0:0:
192,192,55390,1,0,0:0:0:0:
448,192,55476,1,0,0:0:0:0:
192,192,55562,1,0,0:0:0:0:
320,192,55647,1,0,0:0:0:0:
64,192,55733,1,0,0:0:0:0:
320,192,55819,1,0,0:0:0:0:
192,192,55904,1,0,0:0:0:0:
448,192,55990,1,0,0:0:0:0:
64,192,56076,1,0,0:0:0:0:
320,192,56162,1,0,0:0:0:0:
192,192,56247,1,0,0:0:0:0:
448,192,56333,1,0,0:0:0:0:
64,192,56419,128,0,56504:0:0:0:100:PF1_5C.wav
320,192,56504,1,0,0:0:0:0:
192,192,56590,1,0,0:0:0:0:
320,192,56676,1,0,0:0:0:0:
64,192,56762,1,0,0:0:0:0:
448,192,56847,1,0,0:0:0:0:
192,192,56933,1,0,0:0:0:0:
320,192,57019,1,0,0:0:0:0:
64,192,57104,1,0,0:0:0:0:
448,192,57190,1,0,0:0:0:0:
64,192,57447,1,0,0:0:0:0:
320,192,57504,1,0,0:0:0:0:
448,192,57562,1,0,0:0:0:0:
192,192,57619,1,0,0:0:0:0:
320,192,57662,1,0,0:0:0:0:
64,192,57704,1,0,0:0:0:0:
192,192,57747,1,0,0:0:0:0:
448,192,57790,1,0,0:0:0:0:
64,192,57833,1,0,0:0:0:0:
320,192,57876,1,0,0:0:0:0:
448,192,57919,1,0,0:0:0:0:
64,192,57962,1,2,0:0:0:0:
192,192,57962,1,0,0:0:0:0:
320,192,58476,128,0,58819:0:0:0:0:
64,192,58647,1,8,0:0:0:0:
448,192,58647,1,0,0:0:0:0:
192,192,58819,128,0,58904:0:0:0:0:
320,192,58904,128,0,58990:0:0:0:0:
192,192,58990,128,0,59162:0:0:0:0:
64,192,59162,128,0,59504:0:0:0:0:
320,192,59333,1,2,0:0:0:0:
448,192,59333,1,0,0:0:0:0:
448,192,59504,128,0,59676:0:0:0:0:
192,192,59676,128,0,59847:0:0:0:0:
320,192,59847,128,0,60019:0:0:0:0:
64,192,60019,128,8,60190:0:0:0:0:
448,192,60019,1,0,0:0:0:0:
320,192,60190,128,2,60362:0:0:0:0:
448,192,60190,1,0,0:0:0:0:
192,192,60362,128,0,60447:0:0:0:0:
448,192,60447,128,0,60533:0:0:0:0:
320,192,60533,128,0,61390:0:0:0:0:
448,192,60619,1,0,0:0:0:0:
64,192,60704,1,2,0:0:0:0:
192,192,60704,1,0,0:0:0:0:
192,192,61219,128,0,61390:0:0:0:0:
64,192,61390,1,8,0:0:0:0:
448,192,61390,1,0,0:0:0:0:
320,192,61562,128,0,61733:0:0:0:0:
448,192,61733,128,0,61904:0:0:0:0:
192,192,61904,128,0,62590:0:0:0:0:
64,192,61990,1,0,0:0:0:0:
320,192,62076,1,2,0:0:0:0:
448,192,62076,1,0,0:0:0:0:
320,192,62590,128,0,62676:0:0:0:0:
448,192,62676,128,0,62762:0:0:0:0:
64,192,62762,1,8,0:0:0:0:
320,192,62762,128,0,63276:0:0:0:0:
64,192,62933,1,2,0:0:0:0:
192,192,62933,1,0,0:0:0:0:
192,192,63276,1,0,0:0:0:0:
64,192,63362,1,0,0:0:0:0:
320,192,63447,1,2,0:0:0:0:
448,192,63447,128,0,63533:0:0:0:0:
192,192,63533,128,0,63619:0:0:0:0:
448,192,63619,128,0,64304:0:0:0:0:
64,192,63790,1,2,0:0:0:0:
192,192,63790,1,0,0:0:0:0:
64,192,64133,1,2,0:0:0:0:
192,192,64133,1,0,0:0:0:0:
64,192,64304,128,0,64476:0:0:0:0:
320,192,64476,128,2,64647:0:0:0:0:
448,192,64476,1,0,0:0:0:0:
192,192,64647,128,0,64733:0:0:0:0:
320,192,64733,128,0,64819:0:0:0:0:
64,192,64819,1,2,0:0:0:0:
192,192,64819,128,0,65676:0:0:0:0:
64,192,64990,1,2,0:0:0:0:
320,192,65162,1,2,0:0:0:0:
448,192,65162,1,0,0:0:0:0:
64,192,65333,1,2,0:0:0:0:
320,192,65504,1,2,0:0:0:0:
448,192,65504,1,0,0:0:0:0:
64,192,65676,128,2,65847:0:0:0:0:
320,192,65847,128,2,66019:0:0:0:0:
448,192,65847,1,0,0:0:0:0:
64,192,66019,128,2,66104:0:0:0:0:
448,192,66104,128,0,66190:0:0:0:0:
64,192,66190,128,2,66704:0:0:0:0:
192,192,66190,1,0,0:0:0:0:
320,192,66276,1,2,0:0:0:0:
448,192,66362,1,2,0:0:0:0:
192,192,66447,1,2,0:0:0:0:
320,192,66533,1,2,0:0:0:0:
448,192,66533,1,0,0:0:0:0:
192,192,66619,1,2,0:0:0:0:
448,192,66704,128,2,66790:0:0:0:0:
64,192,66790,128,2,66876:0:0:0:0:
320,192,66876,128,2,66962:0:0:0:0:
448,192,66876,1,0,0:0:0:0:
64,192,66962,128,2,67047:0:0:0:0:
448,192,67047,128,2,67133:0:0:0:0:
64,192,67133,128,2,67219:0:0:0:0:
320,192,67219,1,8,0:0:0:0:
448,192,67219,1,0,0:0:0:0:
64,192,67304,1,8,0:0:0:0:
192,192,67304,1,0,0:0:0:0:
64,192,67390,1,8,0:0:0:0:
448,192,67390,1,0,0:0:0:0:
192,192,67476,1,8,0:0:0:0:
320,192,67476,1,0,0:0:0:0:
320,192,67562,1,4,0:0:0:0:
448,192,67562,1,2,0:0:0:0:
64,192,67619,1,0,0:0:0:100:FillD_02.wav
192,192,67676,1,0,0:0:0:100:FillD_02.wav
320,192,67733,1,0,0:0:0:100:FillD_02.wav
192,192,67819,1,0,0:0:0:100:FillD_02.wav
64,192,67904,1,0,0:0:0:100:FillD_02.wav
448,192,67904,1,0,0:0:0:0:
320,192,67990,1,0,0:0:0:100:FillD_02.wav
192,192,68076,1,0,0:0:0:100:FillD_02.wav
320,192,68162,1,0,0:0:0:100:FillD_02.wav
64,192,68247,1,0,0:0:0:100:FillD_02.wav
448,192,68247,1,0,0:0:0:0:
64,192,68333,1,0,0:0:0:100:FillD_02.wav
448,192,68333,1,0,0:0:0:0:
192,192,68419,1,2,0:0:0:0:
192,192,68504,1,2,0:0:0:0:
64,192,68590,128,8,68676:0:0:0:0:
320,192,68590,1,0,0:0:0:0:
448,192,68676,128,0,68762:0:0:0:0:
192,192,68762,128,0,68847:0:0:0:0:
320,192,68847,128,0,68933:0:0:0:0:
64,192,68933,1,2,0:0:0:0:
192,192,68933,1,4,0:0:0:0:
448,192,68933,128,0,69619:0:0:0:0:
64,192,69104,1,0,0:0:0:0:
192,192,69190,1,0,0:0:0:0:
64,192,69276,1,8,0:0:0:0:
320,192,69276,1,0,0:0:0:0:
192,192,69447,1,0,0:0:0:0:
64,192,69533,1,0,0:0:0:0:
320,192,69619,1,0,0:0:0:0:
64,192,69790,1,2,0:0:0:0:
192,192,69790,128,0,69962:0:0:0:0:
64,192,69962,1,8,0:0:0:0:
448,192,69962,128,0,70133:0:0:0:0:
320,192,70133,128,0,70219:0:0:0:0:
64,192,70219,128,0,70390:0:0:0:0:
320,192,70304,128,2,70476:0:0:0:0:
448,192,70304,1,0,0:0:0:0:
448,192,70476,128,0,70562:0:0:0:0:
192,192,70562,128,0,70647:0:0:0:0:
64,192,70647,128,8,70733:0:0:0:0:
320,192,70647,1,0,0:0:0:0:
192,192,70733,128,0,70819:0:0:0:0:
64,192,70819,128,0,70904:0:0:0:0:
320,192,70904,128,0,70990:0:0:0:0:
192,192,70990,128,0,71076:0:0:0:0:
320,192,71076,128,0,71162:0:0:0:0:
64,192,71162,128,2,71247:0:0:0:0:
192,192,71162,1,0,0:0:0:0:
448,192,71247,128,0,71333:0:0:0:0:
64,192,71333,128,8,71419:0:0:0:0:
320,192,71333,1,0,0:0:0:0:
192,192,71419,128,0,71504:0:0:0:0:
320,192,71504,128,0,71847:0:0:0:0:
64,192,71676,1,2,0:0:0:0:
192,192,71676,1,0,0:0:0:0:
192,192,71847,128,0,72019:0:0:0:0:
64,192,72019,1,8,0:0:0:0:
448,192,72019,128,0,72190:0:0:0:0:
192,192,72190,128,0,72276:0:0:0:0:
448,192,72276,128,0,72362:0:0:0:0:
192,192,72362,128,0,72533:0:0:0:0:
320,192,72533,128,2,72704:0:0:0:0:
448,192,72533,1,0,0:0:0:0:
192,192,72704,128,8,72876:0:0:0:0:
448,192,72704,1,0,0:0:0:0:
64,192,72876,128,0,72962:0:0:0:0:
448,192,72962,128,0,73133:0:0:0:0:
64,192,73047,128,2,73219:0:0:0:0:
192,192,73047,1,0,0:0:0:0:
320,192,73219,128,0,73304:0:0:0:0:
448,192,73304,128,0,73390:0:0:0:0:
64,192,73390,1,8,0:0:0:0:
320,192,73390,128,0,73476:0:0:0:0:
192,192,73476,128,0,73562:0:0:0:0:
64,192,73562,128,0,73647:0:0:0:0:
448,192,73647,128,0,73733:0:0:0:0:
320,192,73733,128,0,73819:0:0:0:0:
448,192,73819,128,0,73904:0:0:0:0:
64,192,73904,1,2,0:0:0:0:
192,192,73904,128,0,73990:0:0:0:0:
448,192,73990,128,0,74076:0:0:0:0:
64,192,74076,128,8,74162:0:0:0:0:
320,192,74076,1,0,0:0:0:0:
192,192,74162,128,0,74247:0:0:0:0:
320,192,74247,128,0,74333:0:0:0:0:
448,192,74333,128,0,74419:0:0:0:0:
64,192,74419,1,2,0:0:0:0:
192,192,74419,128,0,74504:0:0:0:0:
320,192,74504,128,0,74676:0:0:0:0:
192,192,74590,128,0,75104:0:0:0:0:
448,192,74676,1,0,0:0:0:0:
64,192,74762,1,8,0:0:0:0:
320,192,74762,1,0,0:0:0:0:
448,192,74933,1,0,0:0:0:0:
64,192,75019,128,0,75104:0:0:0:0:
320,192,75104,1,0,0:0:0:0:
320,192,75276,128,2,75447:0:0:0:0:
448,192,75276,1,0,0:0:0:0:
192,192,75447,128,8,75619:0:0:0:0:
448,192,75447,1,0,0:0:0:0:
64,192,75619,128,0,75704:0:0:0:0:
320,192,75704,128,0,75876:0:0:0:0:
64,192,75790,128,2,76304:0:0:0:0:
192,192,75790,1,0,0:0:0:0:
448,192,75962,1,0,0:0:0:0:
320,192,76047,1,0,0:0:0:0:
192,192,76133,1,8,0:0:0:0:
448,192,76133,1,0,0:0:0:0:
192,192,76304,128,0,76647:0:0:0:0:
320,192,76390,1,0,0:0:0:0:
64,192,76476,1,0,0:0:0:0:
320,192,76647,128,2,76733:0:0:0:0:
448,192,76647,1,0,0:0:0:0:
192,192,76733,128,0,76904:0:0:0:0:
64,192,76819,1,8,0:0:0:0:
320,192,76819,128,0,76990:0:0:0:0:
448,192,76990,128,0,77676:0:0:0:0:
64,192,77162,1,2,0:0:0:0:
192,192,77162,1,0,0:0:0:0:
64,192,77333,1,0,0:0:0:0:
192,192,77419,1,0,0:0:0:0:
64,192,77504,1,8,0:0:0:0:
320,192,77504,1,0,0:0:0:0:
192,192,77590,128,0,77676:0:0:0:0:
320,192,77676,128,0,78019:0:0:0:0:
64,192,77762,1,0,0:0:0:0:
448,192,77847,1,0,0:0:0:0:
64,192,78019,1,2,0:0:0:0:
192,192,78019,128,0,78362:0:0:0:0:
448,192,78104,1,0,0:0:0:0:
64,192,78190,1,8,0:0:0:0:
320,192,78190,1,0,0:0:0:0:
448,192,78362,128,0,78704:0:0:0:0:
64,192,78533,1,2,0:0:0:0:
192,192,78533,1,0,0:0:0:0:
64,192,78704,128,0,78876:0:0:0:0:
320,192,78790,1,0,0:0:0:0:
192,192,78876,1,8,0:0:0:0:
448,192,78876,128,0,79047:0:0:0:0:
320,192,79047,128,0,79219:0:0:0:0:
64,192,79133,1,0,0:0:0:0:
448,192,79219,128,0,79390:0:0:0:0:
64,192,79390,1,2,0:0:0:0:
192,192,79390,1,0,0:0:0:0:
64,192,79476,1,2,0:0:0:0:
192,192,79476,1,0,0:0:0:0:
320,192,79562,1,8,0:0:0:0:
448,192,79562,1,0,0:0:0:0:
64,192,79647,1,8,0:0:0:0:
192,192,79647,1,0,0:0:0:0:
64,192,79733,1,8,0:0:0:0:
448,192,79733,1,0,0:0:0:0:
192,192,79819,1,8,0:0:0:0:
320,192,79819,1,0,0:0:0:0:
64,192,79904,1,2,0:0:0:0:
320,192,79904,1,4,0:0:0:0:
448,192,79904,128,0,80076:0:0:0:0:
192,192,80076,128,0,80247:0:0:0:0:
64,192,80247,1,8,0:0:0:0:
448,192,80247,128,0,80419:0:0:0:0:
64,192,80419,128,0,80504:0:0:0:0:
448,192,80504,128,0,80590:0:0:0:0:
192,192,80590,128,0,80762:0:0:0:0:
320,192,80762,128,2,80847:0:0:0:0:
448,192,80762,1,0,0:0:0:0:
64,192,80847,128,0,80933:0:0:0:0:
192,192,80933,1,8,0:0:0:0:
448,192,80933,128,0,81104:0:0:0:0:
64,192,81104,128,0,81276:0:0:0:0:
192,192,81190,128,0,81447:0:0:0:0:
320,192,81276,1,2,0:0:0:0:
448,192,81276,1,0,0:0:0:0:
64,192,81447,128,0,81619:0:0:0:0:
192,192,81619,1,8,0:0:0:0:
448,192,81619,128,0,81790:0:0:0:0:
320,192,81790,128,0,81876:0:0:0:0:
448,192,81876,128,0,81962:0:0:0:0:
320,192,81962,128,0,82047:0:0:0:0:
64,192,82047,128,0,82133:0:0:0:0:
320,192,82133,1,2,0:0:0:0:
448,192,82133,128,0,82219:0:0:0:0:
64,192,82219,128,0,82304:0:0:0:0:
192,192,82304,128,8,82390:0:0:0:0:
448,192,82304,1,0,0:0:0:0:
64,192,82390,128,0,82476:0:0:0:0:
320,192,82476,128,0,82562:0:0:0:0:
192,192,82562,128,0,82733:0:0:0:0:
320,192,82647,128,2,83504:0:0:0:0:
448,192,82647,1,0,0:0:0:0:
64,192,82819,1,0,0:0:0:0:
192,192,82904,1,0,0:0:0:0:
64,192,82990,1,8,0:0:0:0:
448,192,82990,1,0,0:0:0:0:
192,192,83162,1,0,0:0:0:0:
448,192,83247,1,0,0:0:0:0:
64,192,83333,1,0,0:0:0:0:
448,192,83419,128,0,83504:0:0:0:0:
64,192,83504,1,2,0:0:0:0:
192,192,83504,128,0,83676:0:0:0:0:
64,192,83676,128,8,83847:0:0:0:0:
320,192,83676,1,0,0:0:0:0:
448,192,83847,128,0,83933:0:0:0:0:
192,192,83933,128,0,84104:0:0:0:0:
320,192,84019,1,2,0:0:0:0:
448,192,84019,128,0,84190:0:0:0:0:
320,192,84190,128,0,84276:0:0:0:0:
448,192,84276,128,0,84362:0:0:0:0:
64,192,84362,1,8,0:0:0:0:
320,192,84362,128,0,84447:0:0:0:0:
192,192,84447,128,0,84533:0:0:0:0:
64,192,84533,128,0,84619:0:0:0:0:
448,192,84619,128,0,84704:0:0:0:0:
192,192,84704,128,0,84790:0:0:0:0:
320,192,84790,128,0,84876:0:0:0:0:
64,192,84876,1,2,0:0:0:0:
192,192,84876,128,0,84962:0:0:0:0:
448,192,84962,128,0,85047:0:0:0:0:
64,192,85047,128,8,85133:0:0:0:0:
320,192,85047,1,0,0:0:0:0:
192,192,85133,128,0,85219:0:0:0:0:
320,192,85219,128,0,85304:0:0:0:0:
448,192,85304,128,0,85390:0:0:0:0:
64,192,85390,1,2,0:0:0:0:
192,192,85390,128,0,85562:0:0:0:0:
320,192,85476,128,0,86076:0:0:0:0:
448,192,85562,1,0,0:0:0:0:
64,192,85647,1,0,0:0:0:0:
192,192,85733,1,8,0:0:0:0:
448,192,85733,1,0,0:0:0:0:
64,192,85904,1,0,0:0:0:0:
192,192,85990,128,0,86076:0:0:0:0:
64,192,86076,1,0,0:0:0:0:
320,192,86247,1,2,0:0:0:0:
448,192,86247,128,0,86419:0:0:0:0:
64,192,86419,1,8,0:0:0:0:
320,192,86419,128,0,86590:0:0:0:0:
192,192,86590,128,0,86676:0:0:0:0:
320,192,86676,128,0,86847:0:0:0:0:
64,192,86762,1,2,0:0:0:0:
192,192,86762,128,0,87276:0:0:0:0:
448,192,86933,1,0,0:0:0:0:
320,192,87019,1,0,0:0:0:0:
64,192,87104,1,8,0:0:0:0:
448,192,87104,1,0,0:0:0:0:
320,192,87276,128,0,87619:0:0:0:0:
64,192,87362,1,0,0:0:0:0:
448,192,87447,1,0,0:0:0:0:
64,192,87619,128,2,87962:0:0:0:0:
192,192,87619,1,0,0:0:0:0:
192,192,87790,1,8,0:0:0:0:
448,192,87790,1,0,0:0:0:0:
448,192,87962,128,0,88647:0:0:0:0:
64,192,88133,1,2,0:0:0:0:
192,192,88133,1,0,0:0:0:0:
64,192,88304,1,2,0:0:0:0:
192,192,88304,1,0,0:0:0:0:
64,192,88476,1,8,0:0:0:0:
320,192,88476,1,0,0:0:0:0:
64,192,88647,1,2,0:0:0:0:
192,192,88647,128,0,88733:0:0:0:0:
320,192,88733,128,0,88819:0:0:0:0:
448,192,88819,128,0,88904:0:0:0:0:
64,192,88904,128,0,88990:0:0:0:0:
320,192,88990,1,2,0:0:0:0:
448,192,88990,1,0,0:0:0:0:
320,192,89076,1,2,0:0:0:0:
448,192,89076,1,0,0:0:0:0:
64,192,89162,1,8,0:0:0:0:
192,192,89162,1,0,0:0:0:0:
320,192,89247,1,8,0:0:0:0:
448,192,89247,1,0,0:0:0:0:
64,192,89333,1,8,0:0:0:0:
448,192,89333,1,0,0:0:0:0:
192,192,89419,1,8,0:0:0:0:
320,192,89419,1,0,0:0:0:0:
64,192,89504,1,4,0:0:0:0:
192,192,89504,1,2,0:0:0:0:
448,192,89562,1,0,0:0:0:100:FillD_02.wav
320,192,89619,1,0,0:0:0:100:FillD_02.wav
192,192,89676,1,0,0:0:0:100:FillD_02.wav
320,192,89762,1,0,0:0:0:100:FillD_02.wav
64,192,89847,1,0,0:0:0:100:FillD_02.wav
448,192,89847,1,0,0:0:0:0:
192,192,89933,1,0,0:0:0:100:FillD_02.wav
320,192,90019,1,0,0:0:0:100:FillD_02.wav
192,192,90104,1,0,0:0:0:100:FillD_02.wav
64,192,90190,1,0,0:0:0:100:FillD_02.wav
448,192,90276,1,0,0:0:0:100:FillD_02.wav
320,192,90362,1,2,0:0:0:0:
320,192,90447,1,2,0:0:0:0:
192,192,90533,1,8,0:0:0:0:
448,192,90533,1,0,0:0:0:0:
64,192,90619,1,0,0:0:0:0:
320,192,90704,1,0,0:0:0:0:
192,192,90790,1,0,0:0:0:0:
64,192,90876,1,2,0:0:0:0:
320,192,90876,1,4,0:0:0:0:
448,192,90876,1,0,0:0:0:100:PFb_5Eb.wav
64,192,91390,1,0,0:0:0:0:
320,192,91476,1,0,0:0:0:0:
192,192,91562,1,0,0:0:0:0:
320,192,91647,1,0,0:0:0:0:
64,192,91733,1,0,0:0:0:0:
448,192,91819,1,0,0:0:0:0:
64,192,91904,1,0,0:0:0:0:
320,192,91990,1,0,0:0:0:0:
192,192,92076,128,0,92162:0:0:0:100:PF1_4Ab.wav
448,192,92162,1,0,0:0:0:0:
320,192,92333,1,0,0:0:0:0:
192,192,92419,1,0,0:0:0:0:
448,192,92504,1,0,0:0:0:0:
320,192,92676,1,0,0:0:0:0:
192,192,92762,1,0,0:0:0:0:
448,192,92847,1,0,0:0:0:0:
448,192,93447,128,0,93533:0:0:0:100:PF1_5Ab.wav
64,192,94819,128,0,94904:0:0:0:100:PF1_5Db.wav
448,192,96190,1,0,0:0:0:100:PF16_5Gb.wav
320,192,96276,1,0,0:0:0:100:PF16_5E.wav
192,192,96362,128,0,96447:0:0:0:100:PF1_5Eb.wav
64,192,96619,1,0,0:0:0:0:
192,192,96704,1,0,0:0:0:0:
448,192,96790,1,0,0:0:0:0:
64,192,96876,1,0,0:0:0:0:
320,192,96962,1,0,0:0:0:0:
192,192,97047,1,0,0:0:0:0:
320,192,97133,1,0,0:0:0:0:
64,192,97219,1,0,0:0:0:0:
448,192,97304,1,0,0:0:0:0:
64,192,97390,1,0,0:0:0:0:
192,192,97476,1,0,0:0:0:0:
320,192,97562,128,0,97647:0:0:0:100:PF1_4Ab.wav
64,192,97647,1,0,0:0:0:0:
448,192,97733,1,0,0:0:0:0:
192,192,97819,1,0,0:0:0:0:
320,192,97904,1,0,0:0:0:0:
64,192,97990,1,0,0:0:0:0:
192,192,98162,1,0,0:0:0:0:
320,192,98247,1,0,0:0:0:0:
64,192,98333,1,0,0:0:0:0:
192,192,98504,1,0,0:0:0:0:
320,192,98590,1,0,0:0:0:0:
64,192,98676,1,0,0:0:0:0:
448,192,98933,128,0,99019:0:0:0:100:PF1_5Ab.wav
192,192,100304,128,0,100390:0:0:0:100:PF1_5Db.wav
448,192,101333,128,0,101847:0:0:0:0:
64,192,101847,128,0,101933:0:0:0:100:PFb_5Eb.wav
192,192,102019,1,0,0:0:0:0:
320,192,102104,1,0,0:0:0:0:
192,192,102190,1,0,0:0:0:0:
448,192,102276,1,0,0:0:0:0:
64,192,102362,1,0,0:0:0:0:
320,192,102447,1,0,0:0:0:0:
192,192,102533,1,0,0:0:0:0:
320,192,102619,1,0,0:0:0:0:
64,192,102704,1,0,0:0:0:0:
448,192,102790,1,0,0:0:0:0:
64,192,102876,1,0,0:0:0:0:
320,192,102962,1,0,0:0:0:0:
192,192,103047,128,0,103133:0:0:0:100:PF1_4Ab.wav
448,192,103133,1,0,0:0:0:0:
320,192,103304,1,0,0:0:0:0:
192,192,103390,1,0,0:0:0:0:
448,192,103476,1,0,0:0:0:0:
320,192,103647,1,0,0:0:0:0:
192,192,103733,1,0,0:0:0:0:
448,192,103819,1,0,0:0:0:0:
448,192,104419,128,0,104504:0:0:0:100:PF1_5Ab.wav
192,192,104504,1,0,0:0:0:0:
320,192,104590,1,0,0:0:0:0:
64,192,105790,128,0,105876:0:0:0:100:PF1_5Db.wav
320,192,105876,1,0,0:0:0:0:
192,192,105962,1,0,0:0:0:0:
448,192,107162,1,0,0:0:0:100:PF16_5Gb.wav
320,192,107247,1,0,0:0:0:100:PF16_5E.wav
192,192,107333,128,0,107419:0:0:0:100:PF1_5Eb.wav
64,192,107590,1,0,0:0:0:0:
192,192,107676,1,0,0:0:0:0:
448,192,107762,1,0,0:0:0:0:
64,192,107847,1,0,0:0:0:0:
320,192,107933,1,0,0:0:0:0:
192,192,108019,1,0,0:0:0:0:
320,192,108104,1,0,0:0:0:0:
64,192,108190,1,0,0:0:0:0:
448,192,108276,1,0,0:0:0:0:
64,192,108362,1,0,0:0:0:0:
192,192,108447,1,0,0:0:0:0:
320,192,108533,128,0,108619:0:0:0:100:PFb_5Gb.wav
64,192,108619,1,0,0:0:0:0:
448,192,108704,1,0,0:0:0:0:
192,192,108790,1,0,0:0:0:0:
320,192,108876,1,0,0:0:0:0:
64,192,108962,1,0,0:0:0:0:
192,192,109133,1,0,0:0:0:0:
320,192,109219,1,0,0:0:0:0:
64,192,109304,1,0,0:0:0:0:
448,192,109390,1,0,0:0:0:0:
192,192,109476,1,0,0:0:0:0:
320,192,109562,1,0,0:0:0:0:
64,192,109647,1,0,0:0:0:0:
448,192,109904,128,0,109990:0:0:0:100:PFb_5Ab.wav
320,192,110076,1,0,0:0:0:0:
64,192,110133,1,0,0:0:0:0:
192,192,111276,128,0,111362:0:0:0:100:PFb_6Db.wav
64,192,112304,1,0,0:0:0:0:
320,192,112362,1,0,0:0:0:0:
448,192,112419,1,0,0:0:0:0:
192,192,112476,1,0,0:0:0:100:PF16_4Db.wav
320,192,112519,1,0,0:0:0:0:
64,192,112562,1,0,0:0:0:100:PF16_4Ab.wav
192,192,112604,1,0,0:0:0:0:
448,192,112647,1,0,0:0:0:100:PF16_4B.wav
64,192,112690,1,0,0:0:0:0:
320,192,112733,1,0,0:0:0:100:PFb_5Db.wav
448,192,112776,1,0,0:0:0:0:
64,192,112819,1,0,0:0:0:100:FxKick05.wav
192,192,112819,1,0,0:0:0:0:
