osu file format v14

[General]
AudioFilename: audio.mp3
AudioLeadIn: 0
PreviewTime: 68492
Countdown: 0
SampleSet: Soft
StackLeniency: 0.7
Mode: 3
LetterboxInBreaks: 0
SpecialStyle: 0
WidescreenStoryboard: 1

[Editor]
Bookmarks: 24864,46978,68921
DistanceSpacing: 2
BeatDivisor: 4
GridSize: 16
TimelineZoom: 2

[Metadata]
Title:Sakura Fubuki
TitleUnicode:Sakura Fubuki
Artist:Street
ArtistUnicode:Street
Creator:Shima Rin
Version:mint's Hyper
Source:SOUND VOLTEX EXCEED GEAR
Tags:Tofu1222 FAMoss qqqant -mint- Murumoo Muse Dash SDVX 6 VI Dynamix maimai MURASAKi CHUNITHM AIR オンゲキ ONGEKI PLUS O.N.G.E.K.I. BEMANI KONAMI SEGA 桜吹雪 BMS of Fighters Ultimate BOFU2015 osu! FA Featured Artist Artcore Video Game Electronic Instrumental
BeatmapID:2785640
BeatmapSetID:1224402

[Difficulty]
HPDrainRate:7.5
CircleSize:4
OverallDifficulty:7.5
ApproachRate:5
SliderMultiplier:1.4
SliderTickRate:1

[Events]
//Background and Video events
0,0,"BG.jpg",0,0
//Break Periods
//Storyboard Layer 0 (Background)
//Storyboard Layer 1 (Fail)
//Storyboard Layer 2 (Pass)
//Storyboard Layer 3 (Foreground)
//Storyboard Layer 4 (Overlay)
//Storyboard Sound Samples

[TimingPoints]
362,342.857142857143,4,2,1,30,1,0
11333,-100.0,4,2,1,50,0,0
16819,-100.0,4,2,1,60,0,0
19562,-100.0,4,2,1,70,0,0
47162,-100.0,4,2,1,30,0,0
57962,-100.0,4,2,1,50,0,0
63447,-100.0,4,2,1,60,0,0
66190,-100.0,4,2,1,70,0,0
68933,-100.0,4,2,1,70,0,1
90876,-100.0,4,2,1,30,0,0

[HitObjects]
192,192,362,1,4,0:0:0:0:
448,192,362,1,0,0:0:0:100:PF1_5C.wav
320,192,2419,1,0,0:0:0:100:PF3_5D.wav
64,192,2933,1,0,0:0:0:100:PF1_4G.wav
320,192,5847,1,0,0:0:0:100:PF1_5F.wav
448,192,7904,1,0,0:0:0:100:PF3_5G.wav
192,192,8419,1,0,0:0:0:100:PF1_5D.wav
64,192,10990,128,0,11333:0:0:0:0:
320,192,11333,1,2,0:0:0:0:
448,192,11333,1,0,0:0:0:100:PF1_5C.wav
64,192,11676,1,0,0:0:0:0:
448,192,12019,1,0,0:0:0:0:
64,192,12362,1,0,0:0:0:0:
448,192,12704,1,0,0:0:0:0:
64,192,13047,1,0,0:0:0:0:
320,192,13390,1,0,0:0:0:100:PF3_5D.wav
192,192,13562,1,0,0:0:0:0:
448,192,13733,1,0,0:0:0:0:
192,192,13904,1,0,0:0:0:100:PF1_4G.wav
64,192,14076,1,0,0:0:0:0:
448,192,14419,1,0,0:0:0:0:
64,192,14762,1,0,0:0:0:0:
448,192,15104,1,0,0:0:0:0:
320,192,15276,1,0,0:0:0:100:PF15_5F.wav
64,192,15447,1,0,0:0:0:0:
448,192,15790,1,0,0:0:0:0:
64,192,16133,1,0,0:0:0:0:
320,192,16304,1,0,0:0:0:0:
192,192,16476,1,0,0:0:0:0:
448,192,16647,1,0,0:0:0:0:
64,192,16819,1,2,0:0:0:0:
192,192,16819,1,0,0:0:0:0:
64,192,17162,1,2,0:0:0:0:
192,192,17162,1,0,0:0:0:0:
320,192,17504,1,2,0:0:0:0:
448,192,17504,1,0,0:0:0:0:
320,192,17847,1,2,0:0:0:0:
448,192,17847,1,0,0:0:0:0:
192,192,18019,1,0,0:0:0:0:
320,192,18190,1,2,0:0:0:0:
448,192,18190,1,0,0:0:0:0:
64,192,18362,1,2,0:0:0:0:
192,192,18533,1,2,0:0:0:0:
448,192,18533,1,0,0:0:0:0:
320,192,18704,1,2,0:0:0:0:
64,192,18876,1,2,0:0:0:0:
192,192,18876,1,0,0:0:0:0:
448,192,19047,1,2,0:0:0:0:
64,192,19219,1,2,0:0:0:0:
320,192,19219,1,0,0:0:0:0:
192,192,19390,1,2,0:0:0:0:
320,192,19562,128,2,20590:0:0:0:0:
448,192,19562,1,0,0:0:0:0:
64,192,20590,1,8,0:0:0:0:
448,192,20676,1,8,0:0:0:0:
64,192,20762,1,8,0:0:0:0:
448,192,20847,1,8,0:0:0:0:
64,192,20933,1,2,0:0:0:0:
192,192,20933,1,0,0:0:0:0:
320,192,21104,1,0,0:0:0:100:FillD_02.wav
64,192,21276,1,0,0:0:0:100:FillD_02.wav
448,192,21276,1,0,0:0:0:0:
192,192,21447,1,2,0:0:0:0:
320,192,21533,1,2,0:0:0:0:
192,192,21619,1,0,0:0:0:100:FillD_02.wav
448,192,21704,1,0,0:0:0:100:FillD_02.wav
320,192,21790,1,0,0:0:0:100:FillD_02.wav
64,192,21962,1,2,0:0:0:0:
192,192,22047,1,0,0:0:0:0:
320,192,22133,1,2,0:0:0:0:
448,192,22219,1,0,0:0:0:0:
64,192,22304,1,10,0:0:0:0:
192,192,22304,1,4,0:0:0:0:
64,192,22476,1,10,0:0:0:0:
192,192,22476,1,4,0:0:0:0:
64,192,22819,1,10,0:0:0:0:
192,192,22819,1,4,0:0:0:0:
64,192,22990,1,10,0:0:0:0:
192,192,22990,1,4,0:0:0:0:
64,192,23333,1,12,0:0:0:0:
192,192,23333,1,2,0:0:0:0:
64,192,23504,1,12,0:0:0:0:
192,192,23504,1,2,0:0:0:0:
320,192,23847,1,10,0:0:0:0:
448,192,23847,1,4,0:0:0:0:
320,192,24019,1,10,0:0:0:0:
448,192,24019,1,4,0:0:0:0:
64,192,24362,1,8,0:0:0:0:
448,192,24362,1,0,0:0:0:0:
320,192,24533,1,2,0:0:0:0:
448,192,24533,1,0,0:0:0:0:
64,192,24619,1,2,0:0:0:0:
192,192,24619,1,0,0:0:0:0:
448,192,24704,1,8,0:0:0:0:
64,192,24790,1,8,0:0:0:0:
320,192,24876,128,2,25047:0:0:0:0:
448,192,24876,128,4,25047:0:0:0:0:
192,192,25047,128,0,25390:0:0:0:0:
320,192,25390,1,0,0:0:0:0:
192,192,25562,1,0,0:0:0:0:
320,192,25647,1,0,0:0:0:0:
64,192,25733,1,8,0:0:0:0:
448,192,25733,1,0,0:0:0:0:
192,192,25904,1,0,0:0:0:0:
320,192,25990,1,0,0:0:0:0:
64,192,26076,128,0,26419:0:0:0:0:
320,192,26419,1,2,0:0:0:0:
448,192,26419,1,0,0:0:0:0:
192,192,26590,1,0,0:0:0:0:
320,192,26676,1,0,0:0:0:0:
192,192,26762,128,0,26933:0:0:0:0:
448,192,26933,128,0,27104:0:0:0:0:
64,192,27104,1,8,0:0:0:0:
320,192,27104,1,0,0:0:0:0:
64,192,27276,1,2,0:0:0:0:
192,192,27276,128,0,27619:0:0:0:0:
320,192,27447,1,0,0:0:0:0:
448,192,27619,1,0,0:0:0:0:
64,192,27704,1,0,0:0:0:0:
320,192,27790,128,2,27962:0:0:0:0:
448,192,27790,1,0,0:0:0:0:
64,192,27962,128,0,28304:0:0:0:0:
320,192,28304,1,0,0:0:0:0:
192,192,28390,1,0,0:0:0:0:
64,192,28476,1,8,0:0:0:0:
448,192,28476,1,0,0:0:0:0:
192,192,28647,1,0,0:0:0:0:
320,192,28733,1,0,0:0:0:0:
448,192,28819,1,0,0:0:0:0:
64,192,28904,1,0,0:0:0:0:
448,192,28990,1,0,0:0:0:0:
64,192,29076,1,0,0:0:0:0:
320,192,29162,1,2,0:0:0:0:
448,192,29162,1,0,0:0:0:0:
192,192,29247,128,0,29419:0:0:0:0:
320,192,29504,1,0,0:0:0:0:
64,192,29590,1,0,0:0:0:0:
320,192,29676,1,0,0:0:0:0:
192,192,29762,1,0,0:0:0:0:
64,192,29847,1,8,0:0:0:0:
448,192,29847,1,0,0:0:0:0:
320,192,30019,1,2,0:0:0:0:
448,192,30019,1,0,0:0:0:0:
192,192,30104,1,0,0:0:0:0:
64,192,30190,1,8,0:0:0:0:
448,192,30190,1,0,0:0:0:0:
320,192,30276,1,0,0:0:0:0:
64,192,30362,128,4,30533:0:0:0:0:
192,192,30362,128,2,30533:0:0:0:0:
320,192,30533,128,0,30876:0:0:0:0:
192,192,30876,1,0,0:0:0:0:
448,192,30962,1,0,0:0:0:0:
192,192,31047,1,0,0:0:0:0:
448,192,31133,1,0,0:0:0:0:
64,192,31219,1,8,0:0:0:0:
320,192,31219,128,0,31390:0:0:0:0:
64,192,31390,128,0,31562:0:0:0:0:
448,192,31562,1,0,0:0:0:0:
192,192,31733,1,0,0:0:0:0:
320,192,31819,1,0,0:0:0:0:
64,192,31904,1,2,0:0:0:0:
192,192,31904,1,0,0:0:0:0:
448,192,32076,1,0,0:0:0:0:
64,192,32162,1,0,0:0:0:0:
448,192,32247,128,0,32590:0:0:0:0:
64,192,32590,1,8,0:0:0:0:
320,192,32590,1,0,0:0:0:0:
64,192,32762,1,2,0:0:0:0:
192,192,32762,1,0,0:0:0:0:
448,192,32933,1,0,0:0:0:0:
192,192,33104,1,0,0:0:0:0:
320,192,33190,1,0,0:0:0:0:
64,192,33276,1,2,0:0:0:0:
192,192,33276,128,0,33619:0:0:0:0:
320,192,33447,1,0,0:0:0:0:
448,192,33619,1,0,0:0:0:0:
192,192,33790,1,0,0:0:0:0:
320,192,33876,1,0,0:0:0:0:
64,192,33962,1,8,0:0:0:0:
448,192,33962,1,0,0:0:0:0:
320,192,34133,1,0,0:0:0:0:
192,192,34219,1,0,0:0:0:0:
64,192,34304,1,8,0:0:0:0:
448,192,34304,1,0,0:0:0:0:
320,192,34476,128,4,34647:0:0:0:0:
448,192,34476,128,2,34647:0:0:0:0:
192,192,34647,1,0,0:0:0:0:
320,192,34819,1,0,0:0:0:0:
64,192,34990,1,0,0:0:0:0:
448,192,35076,1,0,0:0:0:0:
192,192,35162,128,4,35333:0:0:0:0:
320,192,35162,128,2,35333:0:0:0:0:
64,192,35333,1,8,0:0:0:0:
448,192,35333,1,0,0:0:0:0:
192,192,35504,128,2,35676:0:0:0:0:
320,192,35504,128,4,35676:0:0:0:0:
64,192,35676,1,8,0:0:0:0:
448,192,35676,1,0,0:0:0:0:
64,192,35847,128,2,36019:0:0:0:0:
192,192,35847,128,4,36019:0:0:0:0:
320,192,36019,128,0,36362:0:0:0:0:
192,192,36362,1,0,0:0:0:0:
320,192,36533,1,0,0:0:0:0:
192,192,36619,1,0,0:0:0:0:
64,192,36704,1,8,0:0:0:0:
448,192,36704,1,0,0:0:0:0:
320,192,36876,1,0,0:0:0:0:
192,192,36962,1,0,0:0:0:0:
448,192,37047,128,0,37390:0:0:0:0:
64,192,37390,1,2,0:0:0:0:
192,192,37390,1,0,0:0:0:0:
320,192,37562,1,0,0:0:0:0:
192,192,37647,1,0,0:0:0:0:
320,192,37733,128,0,37904:0:0:0:0:
64,192,37904,128,0,38076:0:0:0:0:
192,192,38076,1,8,0:0:0:0:
448,192,38076,1,0,0:0:0:0:
320,192,38247,128,2,38590:0:0:0:0:
448,192,38247,1,0,0:0:0:0:
192,192,38419,1,0,0:0:0:0:
64,192,38590,1,0,0:0:0:0:
448,192,38676,1,0,0:0:0:0:
64,192,38762,1,2,0:0:0:0:
192,192,38762,128,0,38933:0:0:0:0:
448,192,38933,128,0,39276:0:0:0:0:
192,192,39276,1,0,0:0:0:0:
320,192,39362,1,0,0:0:0:0:
64,192,39447,1,8,0:0:0:0:
448,192,39447,1,0,0:0:0:0:
320,192,39619,1,0,0:0:0:0:
192,192,39704,1,0,0:0:0:0:
64,192,39790,1,0,0:0:0:0:
448,192,39876,1,0,0:0:0:0:
64,192,39962,1,0,0:0:0:0:
448,192,40047,1,0,0:0:0:0:
64,192,40133,1,2,0:0:0:0:
192,192,40133,1,0,0:0:0:0:
320,192,40219,128,0,40390:0:0:0:0:
192,192,40476,1,0,0:0:0:0:
448,192,40562,1,0,0:0:0:0:
192,192,40647,1,0,0:0:0:0:
320,192,40733,1,0,0:0:0:0:
64,192,40819,1,8,0:0:0:0:
448,192,40819,1,0,0:0:0:0:
64,192,40990,1,2,0:0:0:0:
192,192,40990,1,0,0:0:0:0:
320,192,41076,1,0,0:0:0:0:
64,192,41162,1,8,0:0:0:0:
448,192,41162,1,0,0:0:0:0:
192,192,41247,1,0,0:0:0:0:
320,192,41333,128,4,41504:0:0:0:0:
448,192,41333,128,2,41504:0:0:0:0:
192,192,41504,128,0,41847:0:0:0:0:
320,192,41847,1,0,0:0:0:0:
64,192,41933,1,0,0:0:0:0:
320,192,42019,1,0,0:0:0:0:
64,192,42104,1,0,0:0:0:0:
192,192,42190,128,8,42362:0:0:0:0:
448,192,42190,1,0,0:0:0:0:
448,192,42362,128,0,42533:0:0:0:0:
64,192,42533,1,0,0:0:0:0:
320,192,42704,1,0,0:0:0:0:
192,192,42790,1,0,0:0:0:0:
320,192,42876,1,2,0:0:0:0:
448,192,42876,1,0,0:0:0:0:
64,192,43047,1,0,0:0:0:0:
448,192,43133,1,0,0:0:0:0:
64,192,43219,128,0,43562:0:0:0:0:
192,192,43562,1,8,0:0:0:0:
448,192,43562,1,0,0:0:0:0:
320,192,43733,1,2,0:0:0:0:
448,192,43733,1,0,0:0:0:0:
64,192,43904,1,0,0:0:0:0:
320,192,44076,1,0,0:0:0:0:
192,192,44162,1,0,0:0:0:0:
320,192,44247,128,2,44590:0:0:0:0:
448,192,44247,1,0,0:0:0:0:
64,192,44590,1,0,0:0:0:0:
320,192,44762,1,0,0:0:0:0:
192,192,44847,1,0,0:0:0:0:
64,192,44933,1,8,0:0:0:0:
448,192,44933,1,0,0:0:0:0:
192,192,45104,1,0,0:0:0:0:
320,192,45190,1,0,0:0:0:0:
64,192,45276,1,8,0:0:0:0:
448,192,45276,1,0,0:0:0:0:
192,192,45447,1,2,0:0:0:0:
320,192,45504,1,2,0:0:0:0:
448,192,45562,1,2,0:0:0:0:
64,192,45619,1,2,0:0:0:0:
192,192,45619,1,0,0:0:0:0:
448,192,45790,128,0,45962:0:0:0:0:
192,192,45962,128,0,46304:0:0:0:0:
320,192,46304,1,0,0:0:0:0:
64,192,46476,1,2,0:0:0:0:
192,192,46476,1,0,0:0:0:0:
320,192,46562,1,2,0:0:0:0:
448,192,46562,1,0,0:0:0:0:
64,192,46647,1,8,0:0:0:0:
448,192,46733,1,8,0:0:0:0:
64,192,46819,1,8,0:0:0:0:
448,192,46904,1,8,0:0:0:0:
64,192,46990,1,6,0:0:0:0:
192,192,46990,1,0,0:0:0:100:PF1_5D.wav
320,192,48190,1,0,0:0:0:100:PF1_4G.wav
448,192,49562,1,0,0:0:0:100:PF1_5G.wav
64,192,50933,1,0,0:0:0:100:PF1_5C.wav
448,192,52304,1,0,0:0:0:100:PF16_5F.wav
320,192,52390,1,0,0:0:0:100:PF16_5Eb.wav
192,192,52476,1,0,0:0:0:100:PF1_5D.wav
320,192,53676,1,0,0:0:0:100:PF1_4G.wav
448,192,55047,1,0,0:0:0:100:PF1_5G.wav
64,192,56419,1,0,0:0:0:100:PF1_5C.wav
64,192,57962,1,2,0:0:0:0:
192,192,57962,1,0,0:0:0:0:
320,192,58476,128,0,58819:0:0:0:0:
64,192,58647,1,8,0:0:0:0:
192,192,58819,128,0,58990:0:0:0:0:
448,192,58990,128,0,59162:0:0:0:0:
64,192,59162,128,0,59504:0:0:0:0:
320,192,59333,1,2,0:0:0:0:
192,192,59504,128,0,59676:0:0:0:0:
320,192,59676,128,0,59847:0:0:0:0:
64,192,59847,128,0,60019:0:0:0:0:
448,192,60019,128,8,60190:0:0:0:0:
192,192,60190,128,2,60362:0:0:0:0:
448,192,60362,128,0,60533:0:0:0:0:
320,192,60533,128,0,61390:0:0:0:0:
64,192,60704,1,2,0:0:0:0:
448,192,61390,1,8,0:0:0:0:
192,192,61562,128,0,61733:0:0:0:0:
448,192,61733,128,0,61904:0:0:0:0:
64,192,61904,128,0,62590:0:0:0:0:
320,192,62076,1,2,0:0:0:0:
448,192,62590,128,0,62762:0:0:0:0:
192,192,62762,128,8,63276:0:0:0:0:
320,192,62933,1,2,0:0:0:0:
448,192,63276,1,0,0:0:0:0:
320,192,63362,1,0,0:0:0:0:
64,192,63447,1,2,0:0:0:0:
192,192,63447,1,0,0:0:0:0:
64,192,63790,1,2,0:0:0:0:
192,192,63790,1,0,0:0:0:0:
320,192,64133,1,2,0:0:0:0:
448,192,64133,1,0,0:0:0:0:
320,192,64476,1,2,0:0:0:0:
448,192,64476,1,0,0:0:0:0:
192,192,64647,1,0,0:0:0:0:
320,192,64819,1,2,0:0:0:0:
448,192,64819,1,0,0:0:0:0:
64,192,64990,1,2,0:0:0:0:
192,192,65162,1,2,0:0:0:0:
448,192,65162,1,0,0:0:0:0:
320,192,65333,1,2,0:0:0:0:
64,192,65504,1,2,0:0:0:0:
192,192,65504,1,0,0:0:0:0:
448,192,65676,1,2,0:0:0:0:
64,192,65847,1,2,0:0:0:0:
320,192,65847,1,0,0:0:0:0:
192,192,66019,1,2,0:0:0:0:
320,192,66190,1,2,0:0:0:0:
448,192,66190,1,0,0:0:0:0:
64,192,66276,1,2,0:0:0:0:
192,192,66362,1,2,0:0:0:0:
320,192,66447,1,2,0:0:0:0:
64,192,66533,1,2,0:0:0:0:
448,192,66619,1,2,0:0:0:0:
320,192,66704,1,2,0:0:0:0:
192,192,66790,1,2,0:0:0:0:
448,192,66876,1,2,0:0:0:0:
64,192,66962,1,2,0:0:0:0:
192,192,67047,1,2,0:0:0:0:
320,192,67133,1,2,0:0:0:0:
64,192,67219,1,8,0:0:0:0:
448,192,67304,1,8,0:0:0:0:
64,192,67390,1,8,0:0:0:0:
448,192,67476,1,8,0:0:0:0:
64,192,67562,1,4,0:0:0:0:
192,192,67562,1,2,0:0:0:0:
320,192,67733,1,0,0:0:0:100:FillD_02.wav
64,192,67904,1,0,0:0:0:100:FillD_02.wav
448,192,67904,1,0,0:0:0:0:
192,192,68076,1,0,0:0:0:100:FillD_02.wav
320,192,68162,1,0,0:0:0:100:FillD_02.wav
192,192,68247,1,0,0:0:0:100:FillD_02.wav
448,192,68333,1,0,0:0:0:100:FillD_02.wav
64,192,68419,1,2,0:0:0:0:
192,192,68419,1,0,0:0:0:0:
320,192,68504,1,2,0:0:0:0:
64,192,68590,1,8,0:0:0:0:
448,192,68590,1,0,0:0:0:0:
192,192,68676,1,0,0:0:0:0:
320,192,68762,1,0,0:0:0:0:
448,192,68847,1,0,0:0:0:0:
64,192,68933,128,2,69619:0:0:0:0:
192,192,68933,128,4,69104:0:0:0:0:
192,192,69276,1,8,0:0:0:0:
448,192,69276,1,0,0:0:0:0:
320,192,69619,1,0,0:0:0:0:
64,192,69790,1,2,0:0:0:0:
192,192,69790,128,0,69962:0:0:0:0:
64,192,69962,1,8,0:0:0:0:
448,192,69962,128,0,70133:0:0:0:0:
320,192,70133,128,0,70476:0:0:0:0:
64,192,70304,1,2,0:0:0:0:
192,192,70304,1,0,0:0:0:0:
448,192,70476,1,0,0:0:0:0:
64,192,70562,1,0,0:0:0:0:
192,192,70647,1,8,0:0:0:0:
448,192,70647,1,0,0:0:0:0:
64,192,70733,1,0,0:0:0:0:
320,192,70819,1,0,0:0:0:0:
192,192,70904,1,0,0:0:0:0:
448,192,70990,1,0,0:0:0:0:
64,192,71076,1,0,0:0:0:0:
320,192,71162,1,2,0:0:0:0:
448,192,71162,1,0,0:0:0:0:
192,192,71247,1,0,0:0:0:0:
64,192,71333,1,8,0:0:0:0:
448,192,71333,1,0,0:0:0:0:
192,192,71419,1,0,0:0:0:0:
320,192,71504,128,0,71847:0:0:0:0:
64,192,71676,1,2,0:0:0:0:
192,192,71676,1,0,0:0:0:0:
192,192,71847,128,0,72019:0:0:0:0:
64,192,72019,1,8,0:0:0:0:
448,192,72019,128,0,72190:0:0:0:0:
192,192,72190,1,0,0:0:0:0:
320,192,72276,1,0,0:0:0:0:
64,192,72362,128,0,72533:0:0:0:0:
320,192,72533,128,2,72704:0:0:0:0:
448,192,72533,1,0,0:0:0:0:
192,192,72704,128,8,72876:0:0:0:0:
448,192,72704,1,0,0:0:0:0:
320,192,72876,128,0,73219:0:0:0:0:
64,192,73047,1,2,0:0:0:0:
192,192,73047,1,0,0:0:0:0:
192,192,73219,1,0,0:0:0:0:
448,192,73304,1,0,0:0:0:0:
64,192,73390,1,8,0:0:0:0:
320,192,73390,1,0,0:0:0:0:
448,192,73476,1,0,0:0:0:0:
192,192,73562,1,0,0:0:0:0:
320,192,73647,1,0,0:0:0:0:
64,192,73733,1,0,0:0:0:0:
448,192,73819,1,0,0:0:0:0:
64,192,73904,1,2,0:0:0:0:
192,192,73904,1,0,0:0:0:0:
320,192,73990,1,0,0:0:0:0:
64,192,74076,1,8,0:0:0:0:
448,192,74076,1,0,0:0:0:0:
192,192,74162,1,0,0:0:0:0:
320,192,74247,1,0,0:0:0:0:
64,192,74333,1,0,0:0:0:0:
320,192,74419,128,2,75104:0:0:0:0:
448,192,74419,1,0,0:0:0:0:
64,192,74762,1,8,0:0:0:0:
448,192,74762,1,0,0:0:0:0:
448,192,75104,1,0,0:0:0:0:
64,192,75276,128,2,75447:0:0:0:0:
192,192,75276,1,0,0:0:0:0:
192,192,75447,1,8,0:0:0:0:
448,192,75447,128,0,75619:0:0:0:0:
320,192,75619,128,0,76304:0:0:0:0:
64,192,75790,1,2,0:0:0:0:
192,192,75790,1,0,0:0:0:0:
64,192,76133,1,8,0:0:0:0:
448,192,76133,1,0,0:0:0:0:
192,192,76304,128,0,76647:0:0:0:0:
64,192,76476,1,0,0:0:0:0:
320,192,76647,128,2,76990:0:0:0:0:
448,192,76647,1,0,0:0:0:0:
192,192,76819,1,8,0:0:0:0:
448,192,76819,1,0,0:0:0:0:
64,192,76990,128,0,77676:0:0:0:0:
320,192,77162,1,2,0:0:0:0:
448,192,77162,1,0,0:0:0:0:
192,192,77504,1,8,0:0:0:0:
448,192,77504,1,0,0:0:0:0:
320,192,77676,128,0,78019:0:0:0:0:
448,192,77847,1,0,0:0:0:0:
64,192,78019,1,2,0:0:0:0:
192,192,78019,128,0,78362:0:0:0:0:
64,192,78190,1,8,0:0:0:0:
320,192,78190,1,0,0:0:0:0:
448,192,78362,128,0,78704:0:0:0:0:
64,192,78533,1,2,0:0:0:0:
192,192,78533,1,0,0:0:0:0:
64,192,78704,128,0,78876:0:0:0:0:
192,192,78876,1,8,0:0:0:0:
448,192,78876,128,0,79047:0:0:0:0:
320,192,79047,128,0,79219:0:0:0:0:
448,192,79219,128,0,79390:0:0:0:0:
64,192,79390,1,2,0:0:0:0:
192,192,79390,1,0,0:0:0:0:
320,192,79476,1,2,0:0:0:0:
448,192,79476,1,0,0:0:0:0:
64,192,79562,1,8,0:0:0:0:
448,192,79647,1,8,0:0:0:0:
64,192,79733,1,8,0:0:0:0:
448,192,79819,1,8,0:0:0:0:
64,192,79904,128,2,80076:0:0:0:0:
192,192,79904,128,4,80076:0:0:0:0:
320,192,80076,128,0,80247:0:0:0:0:
64,192,80247,1,8,0:0:0:0:
448,192,80247,128,0,80419:0:0:0:0:
192,192,80419,1,0,0:0:0:0:
320,192,80504,1,0,0:0:0:0:
64,192,80590,128,0,80762:0:0:0:0:
320,192,80762,1,2,0:0:0:0:
448,192,80762,1,0,0:0:0:0:
192,192,80847,1,0,0:0:0:0:
64,192,80933,1,8,0:0:0:0:
448,192,80933,128,0,81104:0:0:0:0:
192,192,81104,128,0,81447:0:0:0:0:
320,192,81276,1,2,0:0:0:0:
448,192,81276,1,0,0:0:0:0:
64,192,81447,128,0,81619:0:0:0:0:
192,192,81619,1,8,0:0:0:0:
448,192,81619,128,0,81790:0:0:0:0:
320,192,81790,1,0,0:0:0:0:
192,192,81876,1,0,0:0:0:0:
448,192,81962,1,0,0:0:0:0:
64,192,82047,1,0,0:0:0:0:
320,192,82133,1,2,0:0:0:0:
448,192,82133,1,0,0:0:0:0:
192,192,82219,1,0,0:0:0:0:
64,192,82304,1,8,0:0:0:0:
320,192,82304,1,0,0:0:0:0:
192,192,82390,1,0,0:0:0:0:
448,192,82476,128,0,83504:0:0:0:0:
64,192,82647,1,2,0:0:0:0:
192,192,82647,1,0,0:0:0:0:
64,192,82990,1,8,0:0:0:0:
320,192,82990,1,0,0:0:0:0:
320,192,83333,1,0,0:0:0:0:
64,192,83504,1,2,0:0:0:0:
192,192,83504,128,0,83676:0:0:0:0:
64,192,83676,128,8,83847:0:0:0:0:
448,192,83676,1,0,0:0:0:0:
320,192,83847,128,0,84190:0:0:0:0:
64,192,84019,1,2,0:0:0:0:
192,192,84019,1,0,0:0:0:0:
192,192,84190,1,0,0:0:0:0:
448,192,84276,1,0,0:0:0:0:
64,192,84362,1,8,0:0:0:0:
320,192,84362,1,0,0:0:0:0:
448,192,84447,1,0,0:0:0:0:
192,192,84533,1,0,0:0:0:0:
320,192,84619,1,0,0:0:0:0:
64,192,84704,1,0,0:0:0:0:
448,192,84790,1,0,0:0:0:0:
64,192,84876,1,2,0:0:0:0:
192,192,84876,1,0,0:0:0:0:
320,192,84962,1,0,0:0:0:0:
64,192,85047,1,8,0:0:0:0:
448,192,85047,1,0,0:0:0:0:
192,192,85133,1,0,0:0:0:0:
320,192,85219,1,0,0:0:0:0:
64,192,85304,1,0,0:0:0:0:
320,192,85390,128,2,86076:0:0:0:0:
448,192,85390,1,0,0:0:0:0:
64,192,85733,1,8,0:0:0:0:
448,192,85733,1,0,0:0:0:0:
448,192,86076,1,0,0:0:0:0:
64,192,86247,128,2,86419:0:0:0:0:
192,192,86247,1,0,0:0:0:0:
192,192,86419,1,8,0:0:0:0:
448,192,86419,128,0,86590:0:0:0:0:
320,192,86590,128,0,87276:0:0:0:0:
64,192,86762,1,2,0:0:0:0:
192,192,86762,1,0,0:0:0:0:
64,192,87104,1,8,0:0:0:0:
448,192,87104,1,0,0:0:0:0:
192,192,87276,128,0,87619:0:0:0:0:
64,192,87447,1,0,0:0:0:0:
320,192,87619,128,2,87962:0:0:0:0:
448,192,87619,1,0,0:0:0:0:
192,192,87790,1,8,0:0:0:0:
448,192,87790,1,0,0:0:0:0:
64,192,87962,128,0,88647:0:0:0:0:
320,192,88133,1,2,0:0:0:0:
448,192,88133,1,0,0:0:0:0:
320,192,88304,1,2,0:0:0:0:
192,192,88476,1,8,0:0:0:0:
448,192,88476,1,0,0:0:0:0:
320,192,88647,1,2,0:0:0:0:
448,192,88647,1,0,0:0:0:0:
192,192,88733,1,0,0:0:0:0:
320,192,88819,1,0,0:0:0:0:
64,192,88904,1,0,0:0:0:0:
320,192,88990,1,2,0:0:0:0:
448,192,88990,1,0,0:0:0:0:
64,192,89076,1,2,0:0:0:0:
192,192,89076,1,0,0:0:0:0:
448,192,89162,1,8,0:0:0:0:
64,192,89247,1,8,0:0:0:0:
448,192,89333,1,8,0:0:0:0:
64,192,89419,1,8,0:0:0:0:
320,192,89504,1,4,0:0:0:0:
448,192,89504,1,2,0:0:0:0:
192,192,89676,1,0,0:0:0:100:FillD_02.wav
64,192,89847,1,0,0:0:0:100:FillD_02.wav
448,192,89847,1,0,0:0:0:0:
320,192,90019,1,0,0:0:0:100:FillD_02.wav
192,192,90104,1,0,0:0:0:100:FillD_02.wav
320,192,90190,1,0,0:0:0:100:FillD_02.wav
64,192,90276,1,0,0:0:0:100:FillD_02.wav
320,192,90362,1,2,0:0:0:0:
448,192,90362,1,0,0:0:0:0:
192,192,90447,1,2,0:0:0:0:
64,192,90533,1,8,0:0:0:0:
448,192,90533,1,0,0:0:0:0:
192,192,90619,1,0,0:0:0:0:
320,192,90704,1,0,0:0:0:0:
448,192,90790,1,0,0:0:0:0:
64,192,90876,1,6,0:0:0:0:
192,192,90876,1,0,0:0:0:100:PFb_5Eb.wav
192,192,92076,1,0,0:0:0:100:PF1_4Ab.wav
448,192,93447,1,0,0:0:0:100:PF1_5Ab.wav
64,192,94819,1,0,0:0:0:100:PF1_5Db.wav
448,192,96190,1,0,0:0:0:100:PF16_5Gb.wav
320,192,96276,1,0,0:0:0:100:PF16_5E.wav
192,192,96362,1,0,0:0:0:100:PF1_5Eb.wav
320,192,97562,1,0,0:0:0:100:PF1_4Ab.wav
448,192,98933,1,0,0:0:0:100:PF1_5Ab.wav
192,192,100304,1,0,0:0:0:100:PF1_5Db.wav
448,192,101333,128,0,101847:0:0:0:0:
64,192,101847,1,0,0:0:0:100:PFb_5Eb.wav
192,192,103047,1,0,0:0:0:100:PF1_4Ab.wav
448,192,104419,1,0,0:0:0:100:PF1_5Ab.wav
192,192,104504,1,0,0:0:0:0:
320,192,104590,1,0,0:0:0:0:
64,192,105790,1,0,0:0:0:100:PF1_5Db.wav
320,192,105876,1,0,0:0:0:0:
192,192,105962,1,0,0:0:0:0:
448,192,107162,1,0,0:0:0:100:PF16_5Gb.wav
320,192,107247,1,0,0:0:0:100:PF16_5E.wav
192,192,107333,1,0,0:0:0:100:PF1_5Eb.wav
320,192,108533,1,0,0:0:0:100:PFb_5Gb.wav
64,192,108704,1,0,0:0:0:0:
192,192,109390,1,0,0:0:0:0:
448,192,109904,1,0,0:0:0:100:PFb_5Ab.wav
320,192,110076,1,0,0:0:0:0:
192,192,111276,1,0,0:0:0:100:PFb_6Db.wav
64,192,112476,1,0,0:0:0:100:PF16_4Db.wav
192,192,112562,1,0,0:0:0:100:PF16_4Ab.wav
320,192,112647,1,0,0:0:0:100:PF16_4B.wav
448,192,112733,1,0,0:0:0:100:PFb_5Db.wav
64,192,112819,1,0,0:0:0:100:FxKick05.wav
192,192,112819,1,0,0:0:0:0:
