osu file format v14

[General]
AudioFilename: audio.mp3
AudioLeadIn: 0
PreviewTime: 68419
Countdown: 0
SampleSet: Soft
StackLeniency: 0.7
Mode: 3
LetterboxInBreaks: 0
SpecialStyle: 0
WidescreenStoryboard: 1

[Editor]
Bookmarks: 25047,46990,57962,68933,90876
DistanceSpacing: 2
BeatDivisor: 4
GridSize: 16
TimelineZoom: 1.600001

[Metadata]
Title:Sakura Fubuki
TitleUnicode:Sakura Fubuki
Artist:Street
ArtistUnicode:Street
Creator:Nicknem_
Version:Hard // Sprouting
Source:大血戦 -THE BMS OF FIGHTERS ULTIMATE-
Tags:FAMoss BOFU2015 GroundbreakinG daikessen Drum and Bass drum'n'bass dnb Artcore Drumstep Instrumental Video Game Electronic FA Featured Artist maimai MURASAKi CHUNITHM AIR SEGA Arcaea lowiro SOUND VOLTEX VI EXCEED GEAR SDVX KONAMI BEMANI オンゲキ ONGEKI PLUS O.N.G.E.K.I Dynamix C4Cat MUSYNC MUSYNX Zyon Muse Dash peropero
BeatmapID:3578278
BeatmapSetID:1748991

[Difficulty]
HPDrainRate:7.5
CircleSize:7
OverallDifficulty:7.5
ApproachRate:5
SliderMultiplier:1.4
SliderTickRate:1

[Events]
//Background and Video events
0,0,"cxKHFUR.jpg",0,0
//Break Periods
//Storyboard Layer 0 (Background)
//Storyboard Layer 1 (Fail)
//Storyboard Layer 2 (Pass)
//Storyboard Layer 3 (Foreground)
//Storyboard Layer 4 (Overlay)
//Storyboard Sound Samples

[TimingPoints]
362,342.857142857143,4,2,1,50,1,0
16819,-100,4,2,1,60,0,0
19562,-100,4,2,1,70,0,0
47162,-100,4,2,1,50,0,0
63447,-100,4,2,1,60,0,0
66190,-100,4,2,1,70,0,0
68933,-100,4,2,1,70,0,1
90876,-100,4,2,1,70,0,0
91047,-100,4,2,1,50,0,0

[HitObjects]
109,192,362,5,4,0:0:0:0:
182,192,362,1,0,0:0:0:100:PF1_5C.wav
402,192,2419,1,0,0:0:0:100:PF3_5D.wav
475,192,2419,1,0,0:0:0:0:
36,192,2933,1,0,0:0:0:100:PF1_4G.wav
109,192,2933,1,0,0:0:0:0:
182,192,3276,1,0,0:0:0:0:
256,192,3447,1,0,0:0:0:0:
329,192,3619,1,0,0:0:0:0:
402,192,3790,1,0,0:0:0:0:
329,192,3962,1,0,0:0:0:0:
256,192,4133,1,0,0:0:0:0:
182,192,4304,1,0,0:0:0:0:
475,192,4476,1,0,0:0:0:0:
402,192,4647,1,0,0:0:0:0:
329,192,4819,1,0,0:0:0:0:
256,192,4990,1,0,0:0:0:0:
36,192,5162,1,0,0:0:0:0:
109,192,5333,1,0,0:0:0:0:
182,192,5504,1,0,0:0:0:0:
256,192,5676,1,0,0:0:0:0:
329,192,5847,1,0,0:0:0:100:PF1_5F.wav
402,192,5847,1,0,0:0:0:0:
402,192,7904,1,0,0:0:0:100:PF3_5G.wav
475,192,7904,1,0,0:0:0:0:
109,192,8419,1,0,0:0:0:100:PF1_5D.wav
182,192,8419,1,0,0:0:0:0:
256,192,8762,1,0,0:0:0:0:
329,192,8933,1,0,0:0:0:0:
402,192,9104,1,0,0:0:0:0:
475,192,9276,1,0,0:0:0:0:
36,192,9447,1,0,0:0:0:0:
109,192,9619,1,0,0:0:0:0:
182,192,9790,1,0,0:0:0:0:
329,192,9962,1,0,0:0:0:0:
402,192,10133,1,0,0:0:0:0:
475,192,10304,1,0,0:0:0:0:
256,192,10476,1,0,0:0:0:0:
182,192,10647,1,0,0:0:0:0:
109,192,10819,1,0,0:0:0:0:
475,192,10990,128,0,11333:0:0:0:0:
36,192,11333,1,2,0:0:0:0:
109,192,11333,1,0,0:0:0:100:PF1_5C.wav
182,192,11333,1,0,0:0:0:0:
402,192,11504,1,0,0:0:0:0:
256,192,11676,1,0,0:0:0:0:
109,192,11847,1,0,0:0:0:0:
475,192,12019,1,0,0:0:0:0:
329,192,12190,1,0,0:0:0:0:
182,192,12362,1,0,0:0:0:0:
36,192,12533,1,0,0:0:0:0:
256,192,12704,1,0,0:0:0:0:
402,192,12876,1,0,0:0:0:0:
109,192,13047,1,0,0:0:0:0:
256,192,13219,1,0,0:0:0:0:
402,192,13390,1,0,0:0:0:100:PF3_5D.wav
475,192,13390,1,0,0:0:0:0:
329,192,13562,1,0,0:0:0:0:
256,192,13733,1,0,0:0:0:0:
36,192,13904,1,0,0:0:0:100:PF1_4G.wav
109,192,13904,1,0,0:0:0:0:
182,192,14076,1,0,0:0:0:0:
329,192,14247,1,0,0:0:0:0:
109,192,14419,1,0,0:0:0:0:
402,192,14590,1,0,0:0:0:0:
182,192,14762,1,0,0:0:0:0:
329,192,14933,1,0,0:0:0:0:
109,192,15104,1,0,0:0:0:0:
402,192,15276,1,0,0:0:0:100:PF15_5F.wav
475,192,15276,1,0,0:0:0:0:
256,192,15447,1,0,0:0:0:0:
109,192,15619,1,0,0:0:0:0:
256,192,15790,1,0,0:0:0:0:
402,192,15962,1,0,0:0:0:0:
256,192,16133,1,0,0:0:0:0:
475,192,16304,1,0,0:0:0:0:
329,192,16476,1,0,0:0:0:0:
182,192,16647,1,0,0:0:0:0:
36,192,16819,1,2,0:0:0:0:
109,192,16819,1,0,0:0:0:0:
36,192,17162,1,2,0:0:0:0:
109,192,17162,1,0,0:0:0:0:
329,192,17504,1,2,0:0:0:0:
402,192,17504,1,0,0:0:0:0:
329,192,17847,1,2,0:0:0:0:
402,192,17847,1,0,0:0:0:0:
256,192,18019,1,0,0:0:0:0:
36,192,18190,1,2,0:0:0:0:
109,192,18190,1,0,0:0:0:0:
182,192,18362,1,2,0:0:0:0:
402,192,18533,1,2,0:0:0:0:
475,192,18533,1,0,0:0:0:0:
329,192,18704,1,2,0:0:0:0:
36,192,18876,1,2,0:0:0:0:
109,192,18876,1,0,0:0:0:0:
182,192,19047,1,2,0:0:0:0:
402,192,19219,1,2,0:0:0:0:
475,192,19219,1,0,0:0:0:0:
329,192,19390,1,2,0:0:0:0:
36,192,19562,1,2,0:0:0:0:
109,192,19647,1,2,0:0:0:0:
182,192,19733,1,2,0:0:0:0:
256,192,19819,1,2,0:0:0:0:
475,192,19904,1,2,0:0:0:0:
402,192,19990,1,2,0:0:0:0:
329,192,20076,1,2,0:0:0:0:
256,192,20162,1,2,0:0:0:0:
36,192,20247,1,2,0:0:0:0:
109,192,20333,1,2,0:0:0:0:
182,192,20419,1,2,0:0:0:0:
256,192,20504,1,2,0:0:0:0:
36,192,20590,1,8,0:0:0:0:
475,192,20590,1,0,0:0:0:0:
182,192,20676,1,8,0:0:0:0:
329,192,20762,1,8,0:0:0:0:
475,192,20847,1,8,0:0:0:0:
109,192,20933,1,2,0:0:0:0:
256,192,20933,1,0,0:0:0:0:
256,192,21104,1,0,0:0:0:100:FillD_02.wav
36,192,21276,1,0,0:0:0:100:FillD_02.wav
475,192,21276,1,0,0:0:0:0:
109,192,21362,1,0,0:0:0:100:FillD_02.wav
182,192,21447,1,2,0:0:0:0:
475,192,21619,1,0,0:0:0:100:FillD_02.wav
402,192,21704,1,0,0:0:0:100:FillD_02.wav
329,192,21790,1,0,0:0:0:100:FillD_02.wav
36,192,21962,1,2,0:0:0:0:
109,192,21962,1,0,0:0:0:0:
182,192,22047,1,0,0:0:0:0:
256,192,22133,1,2,0:0:0:0:
329,192,22219,1,0,0:0:0:0:
36,192,22304,1,2,0:0:0:0:
182,192,22304,1,8,0:0:0:0:
475,192,22304,1,4,0:0:0:0:
402,192,22476,1,10,0:0:0:0:
475,192,22476,1,4,0:0:0:0:
36,192,22819,1,10,0:0:0:0:
109,192,22819,1,4,0:0:0:0:
36,192,22990,1,10,0:0:0:0:
109,192,22990,1,4,0:0:0:0:
329,192,23333,1,12,0:0:0:0:
402,192,23333,1,2,0:0:0:0:
329,192,23504,1,12,0:0:0:0:
402,192,23504,1,2,0:0:0:0:
109,192,23847,1,10,0:0:0:0:
182,192,23847,1,4,0:0:0:0:
109,192,24019,1,10,0:0:0:0:
182,192,24019,1,4,0:0:0:0:
402,192,24362,1,8,0:0:0:0:
475,192,24362,1,0,0:0:0:0:
329,192,24533,1,2,0:0:0:0:
256,192,24619,1,2,0:0:0:0:
36,192,24704,1,8,0:0:0:0:
109,192,24790,1,8,0:0:0:0:
182,192,24876,1,2,0:0:0:0:
256,192,24876,1,4,0:0:0:0:
329,192,24876,1,0,0:0:0:0:
475,192,25047,128,0,25390:0:0:0:0:
402,192,25219,128,0,25390:0:0:0:0:
36,192,25390,1,0,0:0:0:0:
329,192,25562,1,0,0:0:0:0:
256,192,25647,1,0,0:0:0:0:
109,192,25733,1,8,0:0:0:0:
182,192,25733,1,0,0:0:0:0:
329,192,25904,1,0,0:0:0:0:
256,192,25990,1,0,0:0:0:0:
475,192,26076,128,0,26419:0:0:0:0:
36,192,26419,1,2,0:0:0:0:
109,192,26419,1,0,0:0:0:0:
256,192,26590,1,0,0:0:0:0:
329,192,26676,1,0,0:0:0:0:
402,192,26762,1,0,0:0:0:0:
182,192,26933,128,0,27104:0:0:0:0:
36,192,27104,1,8,0:0:0:0:
109,192,27104,1,0,0:0:0:0:
256,192,27276,1,2,0:0:0:0:
475,192,27276,1,0,0:0:0:0:
402,192,27447,1,0,0:0:0:0:
329,192,27619,1,0,0:0:0:0:
256,192,27704,1,0,0:0:0:0:
36,192,27790,128,2,28133:0:0:0:0:
182,192,27790,1,0,0:0:0:0:
109,192,27962,128,0,28133:0:0:0:0:
402,192,28133,1,0,0:0:0:0:
329,192,28304,1,0,0:0:0:0:
256,192,28390,1,0,0:0:0:0:
109,192,28476,1,8,0:0:0:0:
182,192,28476,1,0,0:0:0:0:
402,192,28647,1,0,0:0:0:0:
109,192,28819,1,0,0:0:0:0:
182,192,28904,1,0,0:0:0:0:
256,192,28990,1,0,0:0:0:0:
329,192,29076,1,0,0:0:0:0:
36,192,29162,1,2,0:0:0:0:
475,192,29162,128,0,29504:0:0:0:0:
402,192,29333,128,0,29504:0:0:0:0:
256,192,29504,1,0,0:0:0:0:
182,192,29590,1,0,0:0:0:0:
109,192,29676,1,0,0:0:0:0:
36,192,29762,1,0,0:0:0:0:
329,192,29847,1,8,0:0:0:0:
475,192,29847,1,0,0:0:0:0:
36,192,30019,1,2,0:0:0:0:
182,192,30019,1,0,0:0:0:0:
329,192,30190,1,8,0:0:0:0:
475,192,30190,1,0,0:0:0:0:
36,192,30362,128,4,30876:0:0:0:0:
182,192,30362,1,2,0:0:0:0:
256,192,30362,1,0,0:0:0:0:
109,192,30533,128,0,30876:0:0:0:0:
402,192,30876,1,0,0:0:0:0:
475,192,30876,1,0,0:0:0:0:
329,192,30962,1,0,0:0:0:0:
256,192,31047,1,0,0:0:0:0:
36,192,31219,128,8,31562:0:0:0:0:
182,192,31219,1,0,0:0:0:0:
109,192,31390,128,0,31562:0:0:0:0:
475,192,31562,128,0,31904:0:0:0:0:
329,192,31733,1,0,0:0:0:0:
256,192,31819,1,0,0:0:0:0:
36,192,31904,1,2,0:0:0:0:
109,192,31904,1,0,0:0:0:0:
182,192,32076,1,0,0:0:0:0:
256,192,32162,1,0,0:0:0:0:
329,192,32247,1,0,0:0:0:0:
402,192,32247,128,0,32590:0:0:0:0:
182,192,32419,1,0,0:0:0:0:
109,192,32504,1,0,0:0:0:0:
36,192,32590,1,8,0:0:0:0:
256,192,32590,1,0,0:0:0:0:
329,192,32762,1,2,0:0:0:0:
402,192,32762,1,0,0:0:0:0:
475,192,32933,1,0,0:0:0:0:
402,192,33104,1,0,0:0:0:0:
329,192,33190,1,0,0:0:0:0:
36,192,33276,128,2,33619:0:0:0:0:
109,192,33276,1,0,0:0:0:0:
182,192,33447,1,0,0:0:0:0:
475,192,33619,128,0,33962:0:0:0:0:
329,192,33790,1,0,0:0:0:0:
109,192,33962,128,8,34304:0:0:0:0:
402,192,33962,1,0,0:0:0:0:
256,192,34133,1,0,0:0:0:0:
36,192,34304,1,8,0:0:0:0:
182,192,34304,1,0,0:0:0:0:
329,192,34476,1,4,0:0:0:0:
402,192,34476,1,2,0:0:0:0:
475,192,34476,1,0,0:0:0:0:
109,192,34819,1,0,0:0:0:0:
182,192,34904,1,0,0:0:0:0:
256,192,34990,1,0,0:0:0:0:
402,192,35162,1,4,0:0:0:0:
475,192,35162,1,2,0:0:0:0:
329,192,35504,1,2,0:0:0:0:
402,192,35504,1,4,0:0:0:0:
256,192,35590,1,0,0:0:0:0:
182,192,35676,1,8,0:0:0:0:
36,192,35847,1,2,0:0:0:0:
109,192,35847,1,4,0:0:0:0:
329,192,35847,1,0,0:0:0:0:
256,192,36019,1,0,0:0:0:0:
475,192,36019,128,0,36362:0:0:0:0:
402,192,36190,128,0,36362:0:0:0:0:
36,192,36362,1,0,0:0:0:0:
329,192,36533,1,0,0:0:0:0:
256,192,36619,1,0,0:0:0:0:
109,192,36704,1,8,0:0:0:0:
182,192,36704,1,0,0:0:0:0:
329,192,36876,1,0,0:0:0:0:
256,192,36962,1,0,0:0:0:0:
475,192,37047,128,0,37390:0:0:0:0:
36,192,37390,1,2,0:0:0:0:
109,192,37390,1,0,0:0:0:0:
256,192,37562,1,0,0:0:0:0:
329,192,37647,1,0,0:0:0:0:
402,192,37733,1,0,0:0:0:0:
182,192,37904,128,0,38076:0:0:0:0:
36,192,38076,1,8,0:0:0:0:
109,192,38076,1,0,0:0:0:0:
256,192,38247,1,2,0:0:0:0:
402,192,38419,1,0,0:0:0:0:
329,192,38590,1,0,0:0:0:0:
256,192,38676,1,0,0:0:0:0:
36,192,38762,128,2,39104:0:0:0:0:
182,192,38762,1,0,0:0:0:0:
109,192,38933,128,0,39104:0:0:0:0:
402,192,39104,1,0,0:0:0:0:
329,192,39276,1,0,0:0:0:0:
256,192,39362,1,0,0:0:0:0:
109,192,39447,1,8,0:0:0:0:
182,192,39447,1,0,0:0:0:0:
402,192,39619,1,0,0:0:0:0:
109,192,39790,1,0,0:0:0:0:
182,192,39876,1,0,0:0:0:0:
256,192,39962,1,0,0:0:0:0:
329,192,40047,1,0,0:0:0:0:
36,192,40133,128,2,40476:0:0:0:0:
475,192,40133,1,0,0:0:0:0:
109,192,40304,128,0,40476:0:0:0:0:
182,192,40476,1,0,0:0:0:0:
256,192,40562,1,0,0:0:0:0:
329,192,40647,1,0,0:0:0:0:
402,192,40733,1,0,0:0:0:0:
36,192,40819,1,8,0:0:0:0:
182,192,40819,1,0,0:0:0:0:
329,192,40990,1,2,0:0:0:0:
475,192,40990,1,0,0:0:0:0:
36,192,41162,1,8,0:0:0:0:
182,192,41162,1,0,0:0:0:0:
256,192,41333,1,4,0:0:0:0:
329,192,41333,1,2,0:0:0:0:
475,192,41333,128,0,41847:0:0:0:0:
402,192,41504,128,0,41847:0:0:0:0:
36,192,41847,1,0,0:0:0:0:
109,192,41847,1,0,0:0:0:0:
182,192,41933,1,0,0:0:0:0:
256,192,42019,1,0,0:0:0:0:
329,192,42104,1,0,0:0:0:0:
109,192,42190,1,8,0:0:0:0:
475,192,42190,128,0,42533:0:0:0:0:
402,192,42362,128,0,42533:0:0:0:0:
36,192,42533,128,0,42876:0:0:0:0:
329,192,42704,1,0,0:0:0:0:
402,192,42790,1,0,0:0:0:0:
256,192,42876,1,2,0:0:0:0:
475,192,42876,1,0,0:0:0:0:
109,192,43047,1,0,0:0:0:0:
182,192,43133,1,0,0:0:0:0:
329,192,43219,1,0,0:0:0:0:
402,192,43219,128,0,43562:0:0:0:0:
36,192,43562,1,8,0:0:0:0:
109,192,43562,1,0,0:0:0:0:
182,192,43733,1,2,0:0:0:0:
256,192,43733,1,0,0:0:0:0:
475,192,43904,1,0,0:0:0:0:
329,192,44076,1,0,0:0:0:0:
36,192,44247,1,2,0:0:0:0:
109,192,44247,1,0,0:0:0:0:
256,192,44590,1,0,0:0:0:0:
475,192,44590,1,0,0:0:0:0:
329,192,44762,1,0,0:0:0:0:
182,192,44933,1,8,0:0:0:0:
402,192,44933,1,0,0:0:0:0:
256,192,45104,1,0,0:0:0:0:
36,192,45276,1,8,0:0:0:0:
109,192,45276,1,0,0:0:0:0:
402,192,45447,1,2,0:0:0:0:
475,192,45447,1,0,0:0:0:0:
182,192,45619,1,2,0:0:0:0:
256,192,45619,1,0,0:0:0:0:
402,192,45962,1,0,0:0:0:0:
475,192,45962,1,0,0:0:0:0:
36,192,46304,1,0,0:0:0:0:
109,192,46304,1,0,0:0:0:0:
256,192,46476,1,2,0:0:0:0:
402,192,46647,1,8,0:0:0:0:
475,192,46647,1,0,0:0:0:0:
36,192,46733,1,8,0:0:0:0:
109,192,46819,1,8,0:0:0:0:
182,192,46904,1,8,0:0:0:0:
329,192,46990,1,4,0:0:0:0:
402,192,46990,1,2,0:0:0:0:
475,192,46990,128,0,47162:0:0:0:100:PF1_5D.wav
109,192,48190,1,0,0:0:0:100:PF1_4G.wav
182,192,48190,1,0,0:0:0:0:
402,192,49562,1,0,0:0:0:100:PF1_5G.wav
475,192,49562,1,0,0:0:0:0:
256,192,50933,1,0,0:0:0:100:PF1_5C.wav
329,192,50933,1,0,0:0:0:0:
402,192,52304,1,0,0:0:0:100:PF16_5F.wav
329,192,52390,1,0,0:0:0:100:PF16_5Eb.wav
182,192,52476,1,0,0:0:0:100:PF1_5D.wav
256,192,52476,1,0,0:0:0:0:
36,192,53676,1,0,0:0:0:100:PF1_4G.wav
109,192,53676,1,0,0:0:0:0:
402,192,55047,1,0,0:0:0:100:PF1_5G.wav
475,192,55047,1,0,0:0:0:0:
182,192,56419,1,0,0:0:0:100:PF1_5C.wav
256,192,56419,1,0,0:0:0:0:
36,192,57619,128,0,57962:0:0:0:0:
256,192,57962,1,2,0:0:0:0:
402,192,57962,1,0,0:0:0:0:
475,192,57962,1,0,0:0:0:0:
329,192,58476,1,0,0:0:0:0:
109,192,58647,1,8,0:0:0:0:
182,192,58647,1,0,0:0:0:0:
256,192,58819,1,0,0:0:0:0:
109,192,59162,1,0,0:0:0:0:
402,192,59333,1,2,0:0:0:0:
475,192,59333,1,0,0:0:0:0:
329,192,59504,1,0,0:0:0:0:
256,192,59676,1,0,0:0:0:0:
182,192,59847,1,0,0:0:0:0:
36,192,60019,1,8,0:0:0:0:
109,192,60019,1,0,0:0:0:0:
256,192,60190,1,2,0:0:0:0:
182,192,60362,1,0,0:0:0:0:
329,192,60533,1,0,0:0:0:0:
402,192,60704,1,2,0:0:0:0:
475,192,60704,1,0,0:0:0:0:
36,192,61390,1,8,0:0:0:0:
109,192,61390,1,0,0:0:0:0:
182,192,61562,1,0,0:0:0:0:
256,192,61733,1,0,0:0:0:0:
329,192,61904,1,0,0:0:0:0:
402,192,62076,1,2,0:0:0:0:
475,192,62076,1,0,0:0:0:0:
256,192,62590,1,0,0:0:0:0:
36,192,62762,1,8,0:0:0:0:
109,192,62762,1,0,0:0:0:0:
402,192,62933,1,2,0:0:0:0:
475,192,62933,1,0,0:0:0:0:
182,192,63276,1,0,0:0:0:0:
329,192,63362,1,0,0:0:0:0:
402,192,63447,1,2,0:0:0:0:
475,192,63447,1,0,0:0:0:0:
36,192,63790,1,2,0:0:0:0:
109,192,63790,1,0,0:0:0:0:
182,192,64133,1,2,0:0:0:0:
256,192,64133,1,0,0:0:0:0:
329,192,64476,1,2,0:0:0:0:
402,192,64476,1,0,0:0:0:0:
256,192,64647,1,0,0:0:0:0:
36,192,64819,1,2,0:0:0:0:
109,192,64819,1,0,0:0:0:0:
182,192,64990,1,2,0:0:0:0:
402,192,65162,1,2,0:0:0:0:
475,192,65162,1,0,0:0:0:0:
329,192,65333,1,2,0:0:0:0:
36,192,65504,1,2,0:0:0:0:
109,192,65504,1,0,0:0:0:0:
182,192,65676,1,2,0:0:0:0:
402,192,65847,1,2,0:0:0:0:
475,192,65847,1,0,0:0:0:0:
329,192,66019,1,2,0:0:0:0:
36,192,66190,1,2,0:0:0:0:
475,192,66190,1,0,0:0:0:0:
109,192,66276,1,2,0:0:0:0:
182,192,66362,1,2,0:0:0:0:
256,192,66447,1,2,0:0:0:0:
475,192,66533,1,2,0:0:0:0:
402,192,66619,1,2,0:0:0:0:
329,192,66704,1,2,0:0:0:0:
256,192,66790,1,2,0:0:0:0:
36,192,66876,1,2,0:0:0:0:
109,192,66962,1,2,0:0:0:0:
182,192,67047,1,2,0:0:0:0:
256,192,67133,1,2,0:0:0:0:
36,192,67219,1,8,0:0:0:0:
475,192,67219,1,0,0:0:0:0:
182,192,67304,1,8,0:0:0:0:
329,192,67390,1,8,0:0:0:0:
475,192,67476,1,8,0:0:0:0:
109,192,67562,1,4,0:0:0:0:
256,192,67562,1,2,0:0:0:0:
256,192,67733,1,0,0:0:0:100:FillD_02.wav
36,192,67904,1,0,0:0:0:100:FillD_02.wav
109,192,67990,1,0,0:0:0:100:FillD_02.wav
182,192,68076,1,0,0:0:0:100:FillD_02.wav
475,192,68247,1,0,0:0:0:100:FillD_02.wav
402,192,68333,1,0,0:0:0:100:FillD_02.wav
182,192,68419,1,2,0:0:0:0:
329,192,68419,1,0,0:0:0:0:
36,192,68590,1,8,0:0:0:0:
475,192,68590,1,0,0:0:0:0:
109,192,68676,1,0,0:0:0:0:
182,192,68762,1,0,0:0:0:0:
256,192,68847,1,0,0:0:0:0:
329,192,68933,1,2,0:0:0:0:
402,192,68933,1,4,0:0:0:0:
475,192,68933,128,0,69447:0:0:0:0:
36,192,69276,1,8,0:0:0:0:
109,192,69276,1,0,0:0:0:0:
256,192,69619,1,0,0:0:0:0:
402,192,69790,1,2,0:0:0:0:
475,192,69790,1,0,0:0:0:0:
256,192,69962,1,8,0:0:0:0:
329,192,69962,1,0,0:0:0:0:
36,192,70133,128,0,70304:0:0:0:0:
109,192,70304,1,2,0:0:0:0:
182,192,70304,1,0,0:0:0:0:
475,192,70476,1,0,0:0:0:0:
402,192,70562,1,0,0:0:0:0:
109,192,70647,1,8,0:0:0:0:
182,192,70733,1,0,0:0:0:0:
256,192,70819,1,0,0:0:0:0:
329,192,70904,1,0,0:0:0:0:
402,192,70990,1,0,0:0:0:0:
329,192,71076,1,0,0:0:0:0:
256,192,71162,1,2,0:0:0:0:
182,192,71247,1,0,0:0:0:0:
109,192,71333,1,8,0:0:0:0:
256,192,71419,1,0,0:0:0:0:
36,192,71504,128,0,71676:0:0:0:0:
402,192,71676,1,2,0:0:0:0:
475,192,71676,1,0,0:0:0:0:
256,192,71847,1,0,0:0:0:0:
36,192,72019,1,8,0:0:0:0:
109,192,72019,1,0,0:0:0:0:
182,192,72190,1,0,0:0:0:0:
256,192,72276,1,0,0:0:0:0:
329,192,72362,1,0,0:0:0:0:
109,192,72533,1,2,0:0:0:0:
182,192,72533,1,0,0:0:0:0:
402,192,72704,1,8,0:0:0:0:
475,192,72704,1,0,0:0:0:0:
329,192,72876,128,0,73047:0:0:0:0:
36,192,73047,1,2,0:0:0:0:
109,192,73047,1,0,0:0:0:0:
256,192,73219,1,0,0:0:0:0:
329,192,73304,1,0,0:0:0:0:
402,192,73390,1,8,0:0:0:0:
329,192,73476,1,0,0:0:0:0:
256,192,73562,1,0,0:0:0:0:
182,192,73647,1,0,0:0:0:0:
109,192,73733,1,0,0:0:0:0:
182,192,73819,1,0,0:0:0:0:
256,192,73904,1,2,0:0:0:0:
329,192,73990,1,0,0:0:0:0:
36,192,74076,1,8,0:0:0:0:
109,192,74162,1,0,0:0:0:0:
182,192,74247,1,0,0:0:0:0:
256,192,74333,1,0,0:0:0:0:
402,192,74419,1,2,0:0:0:0:
475,192,74419,128,0,74933:0:0:0:0:
329,192,74762,1,8,0:0:0:0:
402,192,74762,1,0,0:0:0:0:
182,192,75104,1,0,0:0:0:0:
36,192,75276,1,2,0:0:0:0:
109,192,75276,1,0,0:0:0:0:
402,192,75447,1,8,0:0:0:0:
475,192,75447,1,0,0:0:0:0:
36,192,75619,128,0,75790:0:0:0:0:
109,192,75790,1,2,0:0:0:0:
182,192,75790,1,0,0:0:0:0:
402,192,76133,1,8,0:0:0:0:
475,192,76133,1,0,0:0:0:0:
256,192,76304,1,0,0:0:0:0:
109,192,76476,1,0,0:0:0:0:
182,192,76647,1,2,0:0:0:0:
329,192,76647,1,0,0:0:0:0:
36,192,76819,1,8,0:0:0:0:
475,192,76819,1,0,0:0:0:0:
402,192,76990,128,0,77162:0:0:0:0:
109,192,77162,1,2,0:0:0:0:
182,192,77162,1,0,0:0:0:0:
329,192,77504,1,8,0:0:0:0:
402,192,77504,1,0,0:0:0:0:
182,192,77676,1,0,0:0:0:0:
109,192,77847,1,0,0:0:0:0:
402,192,78019,1,2,0:0:0:0:
475,192,78019,1,0,0:0:0:0:
36,192,78190,1,8,0:0:0:0:
109,192,78190,1,0,0:0:0:0:
256,192,78362,128,0,78533:0:0:0:0:
402,192,78533,1,2,0:0:0:0:
475,192,78533,1,0,0:0:0:0:
329,192,78704,1,0,0:0:0:0:
36,192,78876,1,8,0:0:0:0:
109,192,78876,1,0,0:0:0:0:
256,192,79047,1,0,0:0:0:0:
402,192,79219,1,0,0:0:0:0:
475,192,79219,1,0,0:0:0:0:
109,192,79390,1,2,0:0:0:0:
182,192,79476,1,2,0:0:0:0:
402,192,79562,1,8,0:0:0:0:
329,192,79647,1,8,0:0:0:0:
256,192,79733,1,8,0:0:0:0:
182,192,79819,1,8,0:0:0:0:
36,192,79904,1,2,0:0:0:0:
109,192,79904,1,4,0:0:0:0:
475,192,79904,128,0,80076:0:0:0:0:
402,192,80076,1,0,0:0:0:0:
109,192,80247,1,8,0:0:0:0:
182,192,80247,1,0,0:0:0:0:
256,192,80419,1,0,0:0:0:0:
329,192,80504,1,0,0:0:0:0:
402,192,80590,1,0,0:0:0:0:
36,192,80762,1,2,0:0:0:0:
109,192,80762,1,0,0:0:0:0:
182,192,80847,1,0,0:0:0:0:
329,192,80933,1,8,0:0:0:0:
402,192,80933,1,0,0:0:0:0:
475,192,81104,128,0,81276:0:0:0:0:
109,192,81276,1,2,0:0:0:0:
182,192,81276,1,0,0:0:0:0:
329,192,81447,1,0,0:0:0:0:
256,192,81619,1,8,0:0:0:0:
402,192,81619,1,0,0:0:0:0:
36,192,81790,1,0,0:0:0:0:
109,192,81876,1,0,0:0:0:0:
182,192,81962,1,0,0:0:0:0:
256,192,82047,1,0,0:0:0:0:
402,192,82133,1,2,0:0:0:0:
329,192,82219,1,0,0:0:0:0:
109,192,82304,1,8,0:0:0:0:
182,192,82390,1,0,0:0:0:0:
256,192,82476,128,0,82647:0:0:0:0:
36,192,82647,1,2,0:0:0:0:
475,192,82647,1,0,0:0:0:0:
329,192,82990,1,8,0:0:0:0:
402,192,82990,1,0,0:0:0:0:
182,192,83333,1,0,0:0:0:0:
36,192,83504,1,2,0:0:0:0:
109,192,83504,1,0,0:0:0:0:
402,192,83676,1,8,0:0:0:0:
475,192,83676,1,0,0:0:0:0:
109,192,83847,128,0,84019:0:0:0:0:
329,192,84019,1,2,0:0:0:0:
402,192,84019,1,0,0:0:0:0:
256,192,84190,1,0,0:0:0:0:
36,192,84276,1,0,0:0:0:0:
182,192,84362,1,8,0:0:0:0:
329,192,84447,1,0,0:0:0:0:
109,192,84533,1,0,0:0:0:0:
256,192,84619,1,0,0:0:0:0:
402,192,84704,1,0,0:0:0:0:
182,192,84790,1,0,0:0:0:0:
329,192,84876,1,2,0:0:0:0:
475,192,84962,1,0,0:0:0:0:
402,192,85047,1,8,0:0:0:0:
329,192,85133,1,0,0:0:0:0:
256,192,85219,1,0,0:0:0:0:
182,192,85304,1,0,0:0:0:0:
36,192,85390,1,2,0:0:0:0:
109,192,85390,128,0,85562:0:0:0:0:
182,192,85733,1,8,0:0:0:0:
329,192,85733,1,0,0:0:0:0:
475,192,85904,1,0,0:0:0:0:
329,192,86076,1,0,0:0:0:0:
36,192,86247,1,2,0:0:0:0:
109,192,86247,1,0,0:0:0:0:
402,192,86419,1,8,0:0:0:0:
475,192,86419,1,0,0:0:0:0:
36,192,86590,128,0,86762:0:0:0:0:
109,192,86762,1,2,0:0:0:0:
182,192,86762,1,0,0:0:0:0:
402,192,87104,1,8,0:0:0:0:
475,192,87104,1,0,0:0:0:0:
256,192,87276,1,0,0:0:0:0:
182,192,87447,1,0,0:0:0:0:
36,192,87619,1,2,0:0:0:0:
109,192,87619,1,0,0:0:0:0:
329,192,87790,1,8,0:0:0:0:
402,192,87790,1,0,0:0:0:0:
475,192,87962,128,0,88133:0:0:0:0:
36,192,88133,1,2,0:0:0:0:
256,192,88133,1,0,0:0:0:0:
109,192,88304,1,2,0:0:0:0:
329,192,88304,1,0,0:0:0:0:
182,192,88476,1,8,0:0:0:0:
402,192,88476,1,0,0:0:0:0:
256,192,88647,1,2,0:0:0:0:
475,192,88647,1,0,0:0:0:0:
109,192,88819,1,0,0:0:0:0:
182,192,88990,1,2,0:0:0:0:
36,192,89076,1,2,0:0:0:0:
256,192,89162,1,8,0:0:0:0:
475,192,89247,1,8,0:0:0:0:
329,192,89333,1,8,0:0:0:0:
182,192,89419,1,8,0:0:0:0:
36,192,89504,1,4,0:0:0:0:
402,192,89504,1,2,0:0:0:0:
475,192,89504,1,0,0:0:0:0:
36,192,89676,1,0,0:0:0:100:FillD_02.wav
109,192,89847,1,0,0:0:0:100:FillD_02.wav
256,192,89933,1,0,0:0:0:100:FillD_02.wav
402,192,90019,1,0,0:0:0:100:FillD_02.wav
402,192,90190,1,0,0:0:0:100:FillD_02.wav
256,192,90276,1,0,0:0:0:100:FillD_02.wav
109,192,90362,1,2,0:0:0:0:
475,192,90362,1,0,0:0:0:0:
36,192,90533,1,8,0:0:0:0:
475,192,90533,1,0,0:0:0:0:
109,192,90619,1,0,0:0:0:0:
182,192,90704,1,0,0:0:0:0:
256,192,90790,1,0,0:0:0:0:
329,192,90876,1,2,0:0:0:0:
402,192,90876,1,4,0:0:0:0:
475,192,90876,1,0,0:0:0:100:PFb_5Eb.wav
36,192,92076,1,0,0:0:0:100:PF1_4Ab.wav
109,192,92076,1,0,0:0:0:0:
402,192,93447,1,0,0:0:0:100:PF1_5Ab.wav
475,192,93447,1,0,0:0:0:0:
182,192,94819,1,0,0:0:0:100:PF1_5Db.wav
256,192,94819,1,0,0:0:0:0:
402,192,96190,1,0,0:0:0:100:PF16_5Gb.wav
329,192,96276,1,0,0:0:0:100:PF16_5E.wav
182,192,96362,1,0,0:0:0:100:PF1_5Eb.wav
256,192,96362,1,0,0:0:0:0:
109,192,96533,1,0,0:0:0:0:
36,192,96704,1,0,0:0:0:0:
182,192,96876,1,0,0:0:0:0:
329,192,97047,1,0,0:0:0:0:
402,192,97219,1,0,0:0:0:0:
475,192,97390,1,0,0:0:0:0:
36,192,97562,1,0,0:0:0:100:PF1_4Ab.wav
109,192,97562,1,0,0:0:0:0:
402,192,98933,1,0,0:0:0:100:PF1_5Ab.wav
475,192,98933,1,0,0:0:0:0:
109,192,100304,1,0,0:0:0:100:PF1_5Db.wav
182,192,100304,1,0,0:0:0:0:
36,192,101333,128,0,101847:0:0:0:0:
402,192,101847,1,0,0:0:0:100:PFb_5Eb.wav
475,192,101847,1,0,0:0:0:0:
329,192,102019,1,0,0:0:0:0:
256,192,102190,1,0,0:0:0:0:
182,192,102362,1,0,0:0:0:0:
475,192,102533,1,0,0:0:0:0:
402,192,102704,1,0,0:0:0:0:
329,192,102876,1,0,0:0:0:0:
36,192,103047,1,0,0:0:0:100:PF1_4Ab.wav
109,192,103047,1,0,0:0:0:0:
402,192,104419,1,0,0:0:0:100:PF1_5Ab.wav
475,192,104419,1,0,0:0:0:0:
182,192,105790,1,0,0:0:0:100:PF1_5Db.wav
256,192,105790,1,0,0:0:0:0:
329,192,107162,1,0,0:0:0:100:PF16_5Gb.wav
256,192,107247,1,0,0:0:0:100:PF16_5E.wav
109,192,107333,1,0,0:0:0:100:PF1_5Eb.wav
182,192,107333,1,0,0:0:0:0:
329,192,107504,1,0,0:0:0:0:
402,192,107676,1,0,0:0:0:0:
475,192,107847,1,0,0:0:0:0:
36,192,108019,1,0,0:0:0:0:
109,192,108190,1,0,0:0:0:0:
182,192,108362,1,0,0:0:0:0:
256,192,108533,1,0,0:0:0:100:PFb_5Gb.wav
329,192,108533,1,0,0:0:0:0:
329,192,109904,1,0,0:0:0:100:PFb_5Ab.wav
402,192,109904,1,0,0:0:0:0:
402,192,111276,1,0,0:0:0:100:PFb_6Db.wav
475,192,111276,1,0,0:0:0:0:
256,192,112476,1,0,0:0:0:100:PF16_4Db.wav
329,192,112562,1,0,0:0:0:100:PF16_4Ab.wav
402,192,112647,1,0,0:0:0:100:PF16_4B.wav
475,192,112733,1,0,0:0:0:100:PFb_5Db.wav
36,192,112819,1,0,0:0:0:100:FxKick05.wav
109,192,112819,1,0,0:0:0:0:
182,192,112819,1,0,0:0:0:0:
