osu file format v14

[General]
AudioFilename: Street - Sakura Fubuki.mp3
AudioLeadIn: 2000
PreviewTime: 68405
Countdown: 0
SampleSet: Soft
StackLeniency: 0.3
Mode: 0
LetterboxInBreaks: 0
EpilepsyWarning: 1
WidescreenStoryboard: 0

[Editor]
Bookmarks: 11148,24691,35662,46805,52291,57777,68748,79719,90691,101662,112634
DistanceSpacing: 1.2
BeatDivisor: 4
GridSize: 4
TimelineZoom: 1.1

[Metadata]
Title:Sakura Fubuki
TitleUnicode:Sakura Fubuki
Artist:Street
ArtistUnicode:Street
Creator:Cherry Blossom
Version:Beginner
Source:BMS
Tags:桜吹雪 bofu2015 of fighter ultimate drumstep
BeatmapID:869482
BeatmapSetID:362989

[Difficulty]
HPDrainRate:2
CircleSize:3
OverallDifficulty:2
ApproachRate:3.5
SliderMultiplier:0.7
SliderTickRate:1

[Events]
//Background and Video events
0,0,"sakura.jpg",0,0
Video,-212,"Sakura Fubuki.avi"
//Break Periods
2,47005,50911
//Storyboard Layer 0 (Background)
//Storyboard Layer 1 (Fail)
//Storyboard Layer 2 (Pass)
//Storyboard Layer 3 (Foreground)
//Storyboard Sound Samples

[TimingPoints]
177,342.857142857143,4,2,1,40,1,0
11148,-100,4,2,1,50,0,0
16634,-100,4,2,2,50,0,0
18005,-100,4,2,2,60,0,0
19377,-100,4,2,97,60,0,0
20405,-100,4,2,2,60,0,0
21777,-100,4,2,3,60,0,0
22119,-100,4,2,2,60,0,0
28634,-100,4,2,1,60,0,0
28977,-100,4,2,2,60,0,0
33091,-100,4,2,3,60,0,0
33777,-100,4,2,2,60,0,0
39605,-100,4,2,1,60,0,0
39948,-100,4,2,2,60,0,0
52291,-100,4,2,1,40,0,0
57777,-100,4,2,3,50,0,0
64634,-100,4,2,2,60,0,0
66005,-100,4,2,97,60,0,0
68405,-100,4,2,1,60,0,0
68748,-100,4,2,2,80,0,1
68834,-100,4,2,3,80,0,1
79719,-100,4,2,2,80,0,1
79805,-100,4,2,3,80,0,1
89319,-100,4,2,2,80,0,1
90348,-100,4,2,3,80,0,1
90691,-100,4,2,2,80,0,0
90777,-100,4,2,1,40,0,0
111177,-100,4,2,2,40,0,0

[Colours]
Combo1 : 184,64,255
Combo2 : 240,169,98
Combo3 : 255,138,193
Combo4 : 95,95,95
Combo5 : 230,230,230

[HitObjects]
196,192,177,54,0,P|255:91|316:192,1,280,6|0,0:0|0:0,0:0:0:0:
308,328,2234,2,0,P|256:340|204:324,1,105,2|2,0:0|0:0,0:0:0:0:
256,192,2919,12,2,5662,0:0:0:0:
204,56,7719,54,0,P|256:44|308:60,1,105,2|2,0:0|0:0,0:0:0:0:
256,192,8405,12,2,11148,0:0:0:0:
372,196,12519,6,0,L|368:280,1,70,2|2,0:0|0:0,0:0:0:0:
308,324,13205,2,0,P|256:336|204:324,1,105,2|2,0:0|0:0,0:0:0:0:
208,60,15091,54,0,P|256:48|309:61,1,105,2|2,0:0|0:0,0:0:0:0:
420,288,16634,6,0,P|376:344|312:344,1,140,2|2,0:0|0:0,0:0:0:0:
256,280,17662,1,2,0:0:0:0:
200,343,18005,2,0,P|132:342|92:288,1,140,2|2,0:0|0:0,0:0:0:0:
153,131,19377,54,0,B|212:116|256:143|256:143|296:116|356:132,1,210,8|8,0:0|0:0,0:0:0:0:
428,176,20748,2,0,P|464:168|512:172,2,70,4|8|8,0:0|0:0|0:0,0:0:0:0:
396,252,21777,1,2,0:0:0:0:
356,324,22119,6,0,P|256:360|160:176,1,350,6|6,0:0|0:0,0:0:0:0:
204,108,24177,2,0,L|308:104,1,105,2|6,0:0|0:0,0:0:0:0:
452,256,25548,6,0,L|372:252,1,70,8|0,0:0|0:0,0:0:0:0:
300,272,26234,2,0,L|300:348,1,70,2|0,0:0|0:0,0:0:0:0:
212,342,26919,2,0,L|212:272,1,70,8|0,0:0|0:0,0:0:0:0:
129,252,27605,54,0,L|-16:256,1,140,2|8,0:0|0:0,0:0:0:0:
8,88,28977,2,0,L|92:84,1,70,2|0,0:0|0:0,0:0:0:0:
156,112,29662,2,0,L|148:228,1,105,8|6,0:0|0:0,0:0:0:0:
363,216,31034,6,0,L|356:136,1,70,8|0,0:0|0:0,0:0:0:0:
352,64,31719,2,0,P|420:48|492:64,1,140,2|8,0:0|0:0,0:0:0:0:
460,228,33091,2,0,P|428:236|392:228,1,70,6|2,0:0|0:0,0:0:0:0:
308,216,33777,2,0,L|316:328,1,105,8|6,0:0|0:0,0:0:0:0:
152,356,34977,53,6,0:0:0:0:
68,344,35319,1,6,0:0:0:0:
28,268,35662,2,0,L|32:84,1,175,6|8,0:0|0:0,0:0:0:0:
188,36,37205,2,0,P|256:20|324:36,1,140,2|8,0:0|0:0,0:0:0:0:
480,93,38577,6,0,L|484:244,1,140,2|8,0:0|0:0,0:0:0:0:
432,300,39605,1,2,0:0:0:0:
376,236,39948,2,0,P|340:228|304:236,1,70,2|0,0:0|0:0,0:0:0:0:
256,300,40634,2,0,L|144:296,1,105,8|6,0:0|0:0,0:0:0:0:
80,100,42005,54,0,P|112:88|148:84,1,70,8|0,0:0|0:0,0:0:0:0:
212,140,42691,2,0,L|213:224,1,70,2|0,0:0|0:0,0:0:0:0:
298,210,43377,2,0,L|299:140,1,70,8|0,0:0|0:0,0:0:0:0:
364,88,44062,6,0,P|436:80|492:128,1,140,2|8,0:0|0:0,0:0:0:0:
500,204,45091,1,8,0:0:0:0:
464,280,45434,2,0,P|332:312|256:204,1,280,2|6,0:0|0:0,0:0:0:0:
208,232,52291,38,0,P|255:320|300:228,1,245,2|2,0:0|0:0,0:0:0:0:
256,192,53662,12,0,57777,0:0:0:0:
160,80,59148,54,0,P|256:44|356:80,1,210,4|0,0:0|0:0,0:0:0:0:
412,136,60519,54,0,L|408:280,1,140,4|8,0:0|0:0,0:0:0:0:
256,348,61891,1,4,0:0:0:0:
103,275,62577,2,0,L|100:196,1,70,8|0,0:0|0:0,0:0:0:0:
96,124,63262,6,0,P|140:72|216:64,1,140,4|4,0:0|0:0,0:0:0:0:
256,132,64291,1,4,0:0:0:0:
303,61,64634,2,0,P|371:71|416:124,1,140,2|2,0:0|0:0,0:0:0:0:
432,208,65662,1,2,0:0:0:0:
452,288,66005,54,0,B|320:348|256:204|256:204|192:348|60:288,1,490,8|2,0:0|0:0,0:0:0:0:
0,224,68748,5,6,0:0:0:0:
44,152,69091,2,0,L|184:144,1,140,8|10,0:0|0:0,0:0:0:0:
256,100,70119,1,4,0:0:0:0:
328,144,70462,2,0,L|468:152,1,140,10|10,0:0|0:0,0:0:0:0:
512,224,71491,53,6,0:0:0:0:
444,272,71834,2,0,L|304:260,1,140,8|10,0:0|0:0,0:0:0:0:
256,192,72862,1,4,0:0:0:0:
200,128,73205,2,0,L|52:116,1,140,10|10,0:0|0:0,0:0:0:0:
4,180,74234,6,0,L|8:256,1,70,4|8,0:0|0:0,0:0:0:0:
56,316,74919,2,0,L|128:312,1,70,0|10,0:0|0:0,0:0:0:0:
192,256,75605,1,4,0:0:0:0:
256,316,75948,2,0,L|328:312,1,70,8|0,0:0|0:0,0:0:0:0:
408,336,76634,1,8,0:0:0:0:
468,280,76977,54,0,L|472:132,1,140,4|0,0:0|0:0,0:0:0:0:
472,56,78005,1,8,0:0:0:0:
400,96,78348,2,0,P|368:104|328:96,1,70,4|10,0:0|0:0,0:0:0:0:
256,60,79034,1,2,0:0:0:0:
180,100,79377,1,8,0:0:0:0:
124,36,79719,6,0,P|88:28|52:36,1,70,6|10,0:0|0:0,0:0:0:0:
0,96,80405,2,0,L|4:172,1,70,2|10,0:0|0:0,0:0:0:0:
16,248,81091,1,4,0:0:0:0:
80,196,81434,2,0,P|148:176|216:196,1,140,8|10,0:0|0:0,0:0:0:0:
256,268,82462,53,4,0:0:0:0:
299,194,82805,2,0,P|365:176|432:196,1,140,8|10,0:0|0:0,0:0:0:0:
476,268,83834,1,4,0:0:0:0:
432,340,84177,2,0,P|365:358|299:338,1,140,10|10,0:0|0:0,0:0:0:0:
256,268,85205,5,4,0:0:0:0:
256,184,85548,2,0,B|232:116|272:116|256:44,1,140,8|10,0:0|0:0,0:0:0:0:
176,24,86577,2,0,P|108:8|40:24,1,140,4|0,0:0|0:0,0:0:0:0:
0,96,87605,1,8,0:0:0:0:
44,168,87948,54,0,L|116:164,1,70,4|8,0:0|0:0,0:0:0:0:
188,200,88634,2,0,L|192:280,1,70,2|8,0:0|0:0,0:0:0:0:
256,324,89319,1,6,0:0:0:0:
320,269,89662,2,0,L|324:200,1,70,8|0,0:0|0:0,0:0:0:0:
398,164,90348,2,0,L|468:168,1,70,10|6,0:0|0:0,0:0:0:0:
256,192,90862,12,2,96177,0:0:0:0:
176,256,97377,22,0,P|256:352|332:256,2,280,2|2|2,0:0|0:0|0:0,0:0:0:0:
293,125,101662,6,0,B|309:57|255:16|255:16|201:57|217:125,1,245,2|2,0:0|0:0,0:0:0:0:
294,231,104234,6,0,B|309:297|256:360|256:360|201:297|217:229,1,280,2|2,0:0|0:0,0:0:0:0:
256,192,107148,12,2,112634,0:0:0:0:
