osu file format v14

[General]
AudioFilename: audio.mp3
AudioLeadIn: 0
PreviewTime: 8163
Countdown: 0
SampleSet: Normal
StackLeniency: 0.7
Mode: 1
LetterboxInBreaks: 0
WidescreenStoryboard: 0

[Editor]
Bookmarks: 663,8163,14163,20163,26163,32163,38163,44163,50163,56163,62163,68163,74163,80163,91663,92163,104163,110163,116163,122163,128163,134163,140163
DistanceSpacing: 0.6
BeatDivisor: 4
GridSize: 32
TimelineZoom: 1.6

[Metadata]
Title:Reincarnation
TitleUnicode:Μετενσάρκωση
Artist:Street
ArtistUnicode:Street
Creator:eiri-
Version:Oni
Source:
Tags:Ayyri Featured Artist FA Skull Kid Skid Electronic Instrumental Rock Cinematic
BeatmapID:2657266
BeatmapSetID:1279224

[Difficulty]
HPDrainRate:6
CircleSize:2
OverallDifficulty:5.5
ApproachRate:10
SliderMultiplier:1.4
SliderTickRate:1

[Events]
//Background and Video events
0,0,"Reincarnation.jpg",0,-75
//Break Periods
//Storyboard Layer 0 (Background)
//Storyboard Layer 1 (Fail)
//Storyboard Layer 2 (Pass)
//Storyboard Layer 3 (Foreground)
//Storyboard Layer 4 (Overlay)
//Storyboard Sound Samples

[TimingPoints]
663,500,3,1,1,15,1,0
2100,-100,3,1,1,17,0,0
3600,-100,3,1,1,20,0,0
5100,-100,3,1,1,23,0,0
6600,-100,3,1,1,25,0,0
8100,-100,3,1,1,80,0,0
9600,-100,3,1,1,40,0,0
20100,-100,3,1,1,50,0,0
44100,-100,3,1,1,60,0,0
50100,-100,3,1,1,70,0,0
56475,-100,3,1,1,50,0,0
68100,-100,3,1,1,60,0,0
71100,-100,3,1,1,65,0,0
74100,-100,3,1,1,70,0,0
77100,-100,3,1,1,75,0,0
80163,-100,3,1,1,80,0,1
91663,-100,3,1,1,80,0,0
92163,-100,3,1,1,80,0,1
104163,-100,3,1,1,80,0,0
104350,-100,3,1,1,60,0,0
105600,-100,3,1,1,80,0,0
106100,-100,3,1,1,60,0,0
107100,-100,3,1,1,80,0,0
107350,-100,3,1,1,60,0,0
108600,-100,3,1,1,80,0,0
109100,-100,3,1,1,60,0,0
110100,-100,3,1,1,80,0,0
110350,-100,3,1,1,60,0,0
111600,-100,3,1,1,80,0,0
112100,-100,3,1,1,60,0,0
113100,-100,3,1,1,80,0,0
113350,-100,3,1,1,60,0,0
114600,-100,3,1,1,80,0,0
115100,-100,3,1,1,60,0,0
116100,-100,3,1,1,80,0,0
116350,-100,3,1,1,40,0,0
128100,-100,3,1,1,80,0,0
128350,-100,3,1,1,25,0,0
129600,-100,3,1,1,23,0,0
131100,-100,3,1,1,20,0,0
132600,-100,3,1,1,17,0,0
134100,-100,3,1,1,15,0,0
135600,-100,3,1,1,13,0,0
137100,-100,3,1,1,10,0,0
138600,-100,3,1,1,7,0,0
140100,-100,3,1,1,5,0,0

[HitObjects]
256,192,663,8,0,7913,0:0:0:0:
256,192,8163,5,4,0:0:0:0:
256,192,9663,1,8,0:0:0:0:
256,192,10413,1,0,0:0:0:0:
256,192,11163,1,8,0:0:0:0:
256,192,12663,1,8,0:0:0:0:
256,192,14163,1,0,0:0:0:0:
256,192,15663,1,0,0:0:0:0:
256,192,16413,1,8,0:0:0:0:
256,192,16996,1,8,0:0:0:0:
256,192,17163,1,0,0:0:0:0:
256,192,18663,1,0,0:0:0:0:
256,192,19413,1,8,0:0:0:0:
256,192,20163,1,12,0:0:0:0:
256,192,20413,1,0,0:0:0:0:
256,192,20663,1,8,0:0:0:0:
256,192,20913,1,0,0:0:0:0:
256,192,21163,1,0,0:0:0:0:
256,192,21413,1,8,0:0:0:0:
256,192,21663,1,8,0:0:0:0:
256,192,22163,1,8,0:0:0:0:
256,192,22413,1,8,0:0:0:0:
256,192,22913,1,8,0:0:0:0:
256,192,23163,1,0,0:0:0:0:
256,192,23413,1,0,0:0:0:0:
256,192,23663,1,8,0:0:0:0:
256,192,23913,1,0,0:0:0:0:
256,192,24163,1,0,0:0:0:0:
256,192,24413,1,8,0:0:0:0:
256,192,24663,1,8,0:0:0:0:
256,192,25163,1,8,0:0:0:0:
256,192,25413,1,0,0:0:0:0:
256,192,25663,1,0,0:0:0:0:
256,192,25913,1,8,0:0:0:0:
256,192,26163,1,8,0:0:0:0:
256,192,26663,1,8,0:0:0:0:
256,192,26913,1,0,0:0:0:0:
256,192,27163,1,0,0:0:0:0:
256,192,27413,1,8,0:0:0:0:
256,192,27663,1,8,0:0:0:0:
256,192,28163,1,8,0:0:0:0:
256,192,28413,1,0,0:0:0:0:
256,192,28913,1,8,0:0:0:0:
256,192,29163,1,8,0:0:0:0:
256,192,29663,1,8,0:0:0:0:
256,192,29913,1,0,0:0:0:0:
256,192,30163,1,0,0:0:0:0:
256,192,30413,1,8,0:0:0:0:
256,192,30538,1,0,0:0:0:0:
256,192,30663,1,8,0:0:0:0:
256,192,30913,1,0,0:0:0:0:
256,192,31163,1,8,0:0:0:0:
256,192,31413,1,0,0:0:0:0:
256,192,31663,1,0,0:0:0:0:
256,192,31788,1,0,0:0:0:0:
256,192,31913,1,8,0:0:0:0:
256,192,32163,1,4,0:0:0:0:
256,192,32663,1,8,0:0:0:0:
256,192,32913,1,0,0:0:0:0:
256,192,33038,1,8,0:0:0:0:
256,192,33163,1,0,0:0:0:0:
256,192,33413,1,8,0:0:0:0:
256,192,33663,1,0,0:0:0:0:
256,192,33913,1,8,0:0:0:0:
256,192,34038,1,8,0:0:0:0:
256,192,34163,1,0,0:0:0:0:
256,192,34413,1,8,0:0:0:0:
256,192,34663,1,0,0:0:0:0:
256,192,34913,1,0,0:0:0:0:
256,192,35038,1,8,0:0:0:0:
256,192,35163,1,0,0:0:0:0:
256,192,35663,1,8,0:0:0:0:
256,192,35913,1,8,0:0:0:0:
256,192,36038,1,0,0:0:0:0:
256,192,36288,1,0,0:0:0:0:
256,192,36413,1,8,0:0:0:0:
256,192,36663,1,0,0:0:0:0:
256,192,36788,1,0,0:0:0:0:
256,192,36913,1,8,0:0:0:0:
256,192,37163,1,8,0:0:0:0:
256,192,37413,1,0,0:0:0:0:
256,192,37538,1,0,0:0:0:0:
256,192,37663,1,8,0:0:0:0:
256,192,37913,1,8,0:0:0:0:
256,192,38163,1,4,0:0:0:0:
256,192,38663,1,8,0:0:0:0:
256,192,38913,1,8,0:0:0:0:
256,192,39038,1,8,0:0:0:0:
256,192,39163,1,0,0:0:0:0:
256,192,39413,1,8,0:0:0:0:
256,192,39663,1,0,0:0:0:0:
256,192,39913,1,0,0:0:0:0:
256,192,40038,1,0,0:0:0:0:
256,192,40163,1,8,0:0:0:0:
256,192,40413,1,0,0:0:0:0:
256,192,40663,1,8,0:0:0:0:
256,192,40913,1,0,0:0:0:0:
256,192,41038,1,8,0:0:0:0:
256,192,41163,1,0,0:0:0:0:
256,192,41663,1,8,0:0:0:0:
256,192,41913,1,8,0:0:0:0:
256,192,42038,1,0,0:0:0:0:
256,192,42288,1,0,0:0:0:0:
256,192,42413,1,8,0:0:0:0:
256,192,42663,1,0,0:0:0:0:
256,192,42788,1,0,0:0:0:0:
256,192,42913,1,8,0:0:0:0:
256,192,43163,1,8,0:0:0:0:
256,192,43413,1,0,0:0:0:0:
256,192,43663,1,8,0:0:0:0:
256,192,43788,1,0,0:0:0:0:
256,192,43913,1,8,0:0:0:0:
256,192,44163,1,4,0:0:0:0:
256,192,44413,1,0,0:0:0:0:
256,192,44538,1,0,0:0:0:0:
256,192,44663,1,8,0:0:0:0:
256,192,44913,1,0,0:0:0:0:
256,192,45163,1,12,0:0:0:0:
256,192,45413,1,12,0:0:0:0:
256,192,45663,1,4,0:0:0:0:
256,192,45913,1,8,0:0:0:0:
256,192,46413,1,4,0:0:0:0:
256,192,46663,1,12,0:0:0:0:
256,192,47163,1,12,0:0:0:0:
256,192,47413,1,0,0:0:0:0:
256,192,47663,1,0,0:0:0:0:
256,192,47788,1,8,0:0:0:0:
256,192,47913,1,0,0:0:0:0:
256,192,48163,1,12,0:0:0:0:
256,192,48413,1,12,0:0:0:0:
256,192,48663,1,4,0:0:0:0:
256,192,48913,1,8,0:0:0:0:
256,192,49038,1,8,0:0:0:0:
256,192,49163,1,0,0:0:0:0:
256,192,49413,1,4,0:0:0:0:
256,192,49663,1,12,0:0:0:0:
256,192,50163,1,4,0:0:0:0:
256,192,50413,1,0,0:0:0:0:
256,192,50538,1,0,0:0:0:0:
256,192,50663,1,8,0:0:0:0:
256,192,50913,1,0,0:0:0:0:
256,192,51163,1,12,0:0:0:0:
256,192,51413,1,12,0:0:0:0:
256,192,51663,1,4,0:0:0:0:
256,192,51913,1,8,0:0:0:0:
256,192,52413,1,4,0:0:0:0:
256,192,52663,1,12,0:0:0:0:
256,192,53163,1,12,0:0:0:0:
256,192,53413,1,0,0:0:0:0:
256,192,53663,1,0,0:0:0:0:
256,192,53788,1,8,0:0:0:0:
256,192,53913,1,0,0:0:0:0:
256,192,54163,1,12,0:0:0:0:
256,192,54413,1,0,0:0:0:0:
256,192,54663,1,12,0:0:0:0:
256,192,54913,1,8,0:0:0:0:
256,192,55038,1,8,0:0:0:0:
256,192,55163,1,0,0:0:0:0:
256,192,55413,1,4,0:0:0:0:
256,192,55663,1,12,0:0:0:0:
256,192,55913,1,0,0:0:0:0:
256,192,56163,1,12,0:0:0:0:
256,192,56538,1,8,0:0:0:0:
256,192,56913,1,8,0:0:0:0:
256,192,57163,1,8,0:0:0:0:
256,192,57663,1,0,0:0:0:0:
256,192,58038,1,0,0:0:0:0:
256,192,58413,1,0,0:0:0:0:
256,192,58663,1,0,0:0:0:0:
256,192,59163,1,8,0:0:0:0:
256,192,59538,1,8,0:0:0:0:
256,192,59913,1,8,0:0:0:0:
256,192,60163,1,8,0:0:0:0:
256,192,60663,1,0,0:0:0:0:
256,192,61038,1,0,0:0:0:0:
256,192,61413,1,0,0:0:0:0:
256,192,61663,1,0,0:0:0:0:
256,192,62163,1,8,0:0:0:0:
256,192,62538,1,8,0:0:0:0:
256,192,62913,1,8,0:0:0:0:
256,192,63163,1,8,0:0:0:0:
256,192,63663,1,0,0:0:0:0:
256,192,64038,1,0,0:0:0:0:
256,192,64413,1,0,0:0:0:0:
256,192,64663,1,0,0:0:0:0:
256,192,65163,1,8,0:0:0:0:
256,192,65538,1,8,0:0:0:0:
256,192,65913,1,8,0:0:0:0:
256,192,66163,1,8,0:0:0:0:
256,192,66663,1,0,0:0:0:0:
256,192,67038,1,0,0:0:0:0:
256,192,67413,1,0,0:0:0:0:
256,192,67663,1,0,0:0:0:0:
256,192,67913,1,0,0:0:0:0:
256,192,68038,1,0,0:0:0:0:
256,192,68163,1,12,0:0:0:0:
256,192,68538,1,8,0:0:0:0:
256,192,68663,1,0,0:0:0:0:
256,192,68913,1,8,0:0:0:0:
256,192,69163,1,8,0:0:0:0:
256,192,69413,1,0,0:0:0:0:
256,192,69663,1,8,0:0:0:0:
256,192,70038,1,8,0:0:0:0:
256,192,70163,1,0,0:0:0:0:
256,192,70413,1,8,0:0:0:0:
256,192,70663,1,0,0:0:0:0:
256,192,71163,1,8,0:0:0:0:
256,192,71538,1,8,0:0:0:0:
256,192,71663,1,0,0:0:0:0:
256,192,71913,1,8,0:0:0:0:
256,192,72163,1,8,0:0:0:0:
256,192,72413,1,0,0:0:0:0:
256,192,72663,1,8,0:0:0:0:
256,192,73038,1,8,0:0:0:0:
256,192,73163,1,0,0:0:0:0:
256,192,73413,1,8,0:0:0:0:
256,192,73663,1,0,0:0:0:0:
256,192,73913,1,0,0:0:0:0:
256,192,74163,1,8,0:0:0:0:
256,192,74538,1,8,0:0:0:0:
256,192,74663,1,0,0:0:0:0:
256,192,74913,1,8,0:0:0:0:
256,192,75163,1,8,0:0:0:0:
256,192,75413,1,0,0:0:0:0:
256,192,75663,1,8,0:0:0:0:
256,192,76038,1,8,0:0:0:0:
256,192,76163,1,0,0:0:0:0:
256,192,76413,1,8,0:0:0:0:
256,192,76663,1,0,0:0:0:0:
256,192,77163,1,8,0:0:0:0:
256,192,77538,1,8,0:0:0:0:
256,192,77663,1,0,0:0:0:0:
256,192,77913,1,8,0:0:0:0:
256,192,78163,1,0,0:0:0:0:
256,192,78413,1,8,0:0:0:0:
256,192,78663,1,0,0:0:0:0:
256,192,79038,1,0,0:0:0:0:
256,192,79413,1,0,0:0:0:0:
256,192,79538,1,0,0:0:0:0:
256,192,79663,1,8,0:0:0:0:
256,192,80163,1,12,0:0:0:0:
256,192,80413,1,8,0:0:0:0:
256,192,80538,1,0,0:0:0:0:
256,192,80913,1,12,0:0:0:0:
256,192,81163,1,8,0:0:0:0:
256,192,81413,1,0,0:0:0:0:
256,192,81663,1,12,0:0:0:0:
256,192,82038,1,0,0:0:0:0:
256,192,82413,1,12,0:0:0:0:
256,192,82663,1,0,0:0:0:0:
256,192,82913,1,8,0:0:0:0:
256,192,83038,1,8,0:0:0:0:
256,192,83163,1,4,0:0:0:0:
256,192,83413,1,8,0:0:0:0:
256,192,83538,1,0,0:0:0:0:
256,192,83913,1,12,0:0:0:0:
256,192,84163,1,0,0:0:0:0:
256,192,84413,1,0,0:0:0:0:
256,192,84538,1,8,0:0:0:0:
256,192,84663,1,4,0:0:0:0:
256,192,85038,1,0,0:0:0:0:
256,192,85163,1,8,0:0:0:0:
256,192,85413,1,0,0:0:0:0:
256,192,85663,1,8,0:0:0:0:
256,192,85788,1,0,0:0:0:0:
256,192,86163,1,12,0:0:0:0:
256,192,86538,1,0,0:0:0:0:
256,192,86913,1,12,0:0:0:0:
256,192,87413,1,0,0:0:0:0:
256,192,87538,1,0,0:0:0:0:
256,192,87663,1,12,0:0:0:0:
256,192,87913,1,8,0:0:0:0:
256,192,88038,1,0,0:0:0:0:
256,192,88413,1,12,0:0:0:0:
256,192,88663,1,0,0:0:0:0:
256,192,88913,1,8,0:0:0:0:
256,192,89038,1,8,0:0:0:0:
256,192,89163,1,4,0:0:0:0:
256,192,89413,1,8,0:0:0:0:
256,192,89538,1,0,0:0:0:0:
256,192,89913,1,12,0:0:0:0:
256,192,90163,1,0,0:0:0:0:
256,192,90288,1,8,0:0:0:0:
256,192,90413,1,0,0:0:0:0:
256,192,90663,1,4,0:0:0:0:
256,192,91038,1,0,0:0:0:0:
256,192,91163,1,8,0:0:0:0:
256,192,91413,1,0,0:0:0:0:
256,192,91663,1,12,0:0:0:0:
256,192,92163,1,12,0:0:0:0:
256,192,92538,1,0,0:0:0:0:
256,192,92913,1,0,0:0:0:0:
256,192,93163,1,0,0:0:0:0:
256,192,93413,1,8,0:0:0:0:
256,192,93538,1,8,0:0:0:0:
256,192,93663,1,8,0:0:0:0:
256,192,94163,1,0,0:0:0:0:
256,192,94413,1,8,0:0:0:0:
256,192,94538,1,0,0:0:0:0:
256,192,94663,1,8,0:0:0:0:
256,192,94913,1,8,0:0:0:0:
256,192,95038,1,8,0:0:0:0:
256,192,95163,1,4,0:0:0:0:
256,192,95413,1,0,0:0:0:0:
256,192,95663,1,8,0:0:0:0:
256,192,95913,1,4,0:0:0:0:
256,192,96413,1,0,0:0:0:0:
256,192,96663,1,12,0:0:0:0:
256,192,96913,1,0,0:0:0:0:
256,192,97038,1,0,0:0:0:0:
256,192,97163,1,8,0:0:0:0:
256,192,97413,1,12,0:0:0:0:
256,192,97663,1,4,0:0:0:0:
256,192,98163,1,12,0:0:0:0:
256,192,98413,1,0,0:0:0:0:
256,192,98663,1,8,0:0:0:0:
256,192,98788,1,0,0:0:0:0:
256,192,98913,1,12,0:0:0:0:
256,192,99163,1,8,0:0:0:0:
256,192,99288,1,8,0:0:0:0:
256,192,99413,1,0,0:0:0:0:
256,192,99663,1,12,0:0:0:0:
256,192,99913,1,0,0:0:0:0:
256,192,100038,1,8,0:0:0:0:
256,192,100413,1,12,0:0:0:0:
256,192,100663,1,4,0:0:0:0:
256,192,100913,1,8,0:0:0:0:
256,192,101038,1,8,0:0:0:0:
256,192,101163,1,4,0:0:0:0:
256,192,101538,1,0,0:0:0:0:
256,192,101913,1,12,0:0:0:0:
256,192,102163,1,0,0:0:0:0:
256,192,102288,1,8,0:0:0:0:
256,192,102413,1,0,0:0:0:0:
256,192,102663,1,12,0:0:0:0:
256,192,103163,1,8,0:0:0:0:
256,192,103413,1,0,0:0:0:0:
256,192,103538,1,0,0:0:0:0:
256,192,103663,1,12,0:0:0:0:
256,192,103913,1,0,0:0:0:0:
256,192,104163,1,12,0:0:0:0:
256,192,104413,1,0,0:0:0:0:
256,192,104538,1,8,0:0:0:0:
256,192,104663,1,0,0:0:0:0:
256,192,104913,1,8,0:0:0:0:
256,192,105163,1,8,0:0:0:0:
256,192,105288,1,8,0:0:0:0:
256,192,105413,1,0,0:0:0:0:
256,192,105663,1,12,0:0:0:0:
256,192,106163,1,8,0:0:0:0:
256,192,106413,1,0,0:0:0:0:
256,192,106663,1,8,0:0:0:0:
256,192,106788,1,0,0:0:0:0:
256,192,106913,1,8,0:0:0:0:
256,192,107163,1,4,0:0:0:0:
256,192,107413,1,0,0:0:0:0:
256,192,107538,1,0,0:0:0:0:
256,192,107663,1,8,0:0:0:0:
256,192,107913,1,0,0:0:0:0:
256,192,108163,1,0,0:0:0:0:
256,192,108288,1,8,0:0:0:0:
256,192,108413,1,0,0:0:0:0:
256,192,108663,1,12,0:0:0:0:
256,192,109163,1,0,0:0:0:0:
256,192,109413,1,8,0:0:0:0:
256,192,109663,1,8,0:0:0:0:
256,192,109788,1,0,0:0:0:0:
256,192,109913,1,8,0:0:0:0:
256,192,110163,1,12,0:0:0:0:
256,192,110413,1,0,0:0:0:0:
256,192,110538,1,8,0:0:0:0:
256,192,110663,1,0,0:0:0:0:
256,192,110913,1,8,0:0:0:0:
256,192,111163,1,8,0:0:0:0:
256,192,111288,1,8,0:0:0:0:
256,192,111413,1,0,0:0:0:0:
256,192,111663,1,12,0:0:0:0:
256,192,112163,1,8,0:0:0:0:
256,192,112413,1,0,0:0:0:0:
256,192,112663,1,8,0:0:0:0:
256,192,112788,1,0,0:0:0:0:
256,192,112913,1,8,0:0:0:0:
256,192,113163,1,12,0:0:0:0:
256,192,113413,1,0,0:0:0:0:
256,192,113538,1,0,0:0:0:0:
256,192,113663,1,8,0:0:0:0:
256,192,113913,1,0,0:0:0:0:
256,192,114163,1,0,0:0:0:0:
256,192,114288,1,8,0:0:0:0:
256,192,114413,1,0,0:0:0:0:
256,192,114663,1,12,0:0:0:0:
256,192,115163,1,8,0:0:0:0:
256,192,115413,1,0,0:0:0:0:
256,192,115538,1,0,0:0:0:0:
256,192,115663,1,8,0:0:0:0:
256,192,115913,1,0,0:0:0:0:
256,192,116163,1,12,0:0:0:0:
256,192,116413,1,0,0:0:0:0:
256,192,116663,1,0,0:0:0:0:
256,192,116913,1,8,0:0:0:0:
256,192,117163,1,0,0:0:0:0:
256,192,117663,1,8,0:0:0:0:
256,192,117913,1,0,0:0:0:0:
256,192,118163,1,0,0:0:0:0:
256,192,118413,1,8,0:0:0:0:
256,192,118663,1,0,0:0:0:0:
256,192,119163,1,8,0:0:0:0:
256,192,119413,1,0,0:0:0:0:
256,192,119663,1,0,0:0:0:0:
256,192,119913,1,8,0:0:0:0:
256,192,120163,1,0,0:0:0:0:
256,192,120663,1,8,0:0:0:0:
256,192,120913,1,0,0:0:0:0:
256,192,121163,1,0,0:0:0:0:
256,192,121413,1,8,0:0:0:0:
256,192,121663,1,0,0:0:0:0:
256,192,122163,1,8,0:0:0:0:
256,192,122413,1,0,0:0:0:0:
256,192,122663,1,0,0:0:0:0:
256,192,122913,1,8,0:0:0:0:
256,192,123163,1,0,0:0:0:0:
256,192,123663,1,8,0:0:0:0:
256,192,123913,1,0,0:0:0:0:
256,192,124163,1,0,0:0:0:0:
256,192,124413,1,8,0:0:0:0:
256,192,124663,1,0,0:0:0:0:
256,192,125163,1,8,0:0:0:0:
256,192,125413,1,0,0:0:0:0:
256,192,125663,1,0,0:0:0:0:
256,192,125913,1,8,0:0:0:0:
256,192,126163,1,0,0:0:0:0:
256,192,126663,1,8,0:0:0:0:
256,192,126913,1,0,0:0:0:0:
256,192,127163,1,0,0:0:0:0:
256,192,127413,1,8,0:0:0:0:
256,192,127663,1,0,0:0:0:0:
256,192,127913,1,0,0:0:0:0:
256,192,128163,1,12,0:0:0:0:
256,192,128413,8,0,140163,0:0:0:0:
