osu file format v14

[General]
AudioFilename: audio.mp3
AudioLeadIn: 0
PreviewTime: 8163
Countdown: 0
SampleSet: Normal
StackLeniency: 0.7
Mode: 1
LetterboxInBreaks: 0
WidescreenStoryboard: 0

[Editor]
Bookmarks: 663,8163,14163,20163,26163,32163,38163,44163,50163,56163,62163,68163,74163,80163,91663,92163,104163,110163,116163,122163,128163,134163,140163
DistanceSpacing: 0.6
BeatDivisor: 4
GridSize: 32
TimelineZoom: 1.6

[Metadata]
Title:Reincarnation
TitleUnicode:Μετενσάρκωση
Artist:Street
ArtistUnicode:Street
Creator:eiri-
Version:Kantan
Source:
Tags:Ayyri Featured Artist FA Skull Kid Skid Electronic Instrumental Rock Cinematic
BeatmapID:2657264
BeatmapSetID:1279224

[Difficulty]
HPDrainRate:9
CircleSize:2
OverallDifficulty:3
ApproachRate:10
SliderMultiplier:1.4
SliderTickRate:1

[Events]
//Background and Video events
0,0,"Reincarnation.jpg",0,-75
//Break Periods
//Storyboard Layer 0 (Background)
//Storyboard Layer 1 (Fail)
//Storyboard Layer 2 (Pass)
//Storyboard Layer 3 (Foreground)
//Storyboard Layer 4 (Overlay)
//Storyboard Sound Samples

[TimingPoints]
663,500,3,1,1,15,1,0
2100,-100,3,1,1,17,0,0
3600,-100,3,1,1,20,0,0
5100,-100,3,1,1,23,0,0
6600,-100,3,1,1,25,0,0
8100,-100,3,1,1,80,0,0
9600,-100,3,1,1,40,0,0
20100,-100,3,1,1,50,0,0
44100,-100,3,1,1,60,0,0
50100,-100,3,1,1,70,0,0
56475,-100,3,1,1,50,0,0
68100,-100,3,1,1,60,0,0
71100,-100,3,1,1,65,0,0
74100,-100,3,1,1,70,0,0
77100,-100,3,1,1,75,0,0
80163,-100,3,1,1,80,0,1
91663,-100,3,1,1,80,0,0
92163,-100,3,1,1,80,0,1
104163,-100,3,1,1,80,0,0
105100,-100,3,1,1,60,0,0
105600,-100,3,1,1,80,0,0
107100,-100,3,1,1,80,0,0
108100,-100,3,1,1,60,0,0
108600,-100,3,1,1,80,0,0
110100,-100,3,1,1,80,0,0
111100,-100,3,1,1,60,0,0
111600,-100,3,1,1,80,0,0
113100,-100,3,1,1,80,0,0
114100,-100,3,1,1,60,0,0
114600,-100,3,1,1,80,0,0
116100,-100,3,1,1,80,0,0
116850,-100,3,1,1,40,0,0
128100,-100,3,1,1,80,0,0
128350,-100,3,1,1,25,0,0
129600,-100,3,1,1,23,0,0
131100,-100,3,1,1,20,0,0
132600,-100,3,1,1,17,0,0
134100,-100,3,1,1,15,0,0
135600,-100,3,1,1,13,0,0
137100,-100,3,1,1,10,0,0
138600,-100,3,1,1,7,0,0
140100,-100,3,1,1,5,0,0

[HitObjects]
256,192,663,8,0,7913,0:0:0:0:
256,192,8163,5,4,0:0:0:0:
256,192,9663,1,8,0:0:0:0:
256,192,10413,1,0,0:0:0:0:
256,192,11163,1,8,0:0:0:0:
256,192,12663,1,8,0:0:0:0:
256,192,14163,1,0,0:0:0:0:
256,192,15663,1,0,0:0:0:0:
256,192,16413,1,8,0:0:0:0:
256,192,17163,1,0,0:0:0:0:
256,192,18663,1,0,0:0:0:0:
256,192,19413,1,8,0:0:0:0:
256,192,20163,1,12,0:0:0:0:
256,192,21663,1,8,0:0:0:0:
256,192,22413,1,8,0:0:0:0:
256,192,23163,1,0,0:0:0:0:
256,192,24663,1,8,0:0:0:0:
256,192,26163,1,8,0:0:0:0:
256,192,27663,1,8,0:0:0:0:
256,192,28413,1,8,0:0:0:0:
256,192,29163,1,0,0:0:0:0:
256,192,30663,1,0,0:0:0:0:
256,192,31663,1,8,0:0:0:0:
256,192,32163,1,4,0:0:0:0:
256,192,33663,1,0,0:0:0:0:
256,192,34663,1,0,0:0:0:0:
256,192,35163,1,8,0:0:0:0:
256,192,35913,1,0,0:0:0:0:
256,192,36663,1,8,0:0:0:0:
256,192,37663,1,8,0:0:0:0:
256,192,38163,1,4,0:0:0:0:
256,192,39663,1,0,0:0:0:0:
256,192,40663,1,0,0:0:0:0:
256,192,41163,1,8,0:0:0:0:
256,192,42663,1,0,0:0:0:0:
256,192,43663,1,8,0:0:0:0:
256,192,44163,1,4,0:0:0:0:
256,192,45163,1,4,0:0:0:0:
256,192,45663,1,12,0:0:0:0:
256,192,46413,1,4,0:0:0:0:
256,192,47163,1,12,0:0:0:0:
256,192,48663,1,4,0:0:0:0:
256,192,49413,1,12,0:0:0:0:
256,192,50163,1,4,0:0:0:0:
256,192,51163,1,12,0:0:0:0:
256,192,51663,1,4,0:0:0:0:
256,192,53163,1,12,0:0:0:0:
256,192,54163,1,4,0:0:0:0:
256,192,54663,1,12,0:0:0:0:
256,192,55413,1,4,0:0:0:0:
256,192,56163,1,12,0:0:0:0:
256,192,57163,1,8,0:0:0:0:
256,192,57663,1,0,0:0:0:0:
256,192,59163,1,8,0:0:0:0:
256,192,60163,1,8,0:0:0:0:
256,192,60663,1,0,0:0:0:0:
256,192,62163,1,8,0:0:0:0:
256,192,63163,1,8,0:0:0:0:
256,192,63663,1,0,0:0:0:0:
256,192,65163,1,8,0:0:0:0:
256,192,66163,1,8,0:0:0:0:
256,192,66663,1,0,0:0:0:0:
256,192,68163,1,12,0:0:0:0:
256,192,69163,1,0,0:0:0:0:
256,192,69663,1,8,0:0:0:0:
256,192,71163,1,8,0:0:0:0:
256,192,72163,1,0,0:0:0:0:
256,192,72663,1,8,0:0:0:0:
256,192,73163,1,0,0:0:0:0:
256,192,74163,1,8,0:0:0:0:
256,192,75163,1,8,0:0:0:0:
256,192,75663,1,0,0:0:0:0:
256,192,76663,1,0,0:0:0:0:
256,192,77163,1,8,0:0:0:0:
256,192,78163,1,8,0:0:0:0:
256,192,78663,1,0,0:0:0:0:
256,192,80163,1,12,0:0:0:0:
256,192,80913,1,4,0:0:0:0:
256,192,81663,1,12,0:0:0:0:
256,192,82413,1,12,0:0:0:0:
256,192,83163,1,4,0:0:0:0:
256,192,83913,1,12,0:0:0:0:
256,192,84663,1,4,0:0:0:0:
256,192,86163,1,12,0:0:0:0:
256,192,86913,1,4,0:0:0:0:
256,192,87663,1,12,0:0:0:0:
256,192,88413,1,12,0:0:0:0:
256,192,89163,1,4,0:0:0:0:
256,192,90663,1,12,0:0:0:0:
256,192,91663,1,4,0:0:0:0:
256,192,92163,1,12,0:0:0:0:
256,192,93663,1,8,0:0:0:0:
256,192,94413,1,8,0:0:0:0:
256,192,95163,1,4,0:0:0:0:
256,192,95913,1,12,0:0:0:0:
256,192,96663,1,12,0:0:0:0:
256,192,97413,1,4,0:0:0:0:
256,192,98163,1,12,0:0:0:0:
256,192,99663,1,4,0:0:0:0:
256,192,100413,1,12,0:0:0:0:
256,192,101163,1,4,0:0:0:0:
256,192,102663,1,12,0:0:0:0:
256,192,103413,1,4,0:0:0:0:
256,192,104163,1,12,0:0:0:0:
256,192,105163,1,0,0:0:0:0:
256,192,105663,1,12,0:0:0:0:
256,192,107163,1,12,0:0:0:0:
256,192,108163,1,0,0:0:0:0:
256,192,108663,1,12,0:0:0:0:
256,192,110163,1,12,0:0:0:0:
256,192,111163,1,0,0:0:0:0:
256,192,111663,1,12,0:0:0:0:
256,192,113163,1,12,0:0:0:0:
256,192,114163,1,0,0:0:0:0:
256,192,114663,1,12,0:0:0:0:
256,192,116163,1,12,0:0:0:0:
256,192,116913,1,0,0:0:0:0:
256,192,117663,1,8,0:0:0:0:
256,192,119163,1,8,0:0:0:0:
256,192,119913,1,8,0:0:0:0:
256,192,120663,1,8,0:0:0:0:
256,192,122163,1,8,0:0:0:0:
256,192,122913,1,0,0:0:0:0:
256,192,123663,1,8,0:0:0:0:
256,192,125163,1,8,0:0:0:0:
256,192,125913,1,8,0:0:0:0:
256,192,126663,1,8,0:0:0:0:
256,192,127663,1,0,0:0:0:0:
256,192,128163,1,12,0:0:0:0:
256,192,128413,8,0,140163,0:0:0:0:
