osu file format v14

[General]
AudioFilename: audio.mp3
AudioLeadIn: 0
PreviewTime: 67258
Countdown: 0
SampleSet: Normal
StackLeniency: 0.7
Mode: 1
LetterboxInBreaks: 0
WidescreenStoryboard: 1

[Editor]
Bookmarks: 6666,11719,14245,16772,25614,26877,36982,47087,57193,62245,67298,107719
DistanceSpacing: 2
BeatDivisor: 4
GridSize: 16
TimelineZoom: 1.7

[Metadata]
Title:Phi
TitleUnicode:Φ
Artist:Street
ArtistUnicode:Street
Creator:GIGACHAD
Version:Oni
Source:Muse Dash
Tags:featured artist fa mg mapper's mappers' mappers guild _dusk_ -dusk yenmaster dako electronic instrumental 音ゲー依存症Vol.8 give up treatment volume eight osu!
BeatmapID:2944307
BeatmapSetID:1429217

[Difficulty]
HPDrainRate:6
CircleSize:2
OverallDifficulty:5
ApproachRate:9.6
SliderMultiplier:1.4
SliderTickRate:1

[Events]
//Background and Video events
0,0,"kevin-laminto-7PqRZK6rbaE-unsplash.jpg",0,0
//Break Periods
//Storyboard Layer 0 (Background)
//Storyboard Layer 1 (Fail)
//Storyboard Layer 2 (Pass)
//Storyboard Layer 3 (Foreground)
//Storyboard Layer 4 (Overlay)
//Storyboard Sound Samples

[TimingPoints]
351,315.789473684211,4,1,0,80,1,0
16772,-100,4,1,0,90,0,1
25614,-100,4,1,0,80,0,0
26877,-100,4,1,0,90,0,1
36982,-100,4,1,0,80,0,0
67298,-100,4,1,0,90,0,1
76614,-100,4,1,0,90,0,0
77403,-100,4,1,0,90,0,1
96824,-100,4,1,0,90,0,0
97614,-100,4,1,0,90,0,1
107719,-100,4,1,0,80,0,0
118061,-100,4,1,0,25,0,0
119087,-100,4,1,0,20,0,0
120351,-100,4,1,0,15,0,0
121614,-100,4,1,0,20,0,0

[HitObjects]
220,248,6666,5,0,0:0:0:0:
302,213,6982,1,8,0:0:0:0:
331,157,7140,1,0,0:0:0:0:
307,293,7929,1,0,0:0:0:0:
267,212,8245,1,8,0:0:0:0:
165,255,8403,1,0,0:0:0:0:
168,184,8719,1,0,0:0:0:0:
200,174,9035,1,8,0:0:0:0:
381,176,9193,1,0,0:0:0:0:
326,261,9508,1,8,0:0:0:0:
243,281,9666,1,0,0:0:0:0:
286,200,10456,1,0,0:0:0:0:
381,166,10772,1,8,0:0:0:0:
181,239,10929,1,0,0:0:0:0:
181,148,11245,1,0,0:0:0:0:
337,299,11561,1,8,0:0:0:0:
337,299,11719,1,0,0:0:0:0:
238,183,12035,1,0,0:0:0:0:
434,232,12193,1,8,0:0:0:0:
238,183,12351,1,0,0:0:0:0:
238,183,12666,1,0,0:0:0:0:
501,279,12824,1,8,0:0:0:0:
313,186,12982,1,0,0:0:0:0:
313,186,13061,1,0,0:0:0:0:
313,186,13140,1,0,0:0:0:0:
379,267,13298,1,8,0:0:0:0:
240,328,13456,1,0,0:0:0:0:
240,328,13535,1,0,0:0:0:0:
319,341,13614,1,0,0:0:0:0:
210,253,13772,1,8,0:0:0:0:
205,95,13929,1,0,0:0:0:0:
205,95,14008,1,0,0:0:0:0:
205,95,14087,1,8,0:0:0:0:
418,238,14245,1,0,0:0:0:0:
313,310,14482,1,0,0:0:0:0:
340,173,14561,1,0,0:0:0:0:
496,265,14719,1,8,0:0:0:0:
226,129,14956,1,0,0:0:0:0:
255,282,15035,1,0,0:0:0:0:
353,229,15193,1,8,0:0:0:0:
431,311,15351,1,8,0:0:0:0:
377,243,15508,1,0,0:0:0:0:
183,200,15982,1,8,0:0:0:0:
252,281,16298,5,0,0:0:0:0:
455,319,16456,1,8,0:0:0:0:
108,229,16614,1,8,0:0:0:0:
356,214,16772,1,0,0:0:0:0:
182,263,16851,1,0,0:0:0:0:
322,191,16929,1,8,0:0:0:0:
184,143,17008,1,8,0:0:0:0:
308,333,17087,1,0,0:0:0:0:
308,333,17245,1,0,0:0:0:0:
308,333,17324,1,0,0:0:0:0:
273,144,17403,1,8,0:0:0:0:
281,143,17561,1,8,0:0:0:0:
308,149,17719,1,0,0:0:0:0:
251,262,17798,1,0,0:0:0:0:
143,222,17877,1,8,0:0:0:0:
407,241,18035,1,0,0:0:0:0:
264,227,18193,1,8,0:0:0:0:
359,230,18272,1,0,0:0:0:0:
420,245,18351,1,8,0:0:0:0:
386,140,18508,1,8,0:0:0:0:
371,302,18666,1,0,0:0:0:0:
208,319,18982,5,0,0:0:0:0:
286,77,19140,1,8,0:0:0:0:
356,214,19298,1,0,0:0:0:0:
182,263,19377,1,0,0:0:0:0:
322,191,19455,1,8,0:0:0:0:
308,333,19613,1,0,0:0:0:0:
308,333,19771,1,8,0:0:0:0:
308,333,19850,1,0,0:0:0:0:
273,144,19929,1,8,0:0:0:0:
281,143,20087,1,0,0:0:0:0:
308,149,20245,1,8,0:0:0:0:
251,262,20324,1,8,0:0:0:0:
143,222,20403,1,0,0:0:0:0:
407,241,20561,1,0,0:0:0:0:
264,227,20719,1,8,0:0:0:0:
359,230,20798,1,0,0:0:0:0:
420,245,20877,1,8,0:0:0:0:
386,140,21034,1,8,0:0:0:0:
371,302,21192,1,0,0:0:0:0:
308,149,21508,5,0,0:0:0:0:
143,222,21666,1,8,0:0:0:0:
407,241,21824,1,0,0:0:0:0:
264,227,21982,1,8,0:0:0:0:
359,230,22061,1,0,0:0:0:0:
420,245,22140,1,8,0:0:0:0:
386,140,22297,1,8,0:0:0:0:
371,302,22455,1,0,0:0:0:0:
240,325,22535,1,0,0:0:0:0:
141,308,22614,1,8,0:0:0:0:
211,152,22772,1,0,0:0:0:0:
395,226,22929,1,8,0:0:0:0:
395,226,23087,1,0,0:0:0:0:
248,317,23166,1,0,0:0:0:0:
248,317,23245,1,0,0:0:0:0:
321,289,23403,1,8,0:0:0:0:
147,217,23561,1,0,0:0:0:0:
148,228,23640,1,8,0:0:0:0:
237,149,23719,1,0,0:0:0:0:
426,255,24035,1,0,0:0:0:0:
146,175,24351,1,0,0:0:0:0:
361,126,24429,1,0,0:0:0:0:
361,126,24508,1,8,0:0:0:0:
364,132,24666,1,0,0:0:0:0:
311,225,24824,1,0,0:0:0:0:
388,289,24903,1,0,0:0:0:0:
214,91,24982,1,8,0:0:0:0:
225,306,25061,1,8,0:0:0:0:
174,268,25140,1,0,0:0:0:0:
206,206,25298,1,8,0:0:0:0:
124,197,25456,1,8,0:0:0:0:
349,245,25614,1,4,0:0:0:0:
276,93,25929,1,8,0:0:0:0:
282,149,26087,1,0,0:0:0:0:
263,218,26403,1,0,0:0:0:0:
184,220,26561,1,8,0:0:0:0:
269,288,26719,1,0,0:0:0:0:
356,214,26877,1,0,0:0:0:0:
182,263,26956,1,0,0:0:0:0:
322,191,27034,1,8,0:0:0:0:
184,143,27114,1,0,0:0:0:0:
308,333,27193,1,8,0:0:0:0:
308,333,27350,1,0,0:0:0:0:
308,333,27429,1,0,0:0:0:0:
273,144,27508,1,8,0:0:0:0:
281,143,27666,1,8,0:0:0:0:
308,149,27824,1,0,0:0:0:0:
251,262,27903,1,0,0:0:0:0:
143,222,27982,1,8,0:0:0:0:
407,241,28140,1,0,0:0:0:0:
264,227,28298,1,8,0:0:0:0:
359,230,28377,1,8,0:0:0:0:
420,245,28456,1,0,0:0:0:0:
386,140,28613,1,8,0:0:0:0:
371,302,28771,1,0,0:0:0:0:
208,319,29087,5,0,0:0:0:0:
286,77,29245,1,8,0:0:0:0:
356,214,29403,1,0,0:0:0:0:
182,263,29482,1,0,0:0:0:0:
322,191,29560,1,8,0:0:0:0:
308,333,29718,1,0,0:0:0:0:
308,333,29877,1,0,0:0:0:0:
308,333,29955,1,8,0:0:0:0:
273,144,30034,1,0,0:0:0:0:
281,143,30192,1,0,0:0:0:0:
308,149,30350,1,8,0:0:0:0:
251,262,30429,1,8,0:0:0:0:
143,222,30508,1,0,0:0:0:0:
407,241,30666,1,8,0:0:0:0:
264,227,30824,1,0,0:0:0:0:
359,230,30903,1,0,0:0:0:0:
420,245,30982,1,8,0:0:0:0:
386,140,31139,1,8,0:0:0:0:
371,302,31297,1,0,0:0:0:0:
308,149,31613,5,0,0:0:0:0:
143,222,31771,1,8,0:0:0:0:
407,241,31929,1,0,0:0:0:0:
264,227,32087,1,0,0:0:0:0:
359,230,32166,1,8,0:0:0:0:
420,245,32245,1,0,0:0:0:0:
386,140,32402,1,8,0:0:0:0:
371,302,32560,1,0,0:0:0:0:
240,325,32640,1,0,0:0:0:0:
141,308,32719,1,8,0:0:0:0:
211,152,32877,1,0,0:0:0:0:
395,226,33034,1,8,0:0:0:0:
395,226,33192,1,0,0:0:0:0:
248,317,33271,1,0,0:0:0:0:
248,317,33351,1,8,0:0:0:0:
321,289,33508,1,0,0:0:0:0:
147,217,33666,1,8,0:0:0:0:
148,228,33745,1,8,0:0:0:0:
237,149,33824,1,0,0:0:0:0:
426,255,34140,1,0,0:0:0:0:
146,175,34456,5,0,0:0:0:0:
361,126,34534,1,0,0:0:0:0:
361,126,34613,1,8,0:0:0:0:
263,280,34693,1,8,0:0:0:0:
364,132,34771,1,0,0:0:0:0:
311,225,34929,1,0,0:0:0:0:
388,289,35008,1,0,0:0:0:0:
214,91,35087,1,8,0:0:0:0:
174,268,35245,1,0,0:0:0:0:
206,206,35403,1,8,0:0:0:0:
379,251,35719,5,0,0:0:0:0:
379,251,35798,1,0,0:0:0:0:
324,306,35877,1,8,0:0:0:0:
321,212,36035,1,0,0:0:0:0:
419,208,36193,1,8,0:0:0:0:
321,212,36272,1,8,0:0:0:0:
203,295,36351,1,0,0:0:0:0:
203,295,36429,1,0,0:0:0:0:
251,295,36508,1,8,0:0:0:0:
251,150,36666,1,8,0:0:0:0:
251,150,36745,1,8,0:0:0:0:
251,150,36824,1,8,0:0:0:0:
418,271,36982,5,4,0:0:0:0:
295,290,37456,1,8,0:0:0:0:
309,168,37929,1,0,0:0:0:0:
220,276,38403,1,8,0:0:0:0:
318,264,38877,1,8,0:0:0:0:
391,214,39193,1,8,0:0:0:0:
199,291,39508,1,0,0:0:0:0:
294,224,39982,1,8,0:0:0:0:
288,218,40456,1,0,0:0:0:0:
262,119,40929,1,8,0:0:0:0:
351,250,41403,1,0,0:0:0:0:
289,275,41719,1,0,0:0:0:0:
190,240,42035,1,8,0:0:0:0:
282,230,42508,1,0,0:0:0:0:
273,126,42982,1,8,0:0:0:0:
209,186,43456,1,0,0:0:0:0:
349,227,43929,1,8,0:0:0:0:
349,227,44245,1,8,0:0:0:0:
268,271,44561,1,0,0:0:0:0:
156,240,45035,1,0,0:0:0:0:
166,268,45508,1,0,0:0:0:0:
218,256,45982,1,0,0:0:0:0:
276,187,46456,1,0,0:0:0:0:
421,302,46772,1,8,0:0:0:0:
310,341,46929,1,0,0:0:0:0:
229,257,47087,1,8,0:0:0:0:
126,218,47561,1,0,0:0:0:0:
317,273,47877,1,0,0:0:0:0:
282,186,48035,1,8,0:0:0:0:
396,217,48351,1,8,0:0:0:0:
388,222,48508,1,0,0:0:0:0:
360,210,48982,1,0,0:0:0:0:
266,175,49140,1,8,0:0:0:0:
266,175,49298,1,8,0:0:0:0:
400,293,49456,1,0,0:0:0:0:
396,217,49614,1,8,0:0:0:0:
360,210,50087,1,0,0:0:0:0:
266,175,50245,1,0,0:0:0:0:
229,281,50403,1,8,0:0:0:0:
266,175,50561,1,0,0:0:0:0:
400,293,50719,1,0,0:0:0:0:
196,95,50877,1,8,0:0:0:0:
346,192,51035,1,0,0:0:0:0:
126,218,51508,1,0,0:0:0:0:
431,131,51666,1,0,0:0:0:0:
317,273,51824,1,8,0:0:0:0:
282,186,51982,1,0,0:0:0:0:
396,217,52141,1,8,0:0:0:0:
257,248,52614,1,0,0:0:0:0:
329,295,53087,1,0,0:0:0:0:
329,295,53245,1,0,0:0:0:0:
136,110,53403,1,8,0:0:0:0:
316,157,53561,1,8,0:0:0:0:
240,175,53719,1,0,0:0:0:0:
357,231,54035,1,0,0:0:0:0:
360,251,54351,1,8,0:0:0:0:
207,270,54508,1,8,0:0:0:0:
207,270,54666,1,0,0:0:0:0:
271,197,54824,1,0,0:0:0:0:
242,157,54982,1,8,0:0:0:0:
306,178,55140,1,0,0:0:0:0:
342,234,55456,1,0,0:0:0:0:
318,193,55614,1,8,0:0:0:0:
317,191,55772,1,8,0:0:0:0:
293,251,55929,1,0,0:0:0:0:
293,251,56008,1,0,0:0:0:0:
293,251,56087,1,8,0:0:0:0:
367,282,56245,1,0,0:0:0:0:
224,283,56403,1,0,0:0:0:0:
224,283,56482,1,0,0:0:0:0:
224,283,56561,1,8,0:0:0:0:
398,215,56719,1,8,0:0:0:0:
398,215,56798,1,8,0:0:0:0:
398,215,56877,1,0,0:0:0:0:
271,250,57035,1,8,0:0:0:0:
258,181,57193,1,4,0:0:0:0:
302,213,57508,1,8,0:0:0:0:
331,157,57666,1,0,0:0:0:0:
307,293,58455,1,0,0:0:0:0:
267,212,58771,1,8,0:0:0:0:
165,255,58929,1,0,0:0:0:0:
168,184,59245,1,8,0:0:0:0:
200,174,59561,1,8,0:0:0:0:
381,176,59719,1,0,0:0:0:0:
326,261,60034,1,8,0:0:0:0:
243,281,60192,1,0,0:0:0:0:
286,200,60982,1,0,0:0:0:0:
381,166,61298,1,8,0:0:0:0:
181,239,61455,1,0,0:0:0:0:
181,148,61771,1,0,0:0:0:0:
337,299,61929,1,8,0:0:0:0:
337,299,62245,1,0,0:0:0:0:
238,183,62561,1,0,0:0:0:0:
434,232,62719,1,8,0:0:0:0:
238,183,62877,1,0,0:0:0:0:
361,222,63193,1,0,0:0:0:0:
180,69,63508,1,8,0:0:0:0:
180,69,63666,1,0,0:0:0:0:
307,72,63824,1,0,0:0:0:0:
307,72,63982,1,8,0:0:0:0:
327,187,64140,1,0,0:0:0:0:
327,187,64219,1,0,0:0:0:0:
327,187,64298,1,8,0:0:0:0:
327,187,64456,1,0,0:0:0:0:
327,187,64535,1,0,0:0:0:0:
299,262,64614,1,0,0:0:0:0:
161,292,64693,1,0,0:0:0:0:
361,273,64772,1,8,0:0:0:0:
246,123,65245,1,0,0:0:0:0:
273,271,65403,1,0,0:0:0:0:
272,234,65561,1,8,0:0:0:0:
176,224,65719,1,0,0:0:0:0:
176,224,65877,1,8,0:0:0:0:
256,192,66035,12,0,66824,0:0:0:0:
367,247,66982,5,12,0:0:0:0:
285,146,67298,5,4,0:0:0:0:
286,157,67456,1,8,0:0:0:0:
286,155,67535,1,8,0:0:0:0:
104,115,67614,1,0,0:0:0:0:
173,114,67771,1,8,0:0:0:0:
386,254,67929,1,0,0:0:0:0:
241,285,68087,1,8,0:0:0:0:
298,290,68166,1,8,0:0:0:0:
311,295,68245,1,0,0:0:0:0:
375,124,68403,1,8,0:0:0:0:
396,260,68719,5,0,0:0:0:0:
330,138,68798,1,8,0:0:0:0:
189,177,68877,1,0,0:0:0:0:
266,72,69035,1,8,0:0:0:0:
471,219,69193,1,0,0:0:0:0:
327,192,69351,1,0,0:0:0:0:
331,301,69429,1,0,0:0:0:0:
362,115,69508,1,8,0:0:0:0:
420,227,69666,1,0,0:0:0:0:
216,181,69824,1,8,0:0:0:0:
246,282,69982,1,0,0:0:0:0:
353,304,70140,1,8,0:0:0:0:
345,243,70219,1,0,0:0:0:0:
425,301,70298,1,8,0:0:0:0:
351,146,70614,5,8,0:0:0:0:
233,195,70693,1,0,0:0:0:0:
457,187,70772,1,8,0:0:0:0:
457,187,70929,1,0,0:0:0:0:
279,297,71087,1,0,0:0:0:0:
106,142,71245,1,8,0:0:0:0:
106,142,71324,1,8,0:0:0:0:
153,121,71403,1,0,0:0:0:0:
153,121,71561,1,0,0:0:0:0:
296,197,71719,1,8,0:0:0:0:
250,214,71798,1,0,0:0:0:0:
286,138,71877,1,8,0:0:0:0:
369,137,72035,1,0,0:0:0:0:
420,232,72193,1,0,0:0:0:0:
222,93,72272,1,0,0:0:0:0:
427,313,72351,1,8,0:0:0:0:
291,243,72666,5,8,0:0:0:0:
291,243,72824,1,0,0:0:0:0:
399,135,72903,1,0,0:0:0:0:
401,142,72982,1,8,0:0:0:0:
202,145,73140,1,0,0:0:0:0:
308,128,73298,1,8,0:0:0:0:
382,291,73456,1,0,0:0:0:0:
382,291,73535,1,8,0:0:0:0:
382,291,73614,1,0,0:0:0:0:
207,81,73772,1,8,0:0:0:0:
207,81,73851,1,8,0:0:0:0:
256,142,73929,1,8,0:0:0:0:
332,243,74087,1,0,0:0:0:0:
338,92,74403,1,8,0:0:0:0:
371,113,74482,1,8,0:0:0:0:
371,113,74561,1,0,0:0:0:0:
294,298,74719,1,0,0:0:0:0:
468,201,74798,1,0,0:0:0:0:
408,310,74877,1,8,0:0:0:0:
188,217,75193,1,0,0:0:0:0:
181,95,75272,1,0,0:0:0:0:
283,132,75351,1,8,0:0:0:0:
150,312,75429,1,8,0:0:0:0:
291,335,75508,1,0,0:0:0:0:
345,204,75666,1,0,0:0:0:0:
346,301,75824,1,8,0:0:0:0:
238,250,75982,1,0,0:0:0:0:
436,296,76456,1,0,0:0:0:0:
294,312,76614,1,8,0:0:0:0:
306,175,76929,1,8,0:0:0:0:
226,167,77087,1,0,0:0:0:0:
129,277,77403,5,12,0:0:0:0:
262,284,77561,1,0,0:0:0:0:
384,176,77640,1,0,0:0:0:0:
384,311,77719,1,8,0:0:0:0:
384,311,77877,1,0,0:0:0:0:
216,115,78035,1,8,0:0:0:0:
192,192,78114,1,8,0:0:0:0:
269,233,78193,1,0,0:0:0:0:
346,133,78351,1,0,0:0:0:0:
401,267,78508,1,8,0:0:0:0:
135,282,78824,1,0,0:0:0:0:
226,297,78903,1,8,0:0:0:0:
301,327,78982,1,0,0:0:0:0:
301,327,79140,1,8,0:0:0:0:
232,187,79298,1,0,0:0:0:0:
232,187,79377,1,0,0:0:0:0:
232,187,79456,1,8,0:0:0:0:
355,127,79614,1,8,0:0:0:0:
204,136,79693,1,8,0:0:0:0:
204,136,79772,1,0,0:0:0:0:
210,278,79929,1,8,0:0:0:0:
339,223,80245,5,8,0:0:0:0:
339,223,80324,1,8,0:0:0:0:
339,223,80403,1,0,0:0:0:0:
339,223,80561,1,0,0:0:0:0:
339,223,80719,1,8,0:0:0:0:
380,236,80877,1,0,0:0:0:0:
380,236,80956,1,8,0:0:0:0:
380,236,81035,1,0,0:0:0:0:
228,157,81193,1,0,0:0:0:0:
215,314,81351,1,0,0:0:0:0:
200,245,81429,1,8,0:0:0:0:
253,242,81508,1,8,0:0:0:0:
367,304,81666,1,0,0:0:0:0:
317,148,81982,5,8,0:0:0:0:
317,148,82061,1,8,0:0:0:0:
395,199,82140,1,0,0:0:0:0:
232,186,82298,1,0,0:0:0:0:
128,160,82377,1,0,0:0:0:0:
276,208,82456,1,8,0:0:0:0:
183,260,82614,1,8,0:0:0:0:
354,315,82772,1,0,0:0:0:0:
274,291,82929,1,0,0:0:0:0:
480,192,83008,1,0,0:0:0:0:
339,202,83087,1,8,0:0:0:0:
278,165,83245,1,8,0:0:0:0:
204,119,83403,1,0,0:0:0:0:
438,303,83482,1,0,0:0:0:0:
186,230,83561,1,8,0:0:0:0:
317,148,83877,1,8,0:0:0:0:
317,148,83956,1,8,0:0:0:0:
395,199,84035,1,0,0:0:0:0:
232,186,84193,1,0,0:0:0:0:
276,208,84351,1,8,0:0:0:0:
376,325,84508,1,0,0:0:0:0:
376,325,84587,1,0,0:0:0:0:
317,320,84666,1,8,0:0:0:0:
283,314,84824,1,8,0:0:0:0:
416,221,84982,1,0,0:0:0:0:
183,260,85298,1,0,0:0:0:0:
272,80,85377,1,0,0:0:0:0:
274,291,85455,1,8,0:0:0:0:
147,76,85535,1,8,0:0:0:0:
339,202,85613,1,0,0:0:0:0:
278,165,85771,1,0,0:0:0:0:
204,119,85929,1,8,0:0:0:0:
186,230,86087,1,0,0:0:0:0:
409,242,86403,1,0,0:0:0:0:
409,242,86561,1,8,0:0:0:0:
268,143,86719,1,0,0:0:0:0:
228,191,87035,1,0,0:0:0:0:
301,216,87193,1,8,0:0:0:0:
129,277,87508,5,12,0:0:0:0:
262,284,87666,1,0,0:0:0:0:
384,176,87745,1,0,0:0:0:0:
384,311,87824,1,8,0:0:0:0:
384,311,87982,1,0,0:0:0:0:
216,115,88140,1,0,0:0:0:0:
192,192,88219,1,0,0:0:0:0:
269,233,88298,1,8,0:0:0:0:
346,133,88456,1,8,0:0:0:0:
401,267,88613,1,0,0:0:0:0:
135,282,88929,5,0,0:0:0:0:
226,297,89008,1,0,0:0:0:0:
301,327,89087,1,8,0:0:0:0:
301,327,89245,1,8,0:0:0:0:
232,187,89403,1,0,0:0:0:0:
232,187,89482,1,0,0:0:0:0:
232,187,89561,1,8,0:0:0:0:
355,127,89719,1,8,0:0:0:0:
204,136,89798,1,8,0:0:0:0:
204,136,89877,1,0,0:0:0:0:
210,278,90034,1,8,0:0:0:0:
432,240,90193,1,0,0:0:0:0:
339,223,90351,1,8,0:0:0:0:
339,223,90429,1,0,0:0:0:0:
339,223,90508,1,8,0:0:0:0:
339,223,90824,1,8,0:0:0:0:
380,236,90982,1,0,0:0:0:0:
380,236,91061,1,8,0:0:0:0:
380,236,91140,1,0,0:0:0:0:
228,157,91298,1,0,0:0:0:0:
215,314,91456,1,8,0:0:0:0:
200,245,91534,1,0,0:0:0:0:
253,242,91613,1,8,0:0:0:0:
367,304,91771,1,0,0:0:0:0:
144,96,91929,1,0,0:0:0:0:
288,240,92008,1,0,0:0:0:0:
317,148,92087,5,8,0:0:0:0:
232,186,92403,1,0,0:0:0:0:
128,160,92482,1,8,0:0:0:0:
276,208,92561,1,0,0:0:0:0:
183,260,92719,1,8,0:0:0:0:
354,315,92877,1,0,0:0:0:0:
274,291,93034,1,0,0:0:0:0:
480,192,93113,1,0,0:0:0:0:
339,202,93192,1,8,0:0:0:0:
278,165,93350,1,8,0:0:0:0:
204,119,93508,1,0,0:0:0:0:
438,303,93587,1,0,0:0:0:0:
186,230,93666,1,8,0:0:0:0:
317,148,93982,1,8,0:0:0:0:
317,148,94061,1,8,0:0:0:0:
395,199,94140,1,0,0:0:0:0:
232,186,94298,1,0,0:0:0:0:
276,208,94456,1,8,0:0:0:0:
376,325,94613,1,0,0:0:0:0:
376,325,94692,1,0,0:0:0:0:
317,320,94771,1,8,0:0:0:0:
283,314,94929,1,8,0:0:0:0:
416,221,95087,1,0,0:0:0:0:
183,260,95403,1,8,0:0:0:0:
272,80,95482,1,8,0:0:0:0:
274,291,95560,1,0,0:0:0:0:
147,76,95640,1,0,0:0:0:0:
339,202,95719,1,8,0:0:0:0:
278,165,95876,1,0,0:0:0:0:
204,119,96034,1,8,0:0:0:0:
186,230,96192,5,0,0:0:0:0:
300,210,96666,5,8,0:0:0:0:
226,214,96824,1,0,0:0:0:0:
383,193,97140,1,0,0:0:0:0:
320,157,97298,1,8,0:0:0:0:
99,109,97614,5,4,0:0:0:0:
168,111,97771,1,0,0:0:0:0:
203,112,97850,1,0,0:0:0:0:
329,304,97929,1,0,0:0:0:0:
391,299,98087,1,8,0:0:0:0:
326,227,98245,1,0,0:0:0:0:
341,188,98403,1,8,0:0:0:0:
341,188,98482,1,8,0:0:0:0:
376,198,98561,1,0,0:0:0:0:
346,251,98719,1,0,0:0:0:0:
187,299,99035,5,0,0:0:0:0:
297,308,99193,1,8,0:0:0:0:
290,132,99272,1,8,0:0:0:0:
290,132,99351,1,0,0:0:0:0:
219,176,99508,1,0,0:0:0:0:
221,179,99666,1,8,0:0:0:0:
221,181,99745,1,8,0:0:0:0:
287,229,99824,1,0,0:0:0:0:
355,272,99982,1,0,0:0:0:0:
355,272,100061,1,0,0:0:0:0:
355,272,100140,1,8,0:0:0:0:
153,208,100456,1,0,0:0:0:0:
235,216,100535,1,0,0:0:0:0:
235,216,100614,1,8,0:0:0:0:
336,176,100772,1,0,0:0:0:0:
361,222,100929,1,8,0:0:0:0:
361,267,101087,1,8,0:0:0:0:
209,295,101166,1,8,0:0:0:0:
361,267,101245,1,0,0:0:0:0:
250,151,101403,1,0,0:0:0:0:
347,148,101561,1,0,0:0:0:0:
347,148,101640,1,0,0:0:0:0:
347,149,101719,1,8,0:0:0:0:
347,148,101877,1,0,0:0:0:0:
386,277,102193,1,8,0:0:0:0:
386,277,102272,1,0,0:0:0:0:
389,279,102351,1,8,0:0:0:0:
389,279,102508,1,0,0:0:0:0:
389,279,102587,1,0,0:0:0:0:
389,279,102666,1,8,0:0:0:0:
306,260,102824,1,0,0:0:0:0:
277,270,102982,1,0,0:0:0:0:
263,177,103140,1,0,0:0:0:0:
263,177,103219,1,8,0:0:0:0:
272,177,103298,1,0,0:0:0:0:
285,185,103456,1,8,0:0:0:0:
285,185,103535,1,8,0:0:0:0:
213,257,103614,1,0,0:0:0:0:
238,270,103772,1,8,0:0:0:0:
325,147,103929,1,0,0:0:0:0:
211,135,104245,1,8,0:0:0:0:
317,274,104324,1,0,0:0:0:0:
308,205,104403,1,8,0:0:0:0:
237,241,104561,1,0,0:0:0:0:
212,301,104719,1,8,0:0:0:0:
212,301,104798,1,8,0:0:0:0:
239,311,104877,1,0,0:0:0:0:
330,314,105035,1,0,0:0:0:0:
330,314,105114,1,0,0:0:0:0:
353,319,105193,1,8,0:0:0:0:
336,222,105508,1,8,0:0:0:0:
336,222,105587,1,8,0:0:0:0:
336,222,105666,1,0,0:0:0:0:
336,222,105745,1,0,0:0:0:0:
373,267,105824,1,8,0:0:0:0:
373,267,105982,1,0,0:0:0:0:
250,237,106140,1,8,0:0:0:0:
250,237,106298,1,0,0:0:0:0:
250,237,106614,1,0,0:0:0:0:
250,237,106772,1,8,0:0:0:0:
250,237,106929,1,0,0:0:0:0:
386,226,107245,1,0,0:0:0:0:
386,226,107403,1,8,0:0:0:0:
386,226,107719,1,4,0:0:0:0:
233,172,108035,1,8,0:0:0:0:
283,240,108193,1,0,0:0:0:0:
251,264,108982,1,0,0:0:0:0:
263,275,109298,1,8,0:0:0:0:
347,171,109456,1,0,0:0:0:0:
300,190,109772,1,0,0:0:0:0:
358,263,110087,1,8,0:0:0:0:
230,252,110245,1,0,0:0:0:0:
274,305,110561,1,8,0:0:0:0:
294,175,110719,1,0,0:0:0:0:
434,306,111508,1,0,0:0:0:0:
320,257,111824,1,8,0:0:0:0:
320,257,111982,1,0,0:0:0:0:
320,257,112298,1,0,0:0:0:0:
320,257,112614,1,8,0:0:0:0:
320,257,112772,1,0,0:0:0:0:
255,231,113087,1,0,0:0:0:0:
366,194,113245,1,8,0:0:0:0:
385,265,113403,1,0,0:0:0:0:
385,265,113719,1,0,0:0:0:0:
220,105,113877,1,8,0:0:0:0:
313,186,114035,1,0,0:0:0:0:
313,186,114114,1,0,0:0:0:0:
313,186,114193,1,0,0:0:0:0:
379,267,114351,1,8,0:0:0:0:
240,328,114509,1,0,0:0:0:0:
240,328,114588,1,0,0:0:0:0:
319,341,114667,1,0,0:0:0:0:
210,253,114825,1,8,0:0:0:0:
205,95,114982,1,0,0:0:0:0:
205,95,115061,1,0,0:0:0:0:
205,95,115140,1,8,0:0:0:0:
418,238,115298,1,0,0:0:0:0:
502,256,115535,1,8,0:0:0:0:
480,352,115614,1,8,0:0:0:0:
280,237,115772,1,0,0:0:0:0:
356,312,116008,1,0,0:0:0:0:
311,181,116087,1,0,0:0:0:0:
439,311,116245,1,8,0:0:0:0:
376,311,116561,1,0,0:0:0:0:
376,311,117035,1,0,0:0:0:0:
384,228,117351,1,0,0:0:0:0:
384,228,117429,1,0,0:0:0:0:
364,303,117508,1,8,0:0:0:0:
256,192,118140,12,0,122877,0:0:0:0:
