osu file format v14

[General]
AudioFilename: audio.mp3
AudioLeadIn: 0
PreviewTime: 67258
Countdown: 0
SampleSet: Normal
StackLeniency: 0.7
Mode: 1
LetterboxInBreaks: 0
WidescreenStoryboard: 1

[Editor]
Bookmarks: 6666,11719,14245,16772,25614,26877,36982,47087,57193,62245,67298,107719
DistanceSpacing: 2
BeatDivisor: 4
GridSize: 16
TimelineZoom: 1.7

[Metadata]
Title:Phi
TitleUnicode:Φ
Artist:Street
ArtistUnicode:Street
Creator:GIGACHAD
Version:Inner Oni
Source:Muse Dash
Tags:featured artist fa mg mapper's mappers' mappers guild _dusk_ -dusk yenmaster dako electronic instrumental 音ゲー依存症Vol.8 give up treatment volume eight osu!
BeatmapID:2942409
BeatmapSetID:1429217

[Difficulty]
HPDrainRate:6
CircleSize:2
OverallDifficulty:5.5
ApproachRate:9.6
SliderMultiplier:1.4
SliderTickRate:1

[Events]
//Background and Video events
0,0,"kevin-laminto-7PqRZK6rbaE-unsplash.jpg",0,0
//Break Periods
//Storyboard Layer 0 (Background)
//Storyboard Layer 1 (Fail)
//Storyboard Layer 2 (Pass)
//Storyboard Layer 3 (Foreground)
//Storyboard Layer 4 (Overlay)
//Storyboard Sound Samples

[TimingPoints]
351,315.789473684211,4,1,0,80,1,0
16772,-100,4,1,0,90,0,1
25614,-100,4,1,0,80,0,0
26877,-100,4,1,0,90,0,1
36982,-100,4,1,0,80,0,0
67298,-100,4,1,0,90,0,1
76614,-100,4,1,0,90,0,0
77403,-100,4,1,0,90,0,1
96824,-100,4,1,0,90,0,0
97614,-100,4,1,0,90,0,1
107719,-100,4,1,0,80,0,0
118061,-100,4,1,0,25,0,0
119087,-100,4,1,0,20,0,0
120351,-100,4,1,0,15,0,0
121614,-100,4,1,0,20,0,0

[HitObjects]
220,248,6666,5,0,0:0:0:0:
302,213,6982,1,8,0:0:0:0:
331,157,7140,1,0,0:0:0:0:
307,293,7929,1,0,0:0:0:0:
267,212,8245,1,8,0:0:0:0:
165,255,8403,1,0,0:0:0:0:
168,184,8719,1,0,0:0:0:0:
200,174,9035,1,8,0:0:0:0:
381,176,9193,1,0,0:0:0:0:
326,261,9508,1,8,0:0:0:0:
243,281,9666,1,0,0:0:0:0:
286,200,10456,1,0,0:0:0:0:
381,166,10772,1,8,0:0:0:0:
181,239,10929,1,0,0:0:0:0:
181,148,11245,1,0,0:0:0:0:
337,299,11561,1,8,0:0:0:0:
337,299,11719,1,0,0:0:0:0:
238,183,12035,1,0,0:0:0:0:
434,232,12193,1,8,0:0:0:0:
238,183,12351,1,0,0:0:0:0:
238,183,12666,1,0,0:0:0:0:
501,279,12824,1,8,0:0:0:0:
313,186,12982,1,0,0:0:0:0:
313,186,13061,1,0,0:0:0:0:
313,186,13140,1,0,0:0:0:0:
313,186,13219,1,0,0:0:0:0:
379,267,13298,1,8,0:0:0:0:
240,328,13456,1,0,0:0:0:0:
240,328,13535,1,0,0:0:0:0:
319,341,13614,1,8,0:0:0:0:
319,341,13693,1,0,0:0:0:0:
210,253,13772,1,8,0:0:0:0:
205,95,13929,1,0,0:0:0:0:
205,95,14008,1,0,0:0:0:0:
205,95,14087,1,8,0:0:0:0:
418,238,14245,1,0,0:0:0:0:
150,277,14482,1,0,0:0:0:0:
340,173,14561,1,0,0:0:0:0:
496,265,14719,1,8,0:0:0:0:
150,277,14956,1,0,0:0:0:0:
255,282,15035,1,0,0:0:0:0:
353,229,15193,1,8,0:0:0:0:
431,311,15351,1,8,0:0:0:0:
377,243,15508,1,0,0:0:0:0:
183,200,15982,1,8,0:0:0:0:
252,281,16298,1,0,0:0:0:0:
455,319,16456,1,8,0:0:0:0:
108,229,16614,1,8,0:0:0:0:
356,214,16772,1,0,0:0:0:0:
387,309,16851,1,0,0:0:0:0:
322,191,16929,1,8,0:0:0:0:
204,300,17008,1,8,0:0:0:0:
308,333,17087,1,0,0:0:0:0:
308,333,17245,1,0,0:0:0:0:
308,333,17324,1,0,0:0:0:0:
273,144,17403,1,8,0:0:0:0:
281,143,17561,1,8,0:0:0:0:
281,143,17640,1,8,0:0:0:0:
308,149,17719,1,0,0:0:0:0:
143,222,17877,1,8,0:0:0:0:
407,241,18035,1,0,0:0:0:0:
407,241,18114,1,0,0:0:0:0:
264,227,18193,1,8,0:0:0:0:
359,230,18272,1,0,0:0:0:0:
420,245,18351,1,8,0:0:0:0:
327,118,18429,1,8,0:0:0:0:
337,331,18508,1,8,0:0:0:0:
423,328,18666,1,0,0:0:0:0:
188,124,18745,1,0,0:0:0:0:
123,258,18824,1,0,0:0:0:0:
123,258,18903,1,8,0:0:0:0:
208,319,18982,1,0,0:0:0:0:
286,77,19140,1,8,0:0:0:0:
377,268,19298,1,0,0:0:0:0:
73,135,19377,1,8,0:0:0:0:
84,147,19456,1,0,0:0:0:0:
84,148,19535,1,8,0:0:0:0:
253,124,19614,1,0,0:0:0:0:
270,171,19693,1,0,0:0:0:0:
267,247,19772,1,0,0:0:0:0:
209,239,19929,1,0,0:0:0:0:
198,248,20008,1,8,0:0:0:0:
207,275,20087,1,8,0:0:0:0:
175,226,20166,1,0,0:0:0:0:
177,183,20245,1,8,0:0:0:0:
484,328,20403,1,0,0:0:0:0:
308,333,20561,1,0,0:0:0:0:
308,333,20640,1,0,0:0:0:0:
308,333,20719,1,8,0:0:0:0:
308,333,20798,1,8,0:0:0:0:
273,144,20877,1,0,0:0:0:0:
273,144,20956,1,0,0:0:0:0:
281,143,21035,1,8,0:0:0:0:
308,149,21193,1,0,0:0:0:0:
149,109,21272,1,0,0:0:0:0:
143,222,21351,1,0,0:0:0:0:
206,44,21429,1,8,0:0:0:0:
407,241,21509,1,0,0:0:0:0:
264,227,21667,1,8,0:0:0:0:
287,75,21824,1,0,0:0:0:0:
287,75,21903,1,0,0:0:0:0:
443,193,21982,1,0,0:0:0:0:
337,331,22061,1,8,0:0:0:0:
423,328,22140,1,0,0:0:0:0:
144,231,22219,1,8,0:0:0:0:
145,231,22298,1,0,0:0:0:0:
317,239,22456,1,8,0:0:0:0:
317,239,22535,1,8,0:0:0:0:
317,239,22614,1,0,0:0:0:0:
404,259,22693,1,8,0:0:0:0:
403,243,22772,1,0,0:0:0:0:
395,226,22929,1,8,0:0:0:0:
395,226,23087,1,0,0:0:0:0:
248,317,23166,1,0,0:0:0:0:
248,317,23245,1,0,0:0:0:0:
248,317,23324,1,0,0:0:0:0:
321,289,23403,1,8,0:0:0:0:
321,289,23482,1,0,0:0:0:0:
330,290,23561,1,8,0:0:0:0:
237,149,23719,1,0,0:0:0:0:
455,337,23798,1,0,0:0:0:0:
382,197,23877,1,0,0:0:0:0:
382,197,23956,1,8,0:0:0:0:
426,255,24035,1,0,0:0:0:0:
250,271,24193,1,0,0:0:0:0:
146,175,24351,1,0,0:0:0:0:
361,126,24429,1,8,0:0:0:0:
361,126,24508,1,8,0:0:0:0:
361,126,24587,1,8,0:0:0:0:
364,132,24666,1,0,0:0:0:0:
305,173,24745,1,8,0:0:0:0:
311,225,24824,1,0,0:0:0:0:
214,91,24982,1,8,0:0:0:0:
225,306,25061,1,8,0:0:0:0:
174,268,25140,1,0,0:0:0:0:
174,268,25219,1,0,0:0:0:0:
206,206,25298,1,8,0:0:0:0:
124,197,25456,1,8,0:0:0:0:
349,245,25614,1,4,0:0:0:0:
276,93,25929,1,8,0:0:0:0:
282,149,26087,1,0,0:0:0:0:
263,218,26403,1,0,0:0:0:0:
184,220,26561,1,8,0:0:0:0:
269,288,26719,1,0,0:0:0:0:
300,114,26877,1,8,0:0:0:0:
390,266,27035,1,0,0:0:0:0:
300,243,27193,1,8,0:0:0:0:
300,243,27272,1,8,0:0:0:0:
300,243,27351,1,0,0:0:0:0:
470,238,27429,1,8,0:0:0:0:
470,238,27508,1,0,0:0:0:0:
208,66,27666,1,0,0:0:0:0:
109,129,27745,1,8,0:0:0:0:
204,253,27824,1,0,0:0:0:0:
311,213,27982,1,8,0:0:0:0:
346,261,28140,1,0,0:0:0:0:
306,176,28219,1,0,0:0:0:0:
303,126,28298,1,8,0:0:0:0:
308,139,28377,1,0,0:0:0:0:
376,159,28456,1,8,0:0:0:0:
228,227,28535,1,8,0:0:0:0:
144,176,28614,1,0,0:0:0:0:
230,142,28772,1,0,0:0:0:0:
406,280,28851,1,0,0:0:0:0:
362,291,28929,1,0,0:0:0:0:
362,291,29008,1,0,0:0:0:0:
362,291,29087,1,8,0:0:0:0:
257,283,29245,1,8,0:0:0:0:
307,160,29403,1,8,0:0:0:0:
438,187,29482,1,8,0:0:0:0:
378,91,29561,1,0,0:0:0:0:
256,82,29640,1,0,0:0:0:0:
472,280,29719,1,8,0:0:0:0:
472,280,29798,1,8,0:0:0:0:
472,280,29877,1,0,0:0:0:0:
377,253,30035,1,0,0:0:0:0:
261,300,30114,1,0,0:0:0:0:
183,207,30193,1,0,0:0:0:0:
270,217,30272,1,8,0:0:0:0:
185,143,30351,1,0,0:0:0:0:
275,150,30508,1,0,0:0:0:0:
359,167,30666,1,0,0:0:0:0:
426,313,30745,1,0,0:0:0:0:
107,314,30824,1,8,0:0:0:0:
306,269,30903,1,0,0:0:0:0:
367,288,30982,1,8,0:0:0:0:
149,238,31061,1,0,0:0:0:0:
136,237,31140,1,8,0:0:0:0:
136,237,31298,1,0,0:0:0:0:
315,170,31377,1,0,0:0:0:0:
219,162,31456,1,8,0:0:0:0:
280,284,31535,1,8,0:0:0:0:
280,284,31614,1,0,0:0:0:0:
350,278,31772,1,8,0:0:0:0:
365,280,31929,1,8,0:0:0:0:
384,197,32008,1,8,0:0:0:0:
204,229,32087,1,0,0:0:0:0:
204,229,32166,1,8,0:0:0:0:
204,229,32245,1,0,0:0:0:0:
281,214,32324,1,0,0:0:0:0:
248,163,32403,1,0,0:0:0:0:
168,158,32561,1,8,0:0:0:0:
168,158,32640,1,8,0:0:0:0:
161,193,32719,1,0,0:0:0:0:
349,303,32798,1,8,0:0:0:0:
340,304,32877,1,0,0:0:0:0:
50,226,33035,1,8,0:0:0:0:
271,239,33193,1,0,0:0:0:0:
271,241,33272,1,0,0:0:0:0:
271,241,33351,1,0,0:0:0:0:
424,295,33429,1,0,0:0:0:0:
326,169,33508,1,8,0:0:0:0:
202,150,33587,1,0,0:0:0:0:
202,150,33666,1,8,0:0:0:0:
248,286,33824,1,0,0:0:0:0:
142,267,33903,1,0,0:0:0:0:
142,267,33982,1,0,0:0:0:0:
426,151,34061,1,8,0:0:0:0:
330,88,34140,1,0,0:0:0:0:
224,92,34298,1,8,0:0:0:0:
357,211,34456,1,0,0:0:0:0:
276,236,34535,1,0,0:0:0:0:
331,257,34614,1,0,0:0:0:0:
331,257,34693,1,8,0:0:0:0:
331,257,34772,1,0,0:0:0:0:
406,349,34851,1,0,0:0:0:0:
178,319,34929,1,8,0:0:0:0:
178,319,35087,1,0,0:0:0:0:
110,283,35166,1,0,0:0:0:0:
162,231,35245,1,8,0:0:0:0:
211,227,35324,1,0,0:0:0:0:
195,166,35403,1,8,0:0:0:0:
262,153,35561,1,0,0:0:0:0:
295,238,35719,1,8,0:0:0:0:
295,238,35798,1,8,0:0:0:0:
295,238,35877,1,0,0:0:0:0:
295,238,35956,1,0,0:0:0:0:
201,255,36035,1,8,0:0:0:0:
207,263,36114,1,0,0:0:0:0:
288,305,36193,1,8,0:0:0:0:
269,152,36351,1,0,0:0:0:0:
284,147,36429,1,0,0:0:0:0:
284,147,36508,1,8,0:0:0:0:
284,147,36587,1,8,0:0:0:0:
418,271,36666,1,0,0:0:0:0:
418,271,36824,1,8,0:0:0:0:
418,271,36982,1,4,0:0:0:0:
295,290,37456,1,8,0:0:0:0:
309,168,37929,1,0,0:0:0:0:
220,276,38403,1,8,0:0:0:0:
318,264,38877,1,8,0:0:0:0:
391,214,39193,1,8,0:0:0:0:
199,291,39508,1,0,0:0:0:0:
294,224,39982,1,8,0:0:0:0:
288,218,40456,1,0,0:0:0:0:
262,119,40929,1,8,0:0:0:0:
351,250,41403,1,0,0:0:0:0:
289,275,41719,1,0,0:0:0:0:
190,240,42035,1,8,0:0:0:0:
282,230,42508,1,0,0:0:0:0:
273,126,42982,1,8,0:0:0:0:
209,186,43456,1,0,0:0:0:0:
349,227,43929,1,8,0:0:0:0:
349,227,44245,1,8,0:0:0:0:
268,271,44561,1,0,0:0:0:0:
156,240,45035,1,0,0:0:0:0:
166,268,45508,1,0,0:0:0:0:
218,256,45982,1,0,0:0:0:0:
276,187,46456,1,0,0:0:0:0:
421,302,46772,1,8,0:0:0:0:
310,341,46929,1,0,0:0:0:0:
229,257,47087,1,8,0:0:0:0:
126,218,47561,1,0,0:0:0:0:
317,273,47877,1,0,0:0:0:0:
282,186,48035,1,8,0:0:0:0:
396,217,48351,1,8,0:0:0:0:
388,222,48508,1,0,0:0:0:0:
360,210,48982,1,0,0:0:0:0:
266,175,49140,1,8,0:0:0:0:
266,175,49298,1,8,0:0:0:0:
400,293,49456,1,0,0:0:0:0:
396,217,49614,1,8,0:0:0:0:
360,210,50087,1,0,0:0:0:0:
266,175,50245,1,0,0:0:0:0:
229,281,50403,1,8,0:0:0:0:
266,175,50561,1,0,0:0:0:0:
400,293,50719,1,0,0:0:0:0:
196,95,50877,1,8,0:0:0:0:
346,192,51035,1,0,0:0:0:0:
126,218,51508,1,0,0:0:0:0:
431,131,51666,1,0,0:0:0:0:
317,273,51824,1,8,0:0:0:0:
282,186,51982,1,0,0:0:0:0:
396,217,52141,1,8,0:0:0:0:
257,248,52614,1,0,0:0:0:0:
329,295,53087,1,0,0:0:0:0:
329,295,53245,1,0,0:0:0:0:
136,110,53403,1,8,0:0:0:0:
316,157,53561,1,8,0:0:0:0:
240,175,53719,1,0,0:0:0:0:
357,231,54035,1,0,0:0:0:0:
360,251,54351,1,8,0:0:0:0:
207,270,54508,1,8,0:0:0:0:
207,270,54666,1,0,0:0:0:0:
271,197,54824,1,0,0:0:0:0:
242,157,54982,1,8,0:0:0:0:
306,178,55140,1,0,0:0:0:0:
342,234,55456,1,0,0:0:0:0:
318,193,55614,1,8,0:0:0:0:
317,191,55772,1,8,0:0:0:0:
293,251,55929,1,0,0:0:0:0:
293,251,56008,1,0,0:0:0:0:
293,251,56087,1,8,0:0:0:0:
367,282,56245,1,0,0:0:0:0:
224,283,56403,1,0,0:0:0:0:
224,283,56482,1,0,0:0:0:0:
224,283,56561,1,8,0:0:0:0:
398,215,56719,1,8,0:0:0:0:
398,215,56798,1,8,0:0:0:0:
398,215,56877,1,0,0:0:0:0:
155,161,56956,1,0,0:0:0:0:
271,250,57035,1,8,0:0:0:0:
258,181,57193,1,4,0:0:0:0:
302,213,57508,1,8,0:0:0:0:
331,157,57666,1,0,0:0:0:0:
307,293,58455,1,0,0:0:0:0:
267,212,58771,1,8,0:0:0:0:
165,255,58929,1,0,0:0:0:0:
168,184,59245,1,8,0:0:0:0:
200,174,59561,1,8,0:0:0:0:
381,176,59719,1,0,0:0:0:0:
326,261,60034,1,8,0:0:0:0:
243,281,60192,1,0,0:0:0:0:
286,200,60982,1,0,0:0:0:0:
381,166,61298,1,8,0:0:0:0:
181,239,61455,1,0,0:0:0:0:
181,148,61771,1,0,0:0:0:0:
337,299,61929,1,8,0:0:0:0:
337,299,62245,1,0,0:0:0:0:
238,183,62561,1,0,0:0:0:0:
434,232,62719,1,8,0:0:0:0:
238,183,62877,1,0,0:0:0:0:
361,222,63193,1,0,0:0:0:0:
180,69,63508,1,8,0:0:0:0:
180,69,63666,1,0,0:0:0:0:
307,72,63824,1,0,0:0:0:0:
307,72,63982,1,8,0:0:0:0:
327,187,64140,1,0,0:0:0:0:
327,187,64219,1,0,0:0:0:0:
327,187,64298,1,8,0:0:0:0:
327,187,64377,1,8,0:0:0:0:
327,187,64456,1,0,0:0:0:0:
327,187,64535,1,0,0:0:0:0:
299,262,64614,1,0,0:0:0:0:
208,325,64693,1,0,0:0:0:0:
361,273,64772,1,8,0:0:0:0:
246,123,65245,1,0,0:0:0:0:
273,271,65403,1,0,0:0:0:0:
272,234,65561,1,8,0:0:0:0:
176,224,65719,1,0,0:0:0:0:
176,224,65877,1,8,0:0:0:0:
256,192,66035,12,0,66824,0:0:0:0:
367,247,66982,5,12,0:0:0:0:
285,146,67298,5,8,0:0:0:0:
286,153,67377,1,8,0:0:0:0:
286,157,67456,1,8,0:0:0:0:
286,155,67535,1,8,0:0:0:0:
104,115,67614,1,0,0:0:0:0:
173,114,67771,1,8,0:0:0:0:
208,113,67850,1,0,0:0:0:0:
386,254,67929,1,8,0:0:0:0:
241,285,68087,1,8,0:0:0:0:
298,290,68166,1,8,0:0:0:0:
311,295,68245,1,0,0:0:0:0:
424,170,68324,1,0,0:0:0:0:
375,124,68403,1,8,0:0:0:0:
272,173,68561,1,0,0:0:0:0:
396,260,68719,1,0,0:0:0:0:
330,138,68798,1,8,0:0:0:0:
189,177,68877,1,0,0:0:0:0:
266,72,68956,1,0,0:0:0:0:
266,72,69035,1,8,0:0:0:0:
471,219,69193,1,0,0:0:0:0:
302,289,69272,1,8,0:0:0:0:
327,192,69351,1,0,0:0:0:0:
362,115,69508,1,8,0:0:0:0:
133,149,69587,1,8,0:0:0:0:
420,227,69666,1,0,0:0:0:0:
420,227,69745,1,0,0:0:0:0:
216,181,69824,1,8,0:0:0:0:
246,282,69982,1,0,0:0:0:0:
353,304,70140,1,8,0:0:0:0:
345,243,70219,1,0,0:0:0:0:
425,301,70298,1,8,0:0:0:0:
425,301,70377,1,8,0:0:0:0:
425,301,70456,1,0,0:0:0:0:
351,146,70614,1,8,0:0:0:0:
233,195,70693,1,0,0:0:0:0:
457,187,70772,1,8,0:0:0:0:
457,187,70929,1,0,0:0:0:0:
353,304,71008,1,8,0:0:0:0:
279,297,71087,1,0,0:0:0:0:
106,142,71245,1,0,0:0:0:0:
106,142,71324,1,0,0:0:0:0:
153,121,71403,1,8,0:0:0:0:
153,121,71482,1,8,0:0:0:0:
153,121,71561,1,0,0:0:0:0:
296,197,71719,1,8,0:0:0:0:
250,214,71798,1,0,0:0:0:0:
286,138,71877,1,8,0:0:0:0:
364,133,71956,1,8,0:0:0:0:
369,137,72035,1,0,0:0:0:0:
420,232,72193,1,0,0:0:0:0:
427,313,72351,1,8,0:0:0:0:
258,328,72429,1,8,0:0:0:0:
189,275,72508,1,8,0:0:0:0:
200,262,72587,1,0,0:0:0:0:
291,243,72666,1,8,0:0:0:0:
291,243,72824,1,0,0:0:0:0:
399,135,72903,1,0,0:0:0:0:
401,142,72982,1,8,0:0:0:0:
174,76,73061,1,8,0:0:0:0:
202,145,73140,1,0,0:0:0:0:
308,128,73298,1,8,0:0:0:0:
382,291,73456,1,0,0:0:0:0:
382,291,73535,1,8,0:0:0:0:
382,291,73614,1,0,0:0:0:0:
424,223,73772,1,0,0:0:0:0:
424,223,73851,1,0,0:0:0:0:
261,231,73929,1,8,0:0:0:0:
177,187,74008,1,8,0:0:0:0:
332,243,74087,1,0,0:0:0:0:
290,154,74245,1,0,0:0:0:0:
338,92,74403,1,8,0:0:0:0:
371,113,74482,1,8,0:0:0:0:
371,113,74561,1,0,0:0:0:0:
294,298,74719,1,0,0:0:0:0:
468,201,74798,1,0,0:0:0:0:
408,310,74877,1,8,0:0:0:0:
188,217,75035,1,0,0:0:0:0:
188,217,75193,1,0,0:0:0:0:
181,95,75272,1,0,0:0:0:0:
283,132,75351,1,8,0:0:0:0:
283,132,75508,1,0,0:0:0:0:
303,204,75587,1,8,0:0:0:0:
345,204,75666,1,0,0:0:0:0:
346,301,75824,1,8,0:0:0:0:
238,250,75982,1,0,0:0:0:0:
294,312,76456,1,8,0:0:0:0:
436,296,76614,1,0,0:0:0:0:
226,167,76929,1,0,0:0:0:0:
306,175,77087,1,8,0:0:0:0:
129,277,77403,1,8,0:0:0:0:
129,277,77482,1,8,0:0:0:0:
262,284,77561,1,0,0:0:0:0:
262,284,77640,1,8,0:0:0:0:
384,311,77719,1,0,0:0:0:0:
384,311,77877,1,8,0:0:0:0:
384,311,77956,1,8,0:0:0:0:
216,115,78035,1,0,0:0:0:0:
269,233,78193,1,0,0:0:0:0:
287,242,78272,1,8,0:0:0:0:
346,133,78351,1,0,0:0:0:0:
356,141,78429,1,0,0:0:0:0:
401,267,78508,1,8,0:0:0:0:
401,267,78666,1,0,0:0:0:0:
135,282,78824,1,0,0:0:0:0:
226,297,78903,1,8,0:0:0:0:
301,327,78982,1,0,0:0:0:0:
301,327,79061,1,0,0:0:0:0:
301,327,79140,1,8,0:0:0:0:
232,187,79298,1,0,0:0:0:0:
232,187,79377,1,0,0:0:0:0:
232,187,79456,1,8,0:0:0:0:
355,127,79614,1,8,0:0:0:0:
204,136,79693,1,8,0:0:0:0:
204,136,79772,1,0,0:0:0:0:
210,278,79929,1,8,0:0:0:0:
342,209,80087,1,0,0:0:0:0:
339,223,80166,1,0,0:0:0:0:
339,223,80245,1,8,0:0:0:0:
339,223,80324,1,8,0:0:0:0:
339,223,80403,1,0,0:0:0:0:
339,223,80561,1,0,0:0:0:0:
339,223,80640,1,0,0:0:0:0:
339,223,80719,1,8,0:0:0:0:
380,236,80877,1,0,0:0:0:0:
380,236,80956,1,8,0:0:0:0:
380,236,81035,1,0,0:0:0:0:
228,157,81193,1,0,0:0:0:0:
215,314,81351,1,0,0:0:0:0:
200,245,81429,1,8,0:0:0:0:
253,242,81508,1,8,0:0:0:0:
253,242,81587,1,0,0:0:0:0:
367,304,81666,1,8,0:0:0:0:
367,304,81824,1,0,0:0:0:0:
317,148,81982,1,8,0:0:0:0:
317,148,82061,1,8,0:0:0:0:
395,199,82140,1,0,0:0:0:0:
342,234,82219,1,0,0:0:0:0:
232,186,82298,1,0,0:0:0:0:
276,208,82456,1,8,0:0:0:0:
354,315,82614,1,0,0:0:0:0:
354,315,82693,1,0,0:0:0:0:
183,260,82772,1,8,0:0:0:0:
274,291,82851,1,8,0:0:0:0:
274,291,82929,1,0,0:0:0:0:
339,202,83087,1,0,0:0:0:0:
340,201,83166,1,0,0:0:0:0:
278,165,83245,1,8,0:0:0:0:
204,119,83403,1,0,0:0:0:0:
438,303,83482,1,0,0:0:0:0:
186,230,83561,1,8,0:0:0:0:
213,246,83719,1,0,0:0:0:0:
317,148,83877,1,8,0:0:0:0:
317,148,83956,1,8,0:0:0:0:
395,199,84035,1,0,0:0:0:0:
342,234,84114,1,8,0:0:0:0:
232,186,84193,1,0,0:0:0:0:
276,208,84351,1,8,0:0:0:0:
376,325,84508,1,0,0:0:0:0:
376,325,84587,1,0,0:0:0:0:
317,320,84666,1,8,0:0:0:0:
224,291,84745,1,8,0:0:0:0:
283,314,84824,1,8,0:0:0:0:
416,221,84982,1,0,0:0:0:0:
354,315,85140,1,8,0:0:0:0:
354,315,85219,1,8,0:0:0:0:
183,260,85298,1,0,0:0:0:0:
274,291,85455,1,8,0:0:0:0:
147,76,85535,1,0,0:0:0:0:
339,202,85613,1,8,0:0:0:0:
278,165,85771,1,0,0:0:0:0:
369,118,85851,1,0,0:0:0:0:
204,119,85929,1,8,0:0:0:0:
186,230,86087,1,0,0:0:0:0:
409,242,86403,1,0,0:0:0:0:
409,242,86561,1,8,0:0:0:0:
268,143,86719,1,0,0:0:0:0:
228,191,87035,1,0,0:0:0:0:
301,216,87193,1,8,0:0:0:0:
211,274,87508,1,0,0:0:0:0:
380,128,87587,1,0,0:0:0:0:
129,277,87666,1,8,0:0:0:0:
129,277,87745,1,8,0:0:0:0:
262,284,87824,1,0,0:0:0:0:
384,311,87982,1,8,0:0:0:0:
370,211,88061,1,8,0:0:0:0:
384,311,88140,1,0,0:0:0:0:
384,311,88219,1,8,0:0:0:0:
216,115,88298,1,0,0:0:0:0:
269,233,88456,1,8,0:0:0:0:
287,242,88535,1,8,0:0:0:0:
346,133,88614,1,0,0:0:0:0:
356,141,88692,1,0,0:0:0:0:
401,267,88771,1,8,0:0:0:0:
401,267,88929,1,0,0:0:0:0:
291,305,89087,1,8,0:0:0:0:
241,189,89166,1,0,0:0:0:0:
397,303,89245,1,8,0:0:0:0:
230,78,89324,1,8,0:0:0:0:
319,214,89403,1,0,0:0:0:0:
319,214,89561,1,8,0:0:0:0:
319,214,89640,1,8,0:0:0:0:
226,249,89719,1,0,0:0:0:0:
167,164,89877,1,8,0:0:0:0:
167,164,89956,1,8,0:0:0:0:
167,164,90035,1,0,0:0:0:0:
296,145,90193,1,0,0:0:0:0:
296,145,90351,1,8,0:0:0:0:
346,152,90429,1,0,0:0:0:0:
346,152,90508,1,8,0:0:0:0:
351,259,90587,1,8,0:0:0:0:
343,281,90666,1,0,0:0:0:0:
296,145,90824,1,8,0:0:0:0:
296,145,90903,1,8,0:0:0:0:
296,145,90982,1,0,0:0:0:0:
346,152,91061,1,8,0:0:0:0:
346,152,91139,1,0,0:0:0:0:
343,281,91298,1,8,0:0:0:0:
233,278,91456,1,0,0:0:0:0:
233,278,91535,1,0,0:0:0:0:
195,222,91614,1,8,0:0:0:0:
195,222,91693,1,8,0:0:0:0:
205,228,91772,1,0,0:0:0:0:
248,142,91929,1,0,0:0:0:0:
264,145,92008,1,0,0:0:0:0:
341,178,92087,1,8,0:0:0:0:
345,286,92166,1,0,0:0:0:0:
288,308,92245,1,8,0:0:0:0:
376,325,92403,1,8,0:0:0:0:
376,325,92482,1,8,0:0:0:0:
317,320,92561,1,0,0:0:0:0:
283,314,92719,1,8,0:0:0:0:
416,221,92877,1,0,0:0:0:0:
213,120,92956,1,0,0:0:0:0:
293,179,93035,1,8,0:0:0:0:
305,187,93114,1,8,0:0:0:0:
346,192,93193,1,0,0:0:0:0:
436,302,93351,1,0,0:0:0:0:
440,327,93429,1,0,0:0:0:0:
418,328,93508,1,8,0:0:0:0:
259,281,93666,1,0,0:0:0:0:
258,281,93745,1,8,0:0:0:0:
327,271,93824,1,0,0:0:0:0:
351,206,93982,1,0,0:0:0:0:
351,206,94061,1,8,0:0:0:0:
351,207,94140,1,0,0:0:0:0:
243,189,94219,1,0,0:0:0:0:
233,96,94298,1,8,0:0:0:0:
163,238,94456,1,0,0:0:0:0:
347,119,94614,1,8,0:0:0:0:
347,119,94693,1,8,0:0:0:0:
375,75,94772,1,0,0:0:0:0:
365,247,94929,1,0,0:0:0:0:
271,286,95008,1,0,0:0:0:0:
268,189,95087,1,8,0:0:0:0:
216,278,95245,1,0,0:0:0:0:
234,223,95403,1,0,0:0:0:0:
155,248,95482,1,0,0:0:0:0:
211,134,95561,1,8,0:0:0:0:
211,134,95640,1,8,0:0:0:0:
211,134,95719,1,0,0:0:0:0:
234,140,95877,1,0,0:0:0:0:
278,147,95956,1,0,0:0:0:0:
350,221,96035,1,8,0:0:0:0:
398,148,96193,1,0,0:0:0:0:
226,214,96666,1,0,0:0:0:0:
300,210,96824,1,8,0:0:0:0:
383,193,97140,1,0,0:0:0:0:
320,157,97298,1,8,0:0:0:0:
99,109,97614,1,0,0:0:0:0:
133,110,97692,1,0,0:0:0:0:
168,111,97771,1,0,0:0:0:0:
203,112,97850,1,0,0:0:0:0:
329,304,97929,1,8,0:0:0:0:
391,299,98087,1,0,0:0:0:0:
238,285,98166,1,8,0:0:0:0:
326,227,98245,1,0,0:0:0:0:
341,188,98403,1,8,0:0:0:0:
341,188,98482,1,8,0:0:0:0:
376,198,98561,1,0,0:0:0:0:
346,251,98719,1,0,0:0:0:0:
255,191,98798,1,8,0:0:0:0:
329,191,98877,1,0,0:0:0:0:
187,299,99035,1,0,0:0:0:0:
168,300,99114,1,0,0:0:0:0:
297,308,99193,1,8,0:0:0:0:
290,132,99272,1,8,0:0:0:0:
290,132,99351,1,0,0:0:0:0:
219,176,99508,1,8,0:0:0:0:
219,176,99587,1,8,0:0:0:0:
221,179,99666,1,0,0:0:0:0:
221,181,99745,1,0,0:0:0:0:
287,229,99824,1,8,0:0:0:0:
355,272,99982,1,0,0:0:0:0:
355,272,100061,1,0,0:0:0:0:
355,272,100140,1,8,0:0:0:0:
224,289,100298,1,8,0:0:0:0:
153,208,100456,1,0,0:0:0:0:
235,216,100535,1,0,0:0:0:0:
235,216,100614,1,8,0:0:0:0:
340,156,100693,1,8,0:0:0:0:
336,176,100772,1,0,0:0:0:0:
361,222,100929,1,8,0:0:0:0:
355,225,101008,1,0,0:0:0:0:
361,267,101087,1,8,0:0:0:0:
361,267,101245,1,0,0:0:0:0:
361,267,101324,1,8,0:0:0:0:
250,151,101403,1,0,0:0:0:0:
347,148,101561,1,0,0:0:0:0:
347,148,101640,1,0,0:0:0:0:
347,149,101719,1,8,0:0:0:0:
347,149,101798,1,0,0:0:0:0:
347,148,101877,1,8,0:0:0:0:
376,200,102035,1,0,0:0:0:0:
386,277,102193,1,8,0:0:0:0:
386,277,102272,1,0,0:0:0:0:
389,279,102351,1,8,0:0:0:0:
389,279,102508,1,0,0:0:0:0:
389,279,102587,1,0,0:0:0:0:
389,279,102666,1,8,0:0:0:0:
306,260,102824,1,0,0:0:0:0:
277,270,102982,1,0,0:0:0:0:
279,271,103061,1,0,0:0:0:0:
263,177,103140,1,8,0:0:0:0:
263,177,103219,1,8,0:0:0:0:
272,177,103298,1,0,0:0:0:0:
285,185,103456,1,0,0:0:0:0:
285,185,103535,1,0,0:0:0:0:
213,257,103614,1,8,0:0:0:0:
238,270,103772,1,8,0:0:0:0:
238,270,103851,1,8,0:0:0:0:
325,147,103929,1,0,0:0:0:0:
211,135,104087,1,0,0:0:0:0:
211,135,104166,1,0,0:0:0:0:
211,135,104245,1,8,0:0:0:0:
317,274,104324,1,0,0:0:0:0:
308,205,104403,1,8,0:0:0:0:
237,241,104561,1,0,0:0:0:0:
212,301,104719,1,8,0:0:0:0:
212,301,104798,1,8,0:0:0:0:
239,311,104877,1,0,0:0:0:0:
330,314,105035,1,0,0:0:0:0:
330,314,105114,1,0,0:0:0:0:
353,319,105193,1,8,0:0:0:0:
336,222,105351,1,0,0:0:0:0:
336,222,105508,1,0,0:0:0:0:
336,222,105587,1,0,0:0:0:0:
336,222,105666,1,0,0:0:0:0:
336,222,105745,1,0,0:0:0:0:
373,267,105824,1,8,0:0:0:0:
373,267,105982,1,0,0:0:0:0:
179,237,106061,1,0,0:0:0:0:
250,237,106140,1,8,0:0:0:0:
250,237,106298,1,0,0:0:0:0:
250,237,106614,1,0,0:0:0:0:
250,237,106772,1,8,0:0:0:0:
250,237,106929,1,0,0:0:0:0:
386,226,107245,1,0,0:0:0:0:
386,226,107403,1,8,0:0:0:0:
386,226,107719,1,4,0:0:0:0:
233,172,108035,1,8,0:0:0:0:
283,240,108193,1,0,0:0:0:0:
251,264,108982,1,0,0:0:0:0:
263,275,109298,1,8,0:0:0:0:
347,171,109456,1,0,0:0:0:0:
300,190,109772,1,0,0:0:0:0:
358,263,110087,1,8,0:0:0:0:
230,252,110245,1,0,0:0:0:0:
274,305,110561,1,8,0:0:0:0:
294,175,110719,1,0,0:0:0:0:
434,306,111508,1,0,0:0:0:0:
320,257,111824,1,8,0:0:0:0:
320,257,111982,1,0,0:0:0:0:
320,257,112298,1,0,0:0:0:0:
320,257,112614,1,8,0:0:0:0:
320,257,112772,1,0,0:0:0:0:
255,231,113087,1,0,0:0:0:0:
366,194,113245,1,8,0:0:0:0:
385,265,113403,1,0,0:0:0:0:
385,265,113719,1,0,0:0:0:0:
220,105,113877,1,8,0:0:0:0:
198,236,114035,1,0,0:0:0:0:
232,234,114113,1,0,0:0:0:0:
267,233,114192,1,0,0:0:0:0:
302,231,114271,1,0,0:0:0:0:
351,153,114351,1,8,0:0:0:0:
198,236,114508,1,0,0:0:0:0:
232,234,114586,1,0,0:0:0:0:
267,233,114665,1,8,0:0:0:0:
302,231,114744,1,0,0:0:0:0:
351,153,114824,1,8,0:0:0:0:
235,83,114982,1,0,0:0:0:0:
235,83,115061,1,0,0:0:0:0:
235,83,115140,1,8,0:0:0:0:
420,246,115298,1,0,0:0:0:0:
342,298,115456,1,8,0:0:0:0:
342,298,115535,1,0,0:0:0:0:
351,298,115614,1,8,0:0:0:0:
280,237,115772,1,0,0:0:0:0:
179,274,116008,1,0,0:0:0:0:
311,181,116087,1,0,0:0:0:0:
439,311,116245,1,8,0:0:0:0:
376,311,116561,1,0,0:0:0:0:
376,311,117035,1,0,0:0:0:0:
384,228,117351,1,0,0:0:0:0:
384,228,117429,1,0,0:0:0:0:
364,303,117508,1,8,0:0:0:0:
256,192,118140,12,0,122877,0:0:0:0:
