osu file format v14

[General]
AudioFilename: audio.mp3
AudioLeadIn: 0
PreviewTime: 87389
Countdown: 0
SampleSet: Soft
StackLeniency: 0.2
Mode: 0
LetterboxInBreaks: 0
WidescreenStoryboard: 1

[Editor]
Bookmarks: 14662,29207,43753,58298,72844,87389,101935,116480,131026,143753,145571,174662,189207
DistanceSpacing: 1.2
BeatDivisor: 1
GridSize: 32
TimelineZoom: 1.8

[Metadata]
Title:Maritime Police
TitleUnicode:Maritime Police
Artist:Street
ArtistUnicode:Street
Creator:Mir
Version:Normal
Source:
Tags:lasse c90 toyKasket rock SunFlowers House
BeatmapID:1445845
BeatmapSetID:681410

[Difficulty]
HPDrainRate:3
CircleSize:3
OverallDifficulty:4
ApproachRate:5
SliderMultiplier:1.2
SliderTickRate:1

[Events]
//Background and Video events
0,0,"really big seagull.jpg",0,0
//Break Periods
2,116730,129876
2,174912,186239
//Storyboard Layer 0 (Background)
//Storyboard Layer 1 (Fail)
//Storyboard Layer 2 (Pass)
//Storyboard Layer 3 (Foreground)
//Storyboard Sound Samples

[TimingPoints]
167,454.545454545455,4,2,1,80,1,0
29257,-100,4,2,1,70,0,0
58348,-83.3333333333333,4,2,1,100,0,1
58576,-83.3333333333333,4,2,1,100,0,1
65621,-83.3333333333333,4,2,1,100,0,1
65849,-83.3333333333333,4,2,1,100,0,1
72894,-83.3333333333333,4,2,1,100,0,1
73122,-83.3333333333333,4,2,1,100,0,1
80167,-83.3333333333333,4,2,1,100,0,1
80395,-83.3333333333333,4,2,1,100,0,1
81076,-83.3333333333333,4,2,1,100,0,1
81303,-83.3333333333333,4,2,1,100,0,1
87439,-100,4,2,2,70,0,0
94257,-100,4,2,3,70,0,0
94371,-100,4,2,2,70,0,0
100621,-100,4,2,1,70,0,0
100773,-100,4,2,2,70,0,0
101530,-100,4,2,1,70,0,0
101644,-100,4,2,2,70,0,0
101985,-100,4,2,2,80,0,0
112894,-100,4,2,1,80,0,0
131076,-100,4,2,3,50,0,0
143689,-100,4,2,1,70,0,0
144712,-100,4,2,1,80,0,0
145621,-83.3333333333333,4,2,1,100,0,1
145849,-83.3333333333333,4,2,1,100,0,1
152894,-83.3333333333333,4,2,1,100,0,1
153122,-83.3333333333333,4,2,1,100,0,1
160167,-83.3333333333333,4,2,1,100,0,1
160394,-83.3333333333333,4,2,1,100,0,1
167440,-83.3333333333333,4,2,1,100,0,1
167668,-83.3333333333333,4,2,1,100,0,1
174030,-83.3333333333333,4,2,4,100,0,1
174712,-100,4,2,1,70,0,0
204132,454.545454545455,4,2,1,70,1,0

[Colours]
Combo1 : 228,228,228
Combo2 : 179,255,255
Combo3 : 155,200,255
Combo4 : 250,223,160

[HitObjects]
120,75,14712,6,0,L|245:78,1,120,4|8,3:2|3:2,0:0:0:0:
287,87,15394,1,0,0:2:0:0:
287,87,15621,2,0,P|295:160|265:210,1,120,0|8,3:2|3:2,0:0:0:0:
181,176,16530,2,0,L|61:178,1,120,0|8,3:2|3:2,0:0:0:0:
23,209,17212,1,0,0:2:0:0:
23,209,17439,2,0,P|15:282|45:332,1,120,0|8,3:2|3:2,0:0:0:0:
126,352,18348,6,0,B|186:359|186:359|260:338,1,120,0|8,3:2|3:2,0:0:0:0:
288,326,19030,1,0,0:2:0:0:
288,326,19257,2,0,B|345:309|345:309|405:316,1,120,0|8,3:2|3:2,0:0:0:0:
462,239,20167,2,0,L|466:100,1,120,0|8,3:2|3:2,0:0:0:0:
444,75,20848,1,0,0:2:0:0:
444,75,21076,2,0,L|371:70,1,60,0|0,3:2|0:2,0:0:0:0:
342,47,21530,2,0,L|282:51,1,60,8|0,3:2|0:2,0:0:0:0:
240,74,21985,6,0,P|130:76|103:62,1,120,0|8,3:2|3:2,0:0:0:0:
85,44,22667,1,0,0:2:0:0:
85,44,22894,2,0,L|102:176,1,120,0|8,3:2|3:2,0:0:0:0:
31,230,23803,2,0,P|80:255|162:235,1,120,0|8,3:2|3:2,0:0:0:0:
182,220,24485,1,0,0:2:0:0:
182,220,24712,2,0,P|231:195|313:215,1,120,0|8,3:2|3:2,0:0:0:0:
355,276,25621,6,0,B|414:265|414:265|479:277,1,120,4|6,3:1|3:1,0:0:0:0:
469,371,26530,2,0,B|410:381|410:381|351:370,1,120,4|6,3:1|3:1,0:0:0:0:
355,276,27439,2,0,L|266:258,1,80,4|4,3:1|0:1,0:0:0:0:
255,236,27894,2,0,L|176:251,1,80,6|4,3:1|0:1,0:0:0:0:
173,283,28348,1,0,3:2:0:0:
110,356,28803,1,8,3:2:0:0:
20,321,29257,6,0,P|4:273|29:201,1,120,4|8,3:2|3:2,0:0:0:0:
72,192,29939,1,0,0:2:0:0:
72,192,30167,2,0,L|77:62,1,120,0|8,3:2|3:2,0:0:0:0:
171,54,31076,2,0,P|245:63|308:49,1,120,0|8,3:2|3:2,0:0:0:0:
383,39,31985,2,0,P|434:32|488:39,2,90,0|0|0,3:2|0:2|0:2,0:0:0:0:
384,87,32894,6,0,L|386:221,1,120,0|8,3:2|3:2,0:0:0:0:
388,255,33576,1,0,0:2:0:0:
388,255,33803,2,0,P|324:243|255:254,1,120,0|8,3:2|3:2,0:0:0:0:
277,345,34712,2,0,P|213:357|144:346,1,120,0|8,3:2|3:2,0:0:0:0:
80,295,35621,2,0,L|14:304,2,60,0|8|8,3:2|0:1|3:2,0:0:0:0:
125,210,36530,6,0,P|135:140|119:82,1,120,0|8,3:2|3:2,0:0:0:0:
108,46,37212,1,0,0:2:0:0:
108,46,37439,2,0,L|243:44,1,120,0|8,3:2|3:2,0:0:0:0:
267,71,38121,1,0,0:2:0:0:
267,71,38348,2,0,L|402:69,1,120,0|8,3:2|3:2,0:0:0:0:
435,71,39030,1,0,0:2:0:0:
435,71,39257,2,0,P|445:148|431:202,1,120,0|8,3:2|3:2,0:0:0:0:
414,282,40167,6,0,L|274:273,1,120,0|8,3:2|3:2,0:0:0:0:
205,311,41076,2,0,L|85:318,1,120,0|8,3:2|3:2,0:0:0:0:
38,234,41985,2,0,P|38:159|66:107,1,120,0|8,3:2|3:2,0:0:0:0:
83,79,42667,1,0,0:2:0:0:
83,79,42894,2,0,L|211:80,1,120,0|8,3:2|3:2,0:0:0:0:
251,82,43576,1,0,0:2:0:0:
251,82,43803,6,0,B|234:142|234:142|245:222,1,120,4|8,3:2|3:2,0:0:0:0:
278,287,44712,2,0,L|406:288,1,120,0|8,3:2|3:2,0:0:0:0:
435,257,45394,1,0,0:2:0:0:
435,257,45621,1,0,3:2:0:0:
410,164,46076,1,8,3:2:0:0:
384,71,46530,2,0,P|440:70|477:92,2,90,0|0|0,3:2|0:2|0:2,0:0:0:0:
340,91,47439,6,0,L|197:87,1,120,0|8,3:2|3:2,0:0:0:0:
175,69,48121,1,0,0:2:0:0:
175,69,48348,1,0,3:2:0:0:
99,129,48803,1,8,3:2:0:0:
186,168,49257,2,0,B|204:225|204:225|203:300,1,120,0|8,3:2|3:2,0:0:0:0:
124,340,50167,2,0,B|107:305|107:305|106:241,2,90,0|0|0,3:2|0:2|0:2,0:0:0:0:
162,369,51076,5,0,3:2:0:0:
257,365,51530,1,8,3:2:0:0:
352,356,51985,2,0,L|421:348,1,60,0|8,3:2|0:1,0:0:0:0:
459,348,52439,1,8,3:2:0:0:
425,258,52894,2,0,P|418:178|430:126,1,120,0|8,3:2|3:2,0:0:0:0:
438,93,53576,1,0,0:2:0:0:
438,93,53803,2,0,L|497:97,2,60,0|8|8,3:2|0:1|3:2,0:0:0:0:
353,46,54712,6,0,L|220:49,1,120,0|8,3:2|3:2,0:0:0:0:
198,81,55394,1,0,0:2:0:0:
198,81,55621,2,0,L|78:78,1,120,0|8,3:2|3:2,0:0:0:0:
20,155,56530,1,8,0:1:0:0:
85,221,56985,1,8,0:1:0:0:
17,288,57439,2,0,B|2:327|2:327|7:386,2,90,8|4|4,0:1|0:1|0:1,0:0:0:0:
56,315,58348,6,0,L|211:314,1,143.999995605469,4|8,3:2|3:2,0:0:0:0:
277,275,59030,1,2,0:2:0:0:
340,333,59257,2,0,P|361:282|310:196,1,143.999995605469,0|8,3:2|3:2,0:0:0:0:
258,150,59939,1,2,0:2:0:0:
303,76,60167,6,0,L|385:75,2,71.9999978027344,0|2|8,3:2|0:2|3:2,0:0:0:0:
229,31,60848,1,2,0:2:0:0:
154,75,61076,2,0,P|83:82|13:47,1,143.999995605469,0|8,3:2|3:2,0:0:0:0:
8,224,61985,2,0,P|5:287|38:366,1,143.999995605469,0|8,3:2|3:2,0:0:0:0:
120,351,62667,1,2,0:2:0:0:
203,328,62894,2,0,B|254:324|254:324|325:340,2,107.999996704102,0|0|2,3:2|0:2|0:2,0:0:0:0:
146,262,63803,6,0,P|134:209|146:157,1,107.999996704102,0|0,3:2|0:2,0:0:0:0:
173,124,64257,2,0,L|244:124,1,71.9999978027344,8|2,3:2|0:2,0:0:0:0:
314,71,64712,2,0,B|363:57|363:57|455:61,1,143.999995605469,0|8,3:2|3:2,0:0:0:0:
471,233,65621,6,0,B|422:247|422:247|307:242,1,143.999995605469,4|8,3:2|3:2,0:0:0:0:
153,307,66530,1,0,3:2:0:0:
129,223,66757,2,0,P|120:172|129:119,1,71.9999978027344,2|8,0:2|3:2,0:0:0:0:
158,130,67098,2,0,P|167:79|158:26,1,71.9999978027344,0|0,0:2|0:2,0:0:0:0:
196,28,67439,2,0,L|364:22,1,143.999995605469,0|8,3:2|3:2,0:0:0:0:
390,93,68121,1,2,0:2:0:0:
376,177,68348,2,0,P|360:243|366:294,1,107.999996704102,0|0,3:2|0:2,0:0:0:0:
377,323,68803,2,0,L|295:330,1,71.9999978027344,8|2,3:2|0:2,0:0:0:0:
219,320,69257,6,0,B|228:236|228:236|209:162,1,143.999995605469,0|8,3:2|3:2,0:0:0:0:
131,16,70167,1,0,3:2:0:0:
207,55,70394,2,0,P|255:59|308:54,1,71.9999978027344,2|8,0:2|3:2,0:0:0:0:
312,30,70735,2,0,P|347:29|383:32,1,71.9999978027344,0|0,0:2|0:2,0:0:0:0:
425,21,71076,2,0,L|408:169,1,143.999995605469,0|8,3:2|3:2,0:0:0:0:
398,249,71757,1,2,0:2:0:0:
386,334,71985,2,0,P|441:335|509:322,2,107.999996704102,0|0|2,3:2|0:2|0:2,0:0:0:0:
315,283,72894,6,0,P|211:262|165:282,1,143.999995605469,4|8,3:2|3:2,0:0:0:0:
104,318,73576,1,2,0:2:0:0:
98,231,73803,2,0,L|98:108,1,107.999996704102,0|0,3:2|0:2,0:0:0:0:
91,80,74257,2,0,P|151:81|174:90,1,71.9999978027344,8|2,3:2|0:2,0:0:0:0:
232,134,74712,6,0,L|314:122,1,71.9999978027344,0|2,3:2|0:2,0:0:0:0:
356,55,75167,2,0,L|427:65,1,71.9999978027344,8|2,3:2|0:2,0:0:0:0:
461,144,75621,2,0,L|504:144,2,35.9999989013672,0|0|2,3:2|0:2|0:2,0:0:0:0:
408,212,76076,1,8,3:2:0:0:
284,332,76530,6,0,P|196:332|138:312,1,143.999995605469,0|8,3:2|3:2,0:0:0:0:
110,234,77212,1,2,0:2:0:0:
90,149,77439,2,0,P|82:95|93:39,2,107.999996704102,0|0|2,3:2|0:2|0:2,0:0:0:0:
110,234,78348,2,0,B|149:237|172:216|172:216|201:211|273:226,1,143.999995605469,0|8,3:2|3:2,0:0:0:0:
330,254,79030,1,2,0:2:0:0:
397,200,79257,2,0,P|410:137|396:47,1,143.999995605469,0|8,3:2|3:2,0:0:0:0:
231,17,80167,5,4,3:2:0:0:
168,76,80394,2,0,L|75:78,1,71.9999978027344,2|8,0:2|3:2,0:0:0:0:
19,38,80848,1,2,0:2:0:0:
24,124,81076,2,0,B|33:177|33:177|25:210|25:210|42:288,1,143.999995605469,0|8,3:2|3:2,0:0:0:0:
64,347,81757,1,2,0:2:0:0:
125,285,81985,6,0,B|169:260|169:260|296:260,1,143.999995605469,0|8,3:2|3:2,0:0:0:0:
349,259,82667,1,2,0:2:0:0:
416,204,82894,2,0,P|426:145|417:90,1,107.999996704102,0|0,3:2|0:2,0:0:0:0:
400,58,83348,2,0,L|312:61,1,71.9999978027344,8|2,3:2|0:2,0:0:0:0:
251,19,83803,5,2,3:2:0:0:
100,86,84257,1,2,3:2:0:0:
247,185,84712,1,2,3:2:0:0:
95,260,85167,1,2,3:2:0:0:
252,329,85621,6,0,B|390:271|396:382|540:306,1,287.999991210938,8|8,3:1|0:1,0:0:0:0:
445,160,86985,2,0,L|446:69,1,71.9999978027344,8|8,0:1|0:1,0:0:0:0:
392,15,87439,6,0,L|265:20,1,120,6|10,3:2|3:2,0:0:0:0:
230,40,88121,1,2,0:2:0:0:
230,40,88348,2,0,P|205:121|215:173,1,120,2|8,3:2|3:2,0:0:0:0:
240,246,89257,2,0,B|294:258|294:258|357:246,1,120,0|10,3:2|3:2,0:0:0:0:
379,257,89826,2,0,L|484:260,1,90,2|0,0:2|3:2,0:0:0:0:
512,174,90621,1,8,3:2:0:0:
428,125,91076,6,0,L|423:6,1,120,0|10,3:2|3:2,0:0:0:0:
398,4,91644,2,0,B|350:6|350:6|295:30,1,90,2|0,0:2|3:2,0:0:0:0:
267,108,92439,1,8,3:2:0:0:
194,45,92894,2,0,P|111:46|67:69,1,120,0|10,3:2|3:2,0:0:0:0:
77,85,93462,2,0,L|75:187,1,90,2|0,0:2|3:2,0:0:0:0:
44,265,94257,2,0,L|103:261,1,60,8|2,0:2|0:2,0:0:0:0:
139,293,94712,6,0,P|188:305|248:300,1,90,2|2,3:2|0:2,0:0:0:0:
265,279,95280,2,0,L|359:270,1,90,2|2,0:2|3:2,0:0:0:0:
416,208,96076,1,8,3:2:0:0:
325,175,96530,2,0,P|291:112|292:57,1,120,0|10,3:2|3:2,0:0:0:0:
299,42,97098,2,0,L|187:35,1,90,2|0,0:2|3:2,0:0:0:0:
132,94,97894,1,8,3:2:0:0:
172,180,98348,6,0,P|183:257|154:307,1,120,0|10,3:2|3:2,0:0:0:0:
152,313,98917,2,0,L|56:317,1,90,2|0,0:2|3:2,0:0:0:0:
21,229,99712,1,8,3:2:0:0:
64,143,100167,5,8,0:1:0:0:
41,49,100621,1,10,0:1:0:0:
127,7,101076,1,8,0:1:0:0:
192,77,101530,2,0,P|250:86|272:83,1,60,6|6,0:1|0:1,0:0:0:0:
295,69,101985,6,0,P|311:131|294:202,1,120,6|10,3:2|3:2,0:0:0:0:
291,232,102667,1,2,0:2:0:0:
291,232,102894,1,2,3:2:0:0:
235,310,103348,1,8,3:2:0:0:
149,265,103803,2,0,P|137:194|158:134,1,120,0|10,3:2|3:2,0:0:0:0:
165,130,104371,2,0,L|156:32,1,90,2|0,0:2|3:2,0:0:0:0:
245,3,105167,1,8,3:2:0:0:
297,82,105621,6,0,P|358:98|420:85,1,120,0|10,3:2|3:2,0:0:0:0:
437,87,106189,2,0,L|428:176,1,90,2|0,0:2|3:2,0:0:0:0:
420,272,106985,1,8,3:2:0:0:
338,322,107439,2,0,P|274:321|207:299,1,120,0|10,3:2|3:2,0:0:0:0:
197,297,108007,2,0,P|140:286|97:285,1,90,2|0,0:2|3:2,0:0:0:0:
12,291,108803,1,10,3:2:0:0:
51,203,109257,6,0,L|55:73,1,120,2|8,3:2|3:2,0:0:0:0:
142,42,110167,2,0,P|202:55|269:42,1,120,2|8,3:2|3:2,0:0:0:0:
279,32,110735,2,0,P|326:24|383:31,1,90,2|0,0:2|3:2,0:0:0:0:
440,90,111530,2,0,L|434:217,1,120,10|0,3:2|3:2,0:0:0:0:
387,293,112439,1,8,3:2:0:0:
308,237,112894,6,0,L|166:239,1,120,4|6,3:1|3:1,0:0:0:0:
188,334,113803,2,0,L|307:332,1,120,4|6,3:1|3:1,0:0:0:0:
379,267,114712,2,0,L|382:155,1,80,4|4,3:1|0:1,0:0:0:0:
355,168,115167,2,0,L|352:56,1,80,6|4,3:1|0:1,0:0:0:0:
369,60,115621,1,0,3:2:0:0:
280,23,116076,1,8,3:2:0:0:
191,59,116530,5,4,3:2:0:0:
503,189,131076,6,0,L|250:177,1,240,4|0,3:2|3:2,0:0:0:0:
190,114,132439,1,8,0:2:0:0:
96,134,132894,2,0,P|81:187|96:266,1,120,0|8,3:2|0:2,0:0:0:0:
152,323,133803,2,0,L|291:330,1,120,0|0,3:2|0:0,0:0:0:0:
316,311,134485,1,0,0:2:0:0:
316,311,134712,6,0,B|303:253|303:253|318:177,1,120,0|8,3:2|0:2,0:0:0:0:
325,146,135394,1,0,0:2:0:0:
325,146,135621,2,0,L|430:142,2,90,0|0|0,3:2|0:2|0:2,0:0:0:0:
289,112,136530,6,0,B|187:61|156:152|44:120,1,240,0|0,3:2|3:2,0:0:0:0:
13,209,137894,1,8,0:2:0:0:
64,289,138348,1,0,3:2:0:0:
146,239,138803,2,0,P|188:223|268:241,1,120,8|0,0:2|3:2,0:0:0:0:
283,278,139485,1,0,0:2:0:0:
283,278,139712,2,0,P|323:282|355:273,1,60,8|0,0:2|0:0,0:0:0:0:
385,257,140167,6,0,P|408:325|402:362,2,90,0|0|0,3:2|0:2|0:2,0:0:0:0:
373,210,141076,2,0,P|368:180|373:150,1,60,0|0,3:2|0:2,0:0:0:0:
385,104,141530,1,8,0:2:0:0:
300,57,141985,2,0,P|243:46|159:59,1,120,0|8,3:2|0:2,0:0:0:0:
104,108,142894,2,0,L|106:246,1,120,0|8,3:2|0:2,0:0:0:0:
187,277,143803,5,8,0:1:0:0:
260,215,144257,1,8,0:1:0:0:
206,135,144712,1,8,0:1:0:0:
56,315,145621,6,0,L|211:314,1,143.999995605469,4|8,3:2|3:2,0:0:0:0:
251,244,146303,1,2,0:2:0:0:
191,181,146530,2,0,P|170:130|212:43,1,143.999995605469,0|8,3:2|3:2,0:0:0:0:
259,121,147212,1,2,0:2:0:0:
319,183,147440,6,0,B|353:192|353:192|401:182,2,71.9999978027344,0|2|8,3:2|0:2|3:2,0:0:0:0:
259,121,148121,1,2,0:2:0:0:
298,43,148349,2,0,P|362:13|433:20,1,143.999995605469,0|8,3:2|3:2,0:0:0:0:
496,180,149258,2,0,L|489:336,1,143.999995605469,0|8,3:2|3:2,0:0:0:0:
407,353,149940,1,2,0:2:0:0:
337,301,150167,2,0,P|277:289|215:313,2,107.999996704102,0|0|2,3:2|0:2|0:2,0:0:0:0:
384,228,151076,6,0,P|396:175|384:123,1,107.999996704102,0|0,3:2|0:2,0:0:0:0:
351,95,151530,2,0,L|280:95,1,71.9999978027344,8|2,3:2|0:2,0:0:0:0:
206,48,151985,2,0,B|151:32|128:81|59:59,1,143.999995605469,0|8,3:2|3:2,0:0:0:0:
11,225,152894,6,0,L|22:391,1,143.999995605469,4|8,3:2|3:2,0:0:0:0:
193,363,153803,1,0,3:2:0:0:
150,287,154030,2,0,P|141:236|150:183,1,71.9999978027344,2|8,0:2|3:2,0:0:0:0:
183,201,154371,2,0,P|192:150|183:97,1,71.9999978027344,0|0,0:2|0:2,0:0:0:0:
164,95,154712,2,0,L|20:100,1,143.999995605469,0|8,3:2|3:2,0:0:0:0:
8,186,155394,1,2,0:2:0:0:
147,326,155848,2,0,L|218:319,1,71.9999978027344,2|8,0:2|3:2,0:0:0:0:
254,343,156189,2,0,L|325:336,1,71.9999978027344,0|0,0:2|0:2,0:0:0:0:
364,317,156530,6,0,B|373:233|373:233|354:159,1,143.999995605469,0|8,3:2|3:2,0:0:0:0:
319,97,157212,1,2,0:2:0:0:
268,166,157439,2,0,P|201:176|174:168,1,71.9999978027344,0|2,3:2|0:2,0:0:0:0:
133,117,157894,2,0,P|66:107|39:115,1,71.9999978027344,8|2,3:2|0:2,0:0:0:0:
17,181,158349,2,0,L|0:329,1,143.999995605469,0|8,3:2|3:2,0:0:0:0:
82,351,159030,1,2,0:2:0:0:
158,311,159257,2,0,B|201:307|201:307|243:333|303:363|378:313,1,215.999993408203,0|2,3:2|0:2,0:0:0:0:
417,253,160167,6,0,B|368:223|368:223|258:216,1,143.999995605469,4|8,3:2|3:2,0:0:0:0:
195,210,160849,1,2,0:2:0:0:
108,206,161076,2,0,L|-23:203,1,107.999996704102,0|0,3:2|0:2,0:0:0:0:
0,160,161530,2,0,P|1:100|10:77,1,71.9999978027344,8|2,3:2|0:2,0:0:0:0:
79,45,161985,6,0,P|143:75|231:51,1,143.999995605469,0|8,3:2|3:2,0:0:0:0:
391,98,162894,1,0,3:2:0:0:
338,166,163121,2,0,P|335:215|345:262,1,71.9999978027344,2|8,0:2|3:2,0:0:0:0:
352,278,163462,2,0,P|355:327|345:374,1,71.9999978027344,0|0,0:2|0:2,0:0:0:0:
310,363,163803,6,0,B|254:358|254:358|221:346|221:346|164:343,1,143.999995605469,0|8,3:2|3:2,0:0:0:0:
14,270,164712,2,0,B|1:322|1:322|18:373,2,107.999996704102,0|0|2,3:2|0:2|0:2,0:0:0:0:
67,201,165621,2,0,P|151:184|225:209,1,143.999995605469,0|8,3:2|3:2,0:0:0:0:
283,237,166303,1,2,0:2:0:0:
354,189,166530,2,0,B|377:124|377:124|353:36,1,143.999995605469,0|8,3:2|3:2,0:0:0:0:
274,24,167212,1,2,0:2:0:0:
257,108,167439,6,0,P|187:130|131:116,1,107.999996704102,4|0,3:2|0:2,0:0:0:0:
112,112,167894,2,0,L|111:192,1,71.9999978027344,8|2,3:2|0:2,0:0:0:0:
143,264,168349,2,0,B|152:317|152:317|132:386,1,107.999996704102,0|0,3:2|0:2,0:0:0:0:
178,380,168803,2,0,L|273:376,1,71.9999978027344,8|2,3:2|0:2,0:0:0:0:
264,291,169257,2,0,P|333:284|395:298,1,107.999996704102,0|0,3:2|0:2,0:0:0:0:
404,318,169712,2,0,L|422:233,1,71.9999978027344,8|2,3:2|0:2,0:0:0:0:
438,163,170167,2,0,P|448:104|439:49,1,107.999996704102,0|0,3:2|0:2,0:0:0:0:
398,61,170621,2,0,L|310:64,1,71.9999978027344,8|2,3:2|0:2,0:0:0:0:
251,19,171076,5,0,3:2:0:0:
332,171,171530,1,8,3:2:0:0:
175,250,171985,1,0,3:2:0:0:
107,90,172440,1,8,3:2:0:0:
37,248,172894,6,0,B|106:234|106:234|175:250|175:250|246:232|246:232|317:251,1,287.999991210938,2|2,3:2|3:2,0:0:0:0:
486,183,174258,2,0,L|487:92,1,71.9999978027344,10|10,0:1|0:1,0:0:0:0:
489,21,174712,5,4,3:2:0:0:
124,75,187439,5,8,0:1:0:0:
188,146,187894,1,8,0:1:0:0:
129,222,188348,1,8,0:1:0:0:
392,309,189257,6,0,L|267:306,1,120,4|8,3:2|3:2,0:0:0:0:
225,297,189939,1,0,0:2:0:0:
225,297,190166,2,0,P|217:224|247:174,1,120,0|8,3:2|3:2,0:0:0:0:
331,167,191075,2,0,B|391:175|391:175|451:165,1,120,0|8,3:2|3:2,0:0:0:0:
489,134,191757,1,0,0:2:0:0:
489,134,191984,2,0,L|483:6,1,120,0|8,3:2|3:2,0:0:0:0:
390,37,192893,6,0,P|331:64|256:51,1,120,0|8,3:2|3:2,0:0:0:0:
224,58,193575,1,0,0:2:0:0:
224,58,193803,2,0,L|231:193,1,120,0|8,3:2|3:2,0:0:0:0:
313,226,194712,2,0,L|309:365,1,120,0|8,3:2|3:2,0:0:0:0:
261,345,195393,1,0,0:2:0:0:
261,345,195621,2,0,L|188:350,1,60,0|0,3:2|0:2,0:0:0:0:
159,373,196075,2,0,L|99:369,1,60,8|0,3:2|0:0,0:0:0:0:
62,337,196530,6,0,P|53:264|74:202,1,120,0|8,3:2|3:2,0:0:0:0:
111,207,197212,1,0,0:2:0:0:
111,207,197439,2,0,L|94:75,1,120,0|8,3:2|3:2,0:0:0:0:
173,31,198348,2,0,P|231:22|284:48,1,120,0|8,3:2|3:2,0:0:0:0:
312,87,199030,1,0,0:2:0:0:
312,87,199257,2,0,P|361:112|443:92,1,120,0|8,3:2|3:2,0:0:0:0:
454,195,200166,6,0,B|465:254|465:254|453:319,1,120,4|6,3:1|3:1,0:0:0:0:
357,317,201076,2,0,B|346:258|346:258|357:199,1,120,4|6,3:1|3:1,0:0:0:0:
308,116,201984,2,0,L|219:134,1,80,4|4,3:1|0:1,0:0:0:0:
208,156,202439,2,0,L|129:141,1,80,6|4,3:1|0:1,0:0:0:0:
126,109,202893,1,0,3:2:0:0:
53,46,203348,1,8,3:2:0:0:
55,237,204283,5,2,0:0:0:0:
