osu file format v14

[General]
AudioFilename: audio.mp3
AudioLeadIn: 0
PreviewTime: 87389
Countdown: 0
SampleSet: Soft
StackLeniency: 0.6
Mode: 0
LetterboxInBreaks: 0
WidescreenStoryboard: 1

[Editor]
Bookmarks: 14662,29207,43753,58298,72844,80177,87389,101935,101995,116480,131026,143753,145571,160177,167449,174662,189207,204267
DistanceSpacing: 0.3
BeatDivisor: 6
GridSize: 16
TimelineZoom: 2.599999

[Metadata]
Title:Maritime Police
TitleUnicode:Maritime Police
Artist:Street
ArtistUnicode:Street
Creator:Mir
Version:Lasse's Insane
Source:
Tags:lasse c90 toyKasket rock SunFlowers House
BeatmapID:1445844
BeatmapSetID:681410

[Difficulty]
HPDrainRate:5
CircleSize:4
OverallDifficulty:7.4
ApproachRate:9
SliderMultiplier:2.08
SliderTickRate:1

[Events]
//Background and Video events
0,0,"really big seagull.jpg",0,0
//Break Periods
2,116730,130476
//Storyboard Layer 0 (Background)
//Storyboard Layer 1 (Fail)
//Storyboard Layer 2 (Pass)
//Storyboard Layer 3 (Foreground)
//Storyboard Sound Samples

[TimingPoints]
167,454.545454545455,4,2,1,80,1,0
14712,-76.9230769230769,4,2,1,80,0,0
14939,-100,4,2,1,80,0,0
29257,-86.9565217391304,4,2,1,70,0,0
29485,-100,4,2,1,70,0,0
43803,-83.3333333333333,4,2,1,70,0,0
44030,-90.9090909090909,4,2,1,70,0,0
57894,-166.666666666667,4,2,1,70,0,0
58348,-71.4285714285714,4,2,1,100,0,1
58576,-83.3333333333333,4,2,1,100,0,1
65621,-71.4285714285714,4,2,1,100,0,1
65849,-83.3333333333333,4,2,1,100,0,1
72894,-71.4285714285714,4,2,1,100,0,1
73122,-83.3333333333333,4,2,1,100,0,1
80167,-71.4285714285714,4,2,1,100,0,1
80395,-83.3333333333333,4,2,1,100,0,1
83803,-71.4285714285714,4,2,1,100,0,1
84712,-62.5,4,2,1,100,0,1
85621,-100,4,2,1,100,0,1
87439,-90.9090909090909,4,2,2,70,0,0
94257,-76.9230769230769,4,2,3,70,0,0
94371,-76.9230769230769,4,2,2,70,0,0
94712,-90.9090909090909,4,2,2,70,0,0
100621,-100,4,2,1,70,0,0
100773,-100,4,2,2,70,0,0
101530,-100,4,2,1,70,0,0
101644,-100,4,2,2,70,0,0
101985,-76.9230769230769,4,2,2,80,0,0
102212,-100,4,2,2,80,0,0
112894,-100,4,2,1,80,0,0
131076,-142.857142857143,4,2,3,50,0,0
143651,-125,4,2,1,70,0,0
144712,-90.9090909090909,4,2,1,80,0,0
145167,-166.666666666667,4,2,1,80,0,0
145621,-71.4285714285714,4,2,1,100,0,1
145849,-83.3333333333333,4,2,1,100,0,1
152894,-71.4285714285714,4,2,1,100,0,1
153122,-83.3333333333333,4,2,1,100,0,1
160167,-71.4285714285714,4,2,1,100,0,1
160394,-83.3333333333333,4,2,1,100,0,1
167439,-71.4285714285714,4,2,1,100,0,1
167668,-83.3333333333333,4,2,1,100,0,1
171076,-71.4285714285714,4,2,1,100,0,1
171985,-62.5,4,2,1,100,0,1
172894,-83.3333333333333,4,2,1,100,0,1
174030,-83.3333333333333,4,2,4,100,0,1
174712,-71.4285714285714,4,2,1,70,0,0
174939,-100,4,2,1,70,0,0
189257,-76.9230769230769,4,2,1,70,0,0
189485,-100,4,2,1,70,0,0
204132,454.545454545455,4,2,1,70,1,0
204132,-100,4,2,1,40,0,0
204207,-100,4,2,1,30,0,0
204283,-100,4,2,1,20,0,0

[Colours]
Combo1 : 228,228,228
Combo2 : 179,255,255
Combo3 : 155,200,255
Combo4 : 250,223,160

[HitObjects]
53,115,12742,5,8,0:1:0:0:
58,108,12818,1,8,0:1:0:0:
64,101,12894,6,0,P|60:66|52:32,2,69.3333333333333,8|8|8,0:1|0:1|0:1,0:0:0:0:
145,152,13348,2,0,P|148:117|156:83,2,69.3333333333333,8|8|8,0:1|0:1|0:1,0:0:0:0:
96,236,13803,2,0,P|80:215|61:197,1,52,8|4,0:1|0:1,0:0:0:0:
180,243,14030,1,0,0:2:0:0:
180,243,14144,2,0,P|198:224|223:206,1,52,4|4,0:1|0:1,0:0:0:0:
338,235,14371,1,0,0:2:0:0:
338,235,14485,2,0,P|317:219|299:200,1,52,4|0,0:1|0:2,0:0:0:0:
299,335,14712,6,0,L|299:199,1,135.199993811035,4|0,3:2|0:2,0:0:0:0:
377,260,15053,2,0,P|408:254|433:237,1,52,0|8,0:2|3:2,0:0:0:0:
499,156,15280,1,0,0:2:0:0:
499,156,15394,2,0,P|468:162|443:179,1,52,0|0,0:2|0:2,0:0:0:0:
498,287,15621,6,0,L|503:236,1,52,0|0,3:2|0:2,0:0:0:0:
454,176,15848,1,0,0:2:0:0:
454,176,15962,2,0,L|448:124,1,52,0|8,0:2|3:2,0:0:0:0:
388,74,16189,1,0,0:2:0:0:
388,74,16303,2,0,L|394:22,1,52,0|0,0:2|0:2,0:0:0:0:
313,106,16530,6,0,P|254:102|195:75,1,104,0|0,3:2|0:2,0:0:0:0:
120,64,16871,2,0,P|134:85|142:110,1,52,0|8,0:2|3:2,0:0:0:0:
88,173,17098,1,0,0:2:0:0:
88,173,17212,2,0,P|73:151|65:126,1,52,0|0,0:2|0:2,0:0:0:0:
166,188,17439,6,0,P|187:173|211:165,1,52,0|0,3:2|0:2,0:0:0:0:
258,277,17667,1,0,0:2:0:0:
258,277,17780,2,0,P|241:258|220:244,1,52,0|8,0:2|3:2,0:0:0:0:
129,310,18007,1,0,0:2:0:0:
129,310,18121,2,0,P|133:285|145:262,1,52,0|0,0:2|0:2,0:0:0:0:
263,359,18348,6,0,P|211:360|163:379,1,104,0|0,3:2|0:2,0:0:0:0:
45,358,18689,2,0,P|71:363|90:381,2,52,0|8|0,0:2|3:2|0:2,0:0:0:0:
28,251,19030,2,0,P|10:270|4:296,1,52,0|0,0:2|0:0,0:0:0:0:
43,178,19257,6,0,P|25:159|19:134,1,52,0|0,3:2|0:2,0:0:0:0:
120,79,19485,1,0,0:2:0:0:
120,79,19598,2,0,P|102:98|96:123,1,52,0|8,0:2|3:2,0:0:0:0:
184,191,19826,1,0,0:2:0:0:
187,178,19939,1,0,0:2:0:0:
190,165,20053,1,0,0:2:0:0:
175,138,20167,6,0,P|225:149|275:136,1,104,0|0,3:2|0:2,0:0:0:0:
348,231,20507,2,0,P|342:205|343:180,1,52,0|8,0:2|3:2,0:0:0:0:
414,138,20735,1,0,0:2:0:0:
414,138,20848,2,0,P|422:110|422:75,1,52,0|0,0:2|0:2,0:0:0:0:
314,68,21076,6,0,P|336:49|368:36,1,52,0|0,3:2|0:2,0:0:0:0:
238,61,21303,1,0,0:2:0:0:
238,61,21417,2,0,P|214:49|194:33,1,52,0|8,0:2|3:2,0:0:0:0:
118,80,21644,1,0,0:2:0:0:
121,66,21757,1,0,0:2:0:0:
123,53,21871,1,0,0:2:0:0:
106,18,21985,6,0,L|108:121,1,104,0|0,3:2|0:2,0:0:0:0:
53,188,22326,2,0,P|44:164|25:145,1,52,0|8,0:2|3:2,0:0:0:0:
165,185,22553,1,0,0:2:0:0:
165,185,22667,2,0,P|173:160|190:140,1,52,0|0,0:2|0:2,0:0:0:0:
299,202,22894,6,0,L|225:197,1,52,0|0,3:2|0:2,0:0:0:0:
218,309,23121,1,0,0:2:0:0:
218,309,23235,2,0,L|195:262,1,52,0|8,0:2|3:2,0:0:0:0:
300,322,23462,1,0,0:2:0:0:
300,322,23576,2,0,L|341:260,1,52,0|0,0:2|0:2,0:0:0:0:
399,344,23803,6,0,P|341:340|284:309,1,104,0|0,3:2|0:2,0:0:0:0:
167,305,24144,2,0,P|192:302|217:308,1,52,0|8,0:2|3:2,0:0:0:0:
104,355,24371,1,0,0:2:0:0:
104,355,24485,2,0,P|77:353|53:344,1,52,0|0,0:2|0:2,0:0:0:0:
70,229,24712,5,0,3:2:0:0:
70,229,24826,2,0,P|85:249|92:274,2,52,0|0|0,0:2|0:2|0:2,0:0:0:0:
128,169,25167,2,0,P|134:144|150:123,1,52,8|0,3:2|0:2,0:0:0:0:
230,100,25394,2,0,P|254:106|275:122,1,52,0|0,0:2|0:2,0:0:0:0:
384,44,25621,6,0,P|365:75|359:121,1,69.3333333333333,4|4,3:1|0:1,0:0:0:0:
477,171,25924,1,4,0:1:0:0:
488,95,26076,6,0,P|462:94|438:104,1,52,6|0,3:1|0:2,0:0:0:0:
355,190,26303,2,0,P|380:189|404:199,1,52,0|0,0:2|0:2,0:0:0:0:
496,261,26530,5,4,3:1:0:0:
366,271,26682,1,4,0:1:0:0:
458,333,26833,1,4,0:1:0:0:
404,199,26985,6,0,P|380:189|355:190,1,52,6|0,3:1|0:2,0:0:0:0:
293,301,27212,2,0,P|267:307|242:304,1,52,0|0,0:2|0:2,0:0:0:0:
136,237,27439,5,4,3:1:0:0:
266,227,27591,1,4,0:1:0:0:
174,165,27742,1,4,0:1:0:0:
342,83,27894,5,6,3:1:0:0:
212,93,28045,1,4,0:1:0:0:
304,155,28197,1,4,0:1:0:0:
250,21,28348,5,0,3:2:0:0:
250,21,28462,2,0,P|216:12|174:19,2,52,8|8|8,0:1|0:1|0:1,0:0:0:0:
342,83,28803,5,8,3:2:0:0:
360,74,28917,1,8,0:1:0:0:
380,69,29030,1,8,0:1:0:0:
401,68,29144,1,8,0:1:0:0:
415,167,29257,6,0,B|386:148|386:148|368:99|408:61,1,119.600002281189,4|8,3:2|0:1,0:0:0:0:
512,14,29598,2,0,P|485:20|440:10,2,52,0|8|0,0:2|3:2|0:2,0:0:0:0:
491,144,29939,1,0,0:2:0:0:
491,144,30053,2,0,P|495:118|508:95,2,52,8|0|0,0:1|3:2|0:0,0:0:0:0:
498,267,30394,2,0,P|494:241|481:218,1,52,8|0,0:1|0:2,0:0:0:0:
439,321,30621,2,0,P|414:313|393:298,1,52,8|0,3:2|0:0,0:0:0:0:
347,235,30848,1,0,0:2:0:0:
347,235,30962,1,8,0:1:0:0:
347,235,31076,6,0,B|354:123,1,104,0|8,3:2|0:1,0:0:0:0:
233,302,31530,2,0,B|226:190,1,104,8|0,3:2|0:2,0:0:0:0:
161,134,31871,1,8,0:1:0:0:
161,134,31985,2,0,P|109:119|36:125,1,104,0|8,3:2|0:1,0:0:0:0:
44,237,32326,2,0,P|67:204|107:179,2,52,0|8|0,0:2|3:2|0:2,0:0:0:0:
150,274,32667,1,0,0:2:0:0:
135,268,32780,1,8,0:1:0:0:
120,265,32894,6,0,P|100:300|87:364,1,104,0|8,3:2|0:1,0:0:0:0:
7,377,33235,2,0,P|-10:340|-46:309,2,52,0|8|0,0:2|3:2|0:2,0:0:0:0:
28,270,33576,1,0,0:2:0:0:
28,270,33689,1,8,0:1:0:0:
28,270,33803,2,0,P|52:224|60:173,1,104,0|8,3:2|0:1,0:0:0:0:
226,298,34257,1,8,3:2:0:0:
211,293,34371,2,0,P|199:242|205:191,1,104,0|8,0:2|0:1,0:0:0:0:
258,123,34712,6,0,P|309:111|360:117,2,104,0|8|8,3:2|0:1|3:2,0:0:0:0:
120,132,35394,1,0,0:2:0:0:
120,132,35507,1,8,0:1:0:0:
120,132,35621,1,0,3:2:0:0:
204,191,35848,1,8,0:1:0:0:
198,293,36076,2,0,P|210:242|204:191,1,104,8|0,3:2|0:0,0:0:0:0:
127,139,36417,1,8,0:1:0:0:
127,139,36530,6,0,P|75:137|27:118,1,104,0|8,3:2|0:1,0:0:0:0:
69,19,36871,2,0,P|95:14|121:14,2,52,0|8|0,0:2|3:2|0:2,0:0:0:0:
27,118,37212,2,0,P|17:93|5:70,1,52,0|8,0:2|0:1,0:0:0:0:
103,196,37439,6,0,P|105:143|124:95,1,104,0|8,3:2|0:1,0:0:0:0:
246,60,37780,2,0,P|220:55|194:55,2,52,0|8|0,0:2|3:2|0:2,0:0:0:0:
319,100,38121,2,0,P|344:104|370:104,1,52,0|8,0:2|0:1,0:0:0:0:
402,8,38348,6,0,P|377:54|370:105,1,104,0|8,3:2|0:1,0:0:0:0:
386,212,38689,2,0,P|365:195|343:181,2,52,0|8|0,0:2|3:2|0:2,0:0:0:0:
461,252,39030,2,0,P|486:249|512:243,1,52,0|8,0:2|0:1,0:0:0:0:
493,349,39257,6,0,P|485:297|461:252,1,104,0|8,3:2|0:1,0:0:0:0:
386,212,39598,2,0,P|360:214|334:220,1,52,0|8,0:2|3:2,0:0:0:0:
256,251,39826,2,0,P|231:241|208:229,2,52,0|0|8,0:2|0:2|0:1,0:0:0:0:
224,347,40167,6,0,P|232:295|256:250,1,104,0|0,3:2|0:0,0:0:0:0:
386,212,40621,1,8,3:2:0:0:
298,135,40848,1,0,0:2:0:0:
298,135,40962,1,8,0:1:0:0:
298,135,41076,2,0,P|281:86|281:34,2,104,0|8|8,3:2|0:1|3:2,0:0:0:0:
433,227,41757,1,0,0:2:0:0:
433,227,41871,1,8,0:1:0:0:
433,227,41985,6,0,P|384:210|332:210,2,104,0|8|8,3:2|0:1|3:2,0:0:0:0:
262,305,42667,2,0,P|261:279|267:254,1,52,0|8,0:2|0:1,0:0:0:0:
362,337,42894,2,0,P|356:312|342:291,2,52,0|0|8,3:2|0:2|0:1,0:0:0:0:
442,356,43235,2,0,P|455:333|474:316,2,52,0|8|0,0:2|3:2|0:2,0:0:0:0:
491,234,43576,2,0,P|478:211|473:186,1,52,0|8,0:2|0:1,0:0:0:0:
459,69,43803,6,0,P|483:125|473:185,1,124.799996191406,4|8,3:2|0:1,0:0:0:0:
355,106,44144,1,0,0:2:0:0:
355,106,44257,2,0,P|378:116|401:143,1,57.2000017456055,8|0,3:2|0:2,0:0:0:0:
276,193,44485,2,0,P|302:183|330:185,1,57.2000017456055,0|8,0:2|0:1,0:0:0:0:
324,294,44712,6,0,P|341:240|330:184,1,114.400003491211,0|8,3:2|0:1,0:0:0:0:
276,111,45053,1,0,0:2:0:0:
276,111,45167,2,0,L|207:101,1,57.2000017456055,8|0,3:2|0:2,0:0:0:0:
135,149,45394,1,0,0:2:0:0:
114,139,45507,1,8,0:1:0:0:
94,126,45621,6,0,B|69:97|69:97|70:43|86:9,1,114.400003491211,0|8,3:2|0:1,0:0:0:0:
167,25,45962,2,0,L|230:12,2,57.2000017456055,0|8|0,0:2|3:2|0:2,0:0:0:0:
80,22,46303,2,0,L|25:3,1,57.2000017456055,0|8,0:2|0:1,0:0:0:0:
14,92,46530,5,0,3:2:0:0:
32,100,46644,2,0,P|45:126|50:156,1,57.2000017456055,0|8,0:2|0:1,0:0:0:0:
152,161,46871,2,0,P|163:135|182:113,2,57.2000017456055,0|8|0,0:2|3:2|0:2,0:0:0:0:
92,277,47212,2,0,L|96:221,1,57.2000017456055,0|8,0:2|0:1,0:0:0:0:
230,229,47439,5,0,3:2:0:0:
230,229,47553,2,0,P|201:229|177:243,1,57.2000017456055,0|8,0:2|0:1,0:0:0:0:
304,276,47780,2,0,P|317:251|317:223,2,57.2000017456055,0|8|0,0:2|3:2|0:2,0:0:0:0:
266,355,48121,2,0,P|241:341|227:317,1,57.2000017456055,0|8,0:2|0:1,0:0:0:0:
372,332,48348,6,0,P|316:329|265:354,1,114.400003491211,0|8,3:2|0:1,0:0:0:0:
177,384,48689,2,0,L|120:358,2,57.2000017456055,0|8|0,0:2|3:2|0:2,0:0:0:0:
265,354,49030,2,0,L|289:297,1,57.2000017456055,0|8,0:2|0:1,0:0:0:0:
184,267,49257,5,0,3:2:0:0:
163,258,49371,2,0,L|156:193,1,57.2000017456055,0|8,0:2|0:1,0:0:0:0:
275,133,49598,1,0,0:2:0:0:
275,133,49712,2,0,P|219:143|168:120,1,114.400003491211,8|0,3:2|0:2,0:0:0:0:
124,39,50053,1,8,0:1:0:0:
124,39,50167,6,0,P|179:29|231:53,1,114.400003491211,0|8,3:2|0:1,0:0:0:0:
276,133,50507,2,0,L|280:204,2,57.2000017456055,0|8|0,0:2|3:2|0:2,0:0:0:0:
348,78,50848,2,0,L|370:10,1,57.2000017456055,0|8,0:2|0:1,0:0:0:0:
455,92,51076,6,0,P|403:68|348:78,1,114.400003491211,0|8,3:2|0:1,0:0:0:0:
280,137,51417,1,0,0:2:0:0:
280,137,51530,2,0,L|277:214,1,57.2000017456055,8|0,3:2|0:2,0:0:0:0:
330,268,51757,2,0,L|333:345,1,57.2000017456055,0|8,0:2|0:1,0:0:0:0:
249,368,51985,5,0,3:2:0:0:
226,342,52098,1,0,0:2:0:0:
196,324,52212,2,0,P|169:315|128:316,1,57.2000017456055,8|0,0:1|0:2,0:0:0:0:
52,337,52439,1,8,3:2:0:0:
21,321,52553,2,0,P|0:268|5:211,1,114.400003491211,0|8,0:2|0:1,0:0:0:0:
87,157,52894,6,0,P|108:104|103:47,1,114.400003491211,0|8,3:2|0:1,0:0:0:0:
28,13,53235,2,0,L|-37:6,2,57.2000017456055,0|8|0,0:2|3:2|0:2,0:0:0:0:
103,47,53576,2,0,L|168:54,1,57.2000017456055,0|8,0:2|0:1,0:0:0:0:
236,155,53803,6,0,P|227:128|227:100,1,57.2000017456055,0|0,3:2|0:0,0:0:0:0:
319,158,54030,2,0,P|326:130|325:102,1,57.2000017456055,8|0,0:1|0:2,0:0:0:0:
425,183,54257,1,8,3:2:0:0:
425,183,54371,2,0,P|375:156|318:157,1,114.400003491211,0|8,0:2|0:1,0:0:0:0:
350,263,54712,6,0,P|398:233|425:183,1,114.400003491211,0|8,3:2|0:1,0:0:0:0:
462,108,55053,2,0,L|464:48,2,57.2000017456055,0|8|0,0:2|3:2|0:2,0:0:0:0:
425,183,55394,2,0,L|427:243,1,57.2000017456055,0|8,0:2|0:1,0:0:0:0:
507,334,55621,5,0,3:2:0:0:
507,334,55735,2,0,P|453:315|397:324,1,114.400003491211,0|0,0:2|0:2,0:0:0:0:
325,360,56076,2,0,L|170:349,1,114.400003491211,8|0,3:2|0:2,0:0:0:0:
143,305,56379,1,8,0:1:0:0:
139,296,56454,1,8,0:1:0:0:
135,287,56530,6,0,P|171:278|203:250,2,76.2666689941407,8|8|8,0:1|0:1|0:1,0:0:0:0:
48,154,56985,5,8,0:1:0:0:
130,195,57136,1,8,0:1:0:0:
53,246,57288,1,8,0:1:0:0:
129,107,57439,5,8,0:1:0:0:
129,107,57553,2,0,P|142:69|144:39,1,57.2000017456055,4|0,0:1|0:2,0:0:0:0:
207,144,57780,1,4,0:1:0:0:
206,144,57894,6,0,P|246:120|293:116,1,93.5999971435548,4|0,0:1|0:2,0:0:0:0:
430,133,58348,6,0,B|322:139|322:139|286:111,1,145.599995556641,4|2,3:2|0:2,0:0:0:0:
242,44,58689,1,0,0:2:0:0:
159,74,58803,2,0,L|81:68,1,62.3999980957032,8|0,3:2|0:2,0:0:0:0:
14,39,59030,1,2,0:2:0:0:
14,39,59144,1,0,0:2:0:0:
29,125,59257,6,0,P|32:158|20:210,1,62.3999980957032,0|0,3:2|0:2,0:0:0:0:
74,320,59485,2,0,P|62:291|44:265,1,62.3999980957032,2|0,0:2|0:2,0:0:0:0:
166,192,59712,1,8,3:2:0:0:
166,192,59826,2,0,P|135:200|109:215,2,62.3999980957032,0|2|0,0:2|0:2|0:2,0:0:0:0:
272,237,60167,6,0,B|290:235|307:240|307:240|320:235|320:235|356:250|394:240,2,124.799996191406,0|2|8,3:2|0:2|3:2,0:0:0:0:
170,275,60735,1,0,0:2:0:0:
170,275,60848,6,0,B|152:277|135:272|135:272|122:277|122:277|86:260|47:271,2,124.799996191406,2|0|2,0:2|3:2|0:2,0:0:0:0:
273,298,61417,1,0,0:2:0:0:
273,298,61530,2,0,P|277:267|271:236,1,62.3999980957032,8|0,3:2|0:2,0:0:0:0:
170,275,61757,2,0,P|165:244|171:213,1,62.3999980957032,2|0,0:2|0:2,0:0:0:0:
191,94,61985,6,0,B|192:176|192:176|163:227,1,124.799996191406,0|2,3:2|0:2,0:0:0:0:
88,242,62326,1,0,0:2:0:0:
24,183,62439,2,0,B|21:152|21:152|29:121,1,62.3999980957032,8|0,3:2|0:2,0:0:0:0:
82,51,62667,2,0,B|109:34|109:34|129:10,1,62.3999980957032,2|0,0:2|0:0,0:0:0:0:
191,94,62894,6,0,B|222:102|222:102|253:99,1,62.3999980957032,0|0,3:2|0:2,0:0:0:0:
325,51,63121,1,2,0:2:0:0:
403,90,63235,2,0,B|428:107|428:107|448:132,1,62.3999980957032,0|8,0:2|3:2,0:0:0:0:
353,195,63462,2,0,B|336:168|336:168|330:138,2,62.3999980957032,0|2|0,0:2|0:2|0:2,0:0:0:0:
369,330,63803,6,0,B|386:303|386:303|393:273,1,62.3999980957032,0|0,3:2|0:2,0:0:0:0:
501,208,64030,1,2,0:2:0:0:
501,192,64144,2,0,B|469:190|469:190|440:199,1,62.3999980957032,0|8,0:2|3:2,0:0:0:0:
330,138,64371,1,0,0:2:0:0:
316,146,64485,2,0,B|330:174|330:174|353:195,1,62.3999980957032,2|0,0:2|0:2,0:0:0:0:
369,330,64712,5,0,3:2:0:0:
380,313,64826,2,0,P|379:250|352:194,1,124.799996191406,0|0,0:2|0:2,0:0:0:0:
259,199,65167,2,0,P|228:191|200:177,1,62.3999980957032,8|0,3:2|0:2,0:0:0:0:
139,105,65394,2,0,P|170:97|198:83,1,62.3999980957032,2|0,0:2|0:2,0:0:0:0:
339,87,65621,6,0,B|282:77|282:77|252:91|252:91|197:83,1,145.599995556641,4|2,3:2|0:2,0:0:0:0:
138,19,65962,1,0,0:2:0:0:
66,70,66076,2,0,L|44:141,1,62.3999980957032,8|0,3:2|0:2,0:0:0:0:
65,220,66303,1,2,0:2:0:0:
65,220,66417,1,0,0:2:0:0:
138,176,66530,6,0,P|169:172|200:176,1,62.3999980957032,0|0,3:2|0:2,0:0:0:0:
255,245,66757,2,0,P|274:220|287:191,2,62.3999980957032,2|0|8,0:2|0:2|3:2,0:0:0:0:
199,311,67098,2,0,P|180:285|168:256,2,62.3999980957032,0|2|0,0:2|0:2|0:2,0:0:0:0:
353,356,67439,6,0,B|377:337|377:337|285:323,1,124.799996191406,0|2,3:2|0:2,0:0:0:0:
193,327,67780,1,0,0:2:0:0:
187,343,67894,1,8,3:2:0:0:
181,359,68007,1,0,0:2:0:0:
96,383,68121,2,0,L|29:372,1,62.3999980957032,2|0,0:2|0:2,0:0:0:0:
3,290,68348,6,0,P|30:234|37:172,1,124.799996191406,0|2,3:2|0:2,0:0:0:0:
71,94,68689,1,0,0:2:0:0:
71,94,68803,2,0,P|58:56|64:22,1,62.3999980957032,8|0,3:2|0:2,0:0:0:0:
146,22,69030,2,0,P|159:60|153:94,1,62.3999980957032,2|0,0:2|0:2,0:0:0:0:
191,199,69257,6,0,P|164:143|157:81,1,124.799996191406,0|2,3:2|0:2,0:0:0:0:
276,110,69598,1,0,0:2:0:0:
276,110,69712,2,0,P|241:160|191:197,1,124.799996191406,8|2,3:2|0:2,0:0:0:0:
104,211,70053,1,0,0:2:0:0:
22,242,70167,6,0,P|9:272|11:300,1,62.3999980957032,0|0,3:2|0:2,0:0:0:0:
127,348,70394,1,2,0:2:0:0:
150,338,70507,2,0,P|162:307|160:279,1,62.3999980957032,0|8,0:2|3:2,0:0:0:0:
104,211,70735,2,0,P|91:180|93:152,2,62.3999980957032,0|2|0,0:2|0:2|0:2,0:0:0:0:
247,271,71076,6,0,B|284:248|284:248|382:237,1,124.799996191406,0|2,3:2|0:2,0:0:0:0:
448,280,71417,1,0,0:2:0:0:
448,280,71530,2,0,B|454:211,1,62.3999980957032,8|0,3:2|0:2,0:0:0:0:
482,135,71757,2,0,B|476:66,1,62.3999980957032,2|0,0:2|0:2,0:0:0:0:
335,142,71985,6,0,P|364:150|395:150,1,62.3999980957032,0|0,3:2|0:2,0:0:0:0:
291,70,72212,1,2,0:2:0:0:
291,70,72326,2,0,P|261:61|230:62,2,62.3999980957032,0|8|0,0:2|3:2|0:2,0:0:0:0:
335,142,72667,2,0,P|331:173|318:201,1,62.3999980957032,2|0,0:2|0:2,0:0:0:0:
177,191,72894,6,0,B|256:171|237:222|318:201,1,145.599995556641,4|2,3:2|0:2,0:0:0:0:
399,234,73235,1,0,0:2:0:0:
475,192,73348,2,0,L|487:107,1,62.3999980957032,8|0,3:2|0:2,0:0:0:0:
454,47,73576,1,2,0:2:0:0:
454,47,73689,1,0,0:2:0:0:
374,82,73803,6,0,P|304:84|239:49,1,124.799996191406,0|2,3:2|0:2,0:0:0:0:
169,43,74144,2,0,P|138:51|112:66,2,62.3999980957032,0|8|0,0:2|3:2|0:2,0:0:0:0:
255,62,74485,2,0,P|276:84|292:111,1,62.3999980957032,2|0,0:2|0:2,0:0:0:0:
180,181,74712,6,0,L|194:121,1,62.3999980957032,0|0,3:2|0:2,0:0:0:0:
290,230,74939,2,0,P|229:218|180:181,1,124.799996191406,2|8,0:2|3:2,0:0:0:0:
100,158,75280,1,0,0:2:0:0:
100,158,75394,2,0,P|70:148|29:144,1,62.3999980957032,2|0,0:2|0:2,0:0:0:0:
41,253,75621,5,0,3:2:0:0:
62,264,75735,1,0,0:2:0:0:
85,276,75848,2,0,P|107:217|94:146,1,124.799996191406,2|8,0:2|3:2,0:0:0:0:
79,71,76189,1,0,0:0:0:0:
79,71,76303,2,0,P|74:40|80:9,1,62.3999980957032,2|0,0:2|0:2,0:0:0:0:
177,119,76530,6,0,P|237:104|298:116,1,124.799996191406,0|2,3:2|0:2,0:0:0:0:
374,160,76871,1,0,0:2:0:0:
387,245,76985,2,0,P|387:278|378:307,1,62.3999980957032,8|0,3:2|0:2,0:0:0:0:
301,347,77212,2,0,P|268:346|239:337,1,62.3999980957032,2|0,0:2|0:2,0:0:0:0:
122,254,77439,6,0,P|153:259|181:273,1,62.3999980957032,0|0,3:2|0:2,0:0:0:0:
44,298,77667,1,2,0:2:0:0:
44,298,77780,2,0,P|34:269|31:238,2,62.3999980957032,0|8|0,0:2|3:2|0:2,0:0:0:0:
78,383,78121,2,0,P|104:366|123:343,1,62.3999980957032,2|0,0:2|0:2,0:0:0:0:
240,338,78348,6,0,P|181:320|124:342,1,124.799996191406,0|2,3:2|0:2,0:0:0:0:
45,299,78689,1,0,0:2:0:0:
12,217,78803,2,0,P|12:184|23:144,1,62.3999980957032,8|0,3:2|0:2,0:0:0:0:
89,104,79030,1,2,0:2:0:0:
89,104,79144,1,0,0:2:0:0:
173,123,79257,6,0,P|231:140|288:118,1,124.799996191406,0|2,3:2|0:2,0:0:0:0:
361,50,79598,1,0,0:2:0:0:
361,50,79712,2,0,P|329:43|302:28,1,62.3999980957032,8|0,3:2|0:2,0:0:0:0:
448,48,79939,2,0,P|478:42|505:27,1,62.3999980957032,2|0,0:2|0:2,0:0:0:0:
444,190,80167,6,0,B|454:133|454:133|440:103|440:103|448:48,1,145.599995556641,4|2,3:2|0:2,0:0:0:0:
356,140,80507,1,0,0:2:0:0:
275,104,80621,2,0,P|243:97|192:92,1,62.3999980957032,8|0,3:2|0:2,0:0:0:0:
129,117,80848,1,2,0:2:0:0:
129,117,80962,1,0,0:2:0:0:
193,176,81076,6,0,B|210:210|210:210|203:314,1,124.799996191406,0|2,3:2|0:2,0:0:0:0:
84,308,81417,1,0,0:2:0:0:
84,308,81530,2,0,B|118:291|118:291|222:298,1,124.799996191406,8|2,3:2|0:2,0:0:0:0:
274,347,81871,1,0,0:2:0:0:
349,304,81985,6,0,B|367:169,1,124.799996191406,0|2,3:2|0:2,0:0:0:0:
452,120,82326,1,0,0:2:0:0:
452,120,82439,2,0,P|410:105|389:85,1,62.3999980957032,8|0,3:2|0:2,0:0:0:0:
309,110,82667,2,0,P|289:69|289:40,1,62.3999980957032,2|0,0:2|0:2,0:0:0:0:
191,144,82894,6,0,P|247:117|309:110,1,124.799996191406,0|2,3:2|0:2,0:0:0:0:
365,180,83235,2,0,P|397:198|428:234,2,62.3999980957032,0|8|0,0:2|3:2|0:2,0:0:0:0:
279,198,83576,2,0,P|260:229|251:276,1,62.3999980957032,2|0,0:2|0:2,0:0:0:0:
174,368,83803,6,0,L|161:195,1,145.599995556641,2|0,3:2|0:0,0:0:0:0:
338,368,84257,2,0,L|351:195,1,145.599995556641,2|0,3:2|0:0,0:0:0:0:
176,127,84712,6,0,P|97:114|108:23,1,166.4,2|0,3:2|0:0,0:0:0:0:
336,127,85167,2,0,P|414:114|403:23,1,166.4,2|0,3:2|0:0,0:0:0:0:
256,96,85621,6,0,L|256:11,2,69.3333333333333,8|8|8,3:1|0:1|0:1,0:0:0:0:
256,224,86076,5,8,0:1:0:0:
176,127,86227,1,8,0:1:0:0:
132,245,86379,1,8,0:1:0:0:
52,148,86530,6,0,L|35:34,1,104,8|2,0:1|0:3,0:0:0:0:
44,38,86833,1,2,0:3:0:0:
53,33,86909,1,0,0:0:0:0:
62,29,86985,2,0,P|89:20|127:25,1,52,2|8,0:3|0:1,0:0:0:0:
41,157,87212,1,8,0:1:0:0:
97,102,87326,1,8,0:1:0:0:
162,146,87439,6,0,L|282:137,1,114.400003491211,6|10,3:2|0:1,0:0:0:0:
358,177,87780,1,0,0:2:0:0:
358,177,87894,2,0,L|368:90,1,57.2000017456055,10|0,3:2|0:2,0:0:0:0:
426,60,88121,1,2,0:2:0:0:
426,60,88235,1,8,0:1:0:0:
426,60,88348,6,0,L|436:-27,1,57.2000017456055,2|0,3:2|0:2,0:0:0:0:
502,139,88576,2,0,L|508:82,2,57.2000017456055,10|2|8,0:1|0:2|3:2,0:0:0:0:
370,177,88917,2,0,L|364:120,1,57.2000017456055,2|0,0:2|0:2,0:0:0:0:
451,259,89144,1,10,0:1:0:0:
451,259,89257,6,0,B|450:175,1,57.2000017456055,0|2,3:2|0:2,0:0:0:0:
381,319,89485,2,0,B|360:237,2,57.2000017456055,8|2|10,0:1|0:2|3:2,0:0:0:0:
275,276,89826,2,0,B|295:194,1,57.2000017456055,2|0,0:2|0:2,0:0:0:0:
200,327,90053,6,0,B|179:245,1,57.2000017456055,10|0,0:1|3:2,0:0:0:0:
91,333,90280,1,2,0:2:0:0:
91,333,90394,2,0,B|105:246,2,57.2000017456055,8|2|8,0:1|0:2|3:2,0:0:0:0:
7,357,90735,2,0,B|2:272,1,57.2000017456055,2|0,0:2|0:2,0:0:0:0:
48,209,90962,1,10,0:1:0:0:
48,209,91076,6,0,P|81:180|84:105,2,114.400003491211,0|8|10,3:2|0:1|3:2,0:0:0:0:
3,299,91644,2,0,P|36:288|94:296,1,57.2000017456055,2|0,0:2|0:2,0:0:0:0:
189,256,91871,2,0,P|160:255|133:245,1,57.2000017456055,10|0,0:1|3:2,0:0:0:0:
270,230,92098,5,2,0:2:0:0:
269,230,92212,2,0,P|288:208|301:182,2,57.2000017456055,8|2|8,0:1|0:2|3:2,0:0:0:0:
287,362,92553,2,0,P|274:336|256:315,1,57.2000017456055,2|0,0:2|0:2,0:0:0:0:
373,365,92780,6,0,P|385:339|404:317,1,57.2000017456055,10|0,0:1|3:2,0:0:0:0:
416,232,93007,1,2,0:2:0:0:
416,232,93121,2,0,P|397:210|385:184,2,57.2000017456055,8|2|10,0:1|0:2|3:2,0:0:0:0:
494,112,93462,6,0,P|475:134|464:160,1,57.2000017456055,2|0,0:2|0:2,0:0:0:0:
367,57,93689,1,10,0:1:0:0:
367,57,93803,2,0,P|385:78|397:105,1,57.2000017456055,0|2,3:2|0:2,0:0:0:0:
313,124,94030,2,0,P|294:102|283:76,1,57.2000017456055,2|2,0:1|0:2,0:0:0:0:
142,61,94257,6,0,B|178:63|178:63|207:50,1,67.5999969055177,8|2,0:2|0:2,0:0:0:0:
11,91,94485,2,0,B|47:89|47:89|77:102,1,67.5999969055177,2|10,0:2|0:1,0:0:0:0:
31,227,94712,5,2,3:2:0:0:
31,227,94826,1,2,0:2:0:0:
31,227,94939,1,10,0:1:0:0:
31,227,95053,2,0,L|27:164,1,57.2000017456055,2|8,0:2|3:2,0:0:0:0:
140,200,95280,2,0,L|144:137,1,57.2000017456055,2|0,0:2|0:2,0:0:0:0:
190,309,95507,1,10,0:1:0:0:
190,309,95621,6,0,P|139:283|61:297,2,114.400003491211,2|10|8,3:2|0:1|3:2,0:0:0:0:
261,355,96189,2,0,P|290:359|318:357,1,57.2000017456055,2|0,0:2|0:2,0:0:0:0:
393,315,96417,1,10,0:1:0:0:
393,315,96530,6,0,P|422:311|450:313,1,57.2000017456055,0|2,3:2|0:2,0:0:0:0:
510,251,96757,2,0,P|484:239|461:221,2,57.2000017456055,8|2|10,0:1|0:2|3:2,0:0:0:0:
375,221,97098,2,0,P|352:203|326:190,1,57.2000017456055,2|0,0:2|0:2,0:0:0:0:
284,115,97326,6,0,P|296:89|304:61,1,57.2000017456055,10|0,0:1|3:2,0:0:0:0:
392,116,97553,1,2,0:2:0:0:
392,116,97667,2,0,P|416:101|443:92,2,57.2000017456055,8|2|8,0:1|0:2|3:2,0:0:0:0:
284,115,98007,2,0,P|261:96|235:83,1,57.2000017456055,2|0,0:2|0:2,0:0:0:0:
150,75,98235,6,0,P|124:61|102:43,1,57.2000017456055,10|0,0:1|3:2,0:0:0:0:
2,81,98462,2,0,P|36:50|108:45,1,114.400003491211,2|2,0:2|0:2,0:0:0:0:
88,174,98803,1,10,3:2:0:0:
88,174,98917,2,0,P|76:151|77:109,1,57.2000017456055,2|0,0:2|0:2,0:0:0:0:
254,169,99144,1,10,0:1:0:0:
254,169,99257,6,0,P|220:138|148:133,2,114.400003491211,0|10|8,3:2|0:1|3:2,0:0:0:0:
187,262,99826,2,0,P|178:235|181:206,1,57.2000017456055,2|0,0:2|0:2,0:0:0:0:
257,288,100015,1,8,0:1:0:0:
259,296,100091,1,8,0:1:0:0:
261,304,100167,6,0,P|293:282|330:274,2,76.2666689941407,8|8|8,0:1|0:1|0:1,0:0:0:0:
187,356,100621,5,10,0:1:0:0:
187,262,100773,1,8,0:1:0:0:
328,369,100924,1,8,0:1:0:0:
332,278,101076,5,8,0:1:0:0:
332,278,101189,2,0,P|339:241|336:214,1,52,4|0,0:1|0:2,0:0:0:0:
269,187,101417,2,0,P|262:150|265:123,2,52,4|6|0,0:1|0:1|0:0,0:0:0:0:
338,226,101757,2,0,P|373:213|395:197,1,52,6|2,0:1|0:2,0:0:0:0:
452,81,101985,6,0,L|444:149,1,67.5999969055177,6|2,3:2|0:2,0:0:0:0:
479,225,102212,2,0,P|436:199|385:205,1,104,10|10,0:1|3:2,0:0:0:0:
315,252,102553,2,0,L|240:242,1,52,0|2,0:2|0:2,0:0:0:0:
184,272,102780,1,8,0:1:0:0:
111,239,102894,6,0,P|101:214|101:161,1,52,2|0,3:2|0:2,0:0:0:0:
146,121,103121,1,10,0:1:0:0:
166,116,103235,2,0,P|176:91|176:38,1,52,2|8,0:2|3:2,0:0:0:0:
108,21,103462,2,0,B|41:16,2,52,2|0|10,0:2|0:0|0:1,0:0:0:0:
179,66,103803,6,0,B|246:71,1,52,0|2,3:2|0:2,0:0:0:0:
327,89,104030,2,0,P|260:89|210:39,1,104,0|10,0:0|3:2,0:0:0:0:
200,147,104371,2,0,P|210:166|222:207,1,52,2|0,0:2|0:2,0:0:0:0:
224,278,104598,1,10,0:1:0:0:
301,308,104712,6,0,P|324:296|348:288,1,52,0|2,3:2|0:2,0:0:0:0:
432,295,104939,1,8,0:1:0:0:
449,283,105053,2,0,L|453:227,1,52,2|8,0:2|3:2,0:0:0:0:
489,156,105280,1,2,0:2:0:0:
500,138,105394,2,0,L|504:82,1,52,0|10,0:2|0:1,0:0:0:0:
404,158,105621,6,0,P|378:147|331:143,1,52,0|2,3:2|0:2,0:0:0:0:
254,144,105848,2,0,P|299:155|370:133,1,104,8|10,0:1|3:2,0:0:0:0:
404,75,106189,2,0,B|405:23,1,52,2|0,0:2|0:2,0:0:0:0:
323,52,106417,1,10,0:1:0:0:
244,32,106530,6,0,P|217:24|160:19,1,52,0|2,3:2|0:2,0:0:0:0:
114,65,106757,1,8,0:1:0:0:
96,75,106871,2,0,P|70:70|45:63,1,52,2|8,0:2|3:2,0:0:0:0:
171,121,107098,2,0,P|196:114|221:109,2,52,2|0|10,0:2|0:2|0:1,0:0:0:0:
99,209,107439,6,0,L|94:144,1,52,0|2,3:2|0:2,0:0:0:0:
6,246,107667,2,0,P|48:216|98:208,1,104,0|10,0:0|3:2,0:0:0:0:
167,254,108007,2,0,B|178:323,1,52,2|0,0:2|0:2,0:0:0:0:
240,358,108235,1,10,0:1:0:0:
313,320,108348,6,0,B|341:256,1,52,0|2,3:2|0:2,0:0:0:0:
396,216,108576,1,10,0:1:0:0:
410,200,108689,2,0,L|412:148,2,52,2|10|2,0:2|3:2|0:2,0:0:0:0:
459,266,109030,2,0,L|524:282,1,52,2|10,0:2|0:1,0:0:0:0:
441,354,109257,6,0,P|411:334|322:329,1,104,2|10,3:2|0:1,0:0:0:0:
268,358,109598,2,0,L|188:345,1,52,2|8,0:2|3:2,0:0:0:0:
133,365,109826,2,0,L|53:352,1,52,2|0,0:2|0:2,0:0:0:0:
11,312,110053,1,10,0:1:0:0:
84,272,110167,6,0,P|92:247|95:221,1,52,2|0,3:2|0:0,0:0:0:0:
67,143,110394,1,8,0:1:0:0:
48,134,110507,2,0,P|39:109|36:83,1,52,2|8,0:2|3:2,0:0:0:0:
145,106,110735,2,0,P|154:81|157:55,1,52,2|0,0:2|0:2,0:0:0:0:
225,162,110962,1,10,0:1:0:0:
235,143,111076,6,0,P|259:134|285:131,1,52,0|2,3:2|0:2,0:0:0:0:
367,186,111303,2,0,P|317:168|284:129,1,104,0|10,0:0|3:2,0:0:0:0:
257,51,111644,2,0,P|236:36|211:25,1,52,2|0,0:2|0:2,0:0:0:0:
129,14,111871,1,10,0:1:0:0:
75,78,111985,6,0,L|12:72,2,52,0|2|10,3:2|0:2|0:1,0:0:0:0:
145,122,112326,2,0,L|196:117,1,52,2|8,0:2|3:2,0:0:0:0:
87,183,112553,2,0,B|8:177,2,52,0|0|10,0:2|0:2|0:1,0:0:0:0:
185,297,112894,6,0,P|185:262|176:229,2,69.3333333333333,4|4|4,3:1|0:1|0:1,0:0:0:0:
284,347,113348,5,6,3:1:0:0:
284,347,113462,2,0,B|408:330,1,104,2|0,0:2|0:0,0:0:0:0:
471,254,113803,5,4,3:1:0:0:
361,220,113954,1,4,0:1:0:0:
387,332,114106,1,4,0:1:0:0:
474,257,114257,5,6,3:1:0:0:
474,257,114371,2,0,B|482:121,1,104,2|0,0:2|0:0,0:0:0:0:
367,142,114712,5,4,3:1:0:0:
436,47,114863,1,4,0:1:0:0:
480,153,115015,1,4,0:1:0:0:
254,153,115167,5,6,3:1:0:0:
323,248,115318,1,4,0:1:0:0:
367,142,115470,1,4,0:1:0:0:
214,263,115621,5,0,3:2:0:0:
214,263,115735,2,0,L|134:249,2,52,8|8|8,0:1|0:1|0:1,0:0:0:0:
291,350,116076,5,8,3:2:0:0:
309,341,116189,1,8,0:1:0:0:
329,336,116303,1,8,0:1:0:0:
350,335,116417,1,8,0:1:0:0:
421,370,116530,5,4,3:2:0:0:
159,132,131076,6,0,P|149:83|135:43,2,72.7999977783204,4|0|8,3:2|0:2|0:2,0:0:0:0:
152,233,131757,1,0,0:2:0:0:
248,265,131985,2,0,P|282:254|318:248,1,72.7999977783204,0|0,3:2|0:2,0:0:0:0:
221,355,132439,2,0,L|170:343,1,36.3999988891602,8|0,0:2|0:0,0:0:0:0:
134,354,132667,2,0,L|83:342,1,36.3999988891602,0|0,0:2|0:2,0:0:0:0:
27,369,132894,6,0,B|21:266,1,72.7999977783204,0|0,3:2|0:2,0:0:0:0:
54,256,133235,1,0,0:2:0:0:
54,256,133348,2,0,L|63:171,1,72.7999977783204,8|0,0:2|0:2,0:0:0:0:
185,145,133803,6,0,B|181:78,2,36.3999988891602,0|0|0,3:2|0:2|0:0,0:0:0:0:
244,197,134144,1,0,0:2:0:0:
244,197,134257,2,0,L|329:188,1,72.7999977783204,0|0,0:0|0:2,0:0:0:0:
460,233,134712,6,0,B|466:130,1,72.7999977783204,0|0,3:2|0:2,0:0:0:0:
433,120,135053,1,0,0:2:0:0:
433,120,135167,2,0,L|424:35,1,72.7999977783204,8|0,0:2|0:2,0:0:0:0:
295,86,135621,6,0,P|246:85|217:67,1,72.7999977783204,0|0,3:2|0:2,0:0:0:0:
149,69,135962,2,0,B|138:13,2,36.3999988891602,0|8|0,0:2|0:2|0:2,0:0:0:0:
182,137,136303,2,0,B|184:192,1,36.3999988891602,0|0,0:2|0:2,0:0:0:0:
107,197,136530,5,0,3:2:0:0:
107,197,136644,2,0,B|90:139,1,36.3999988891602,0|0,0:2|0:2,0:0:0:0:
44,106,136871,1,0,0:2:0:0:
44,106,136985,2,0,B|41:22,1,72.7999977783204,8|0,0:2|0:2,0:0:0:0:
149,69,137439,6,0,P|176:55|228:51,1,72.7999977783204,0|0,3:2|0:2,0:0:0:0:
291,76,137780,1,0,0:2:0:0:
291,76,137894,2,0,P|327:72|359:56,1,72.7999977783204,8|0,0:2|0:2,0:0:0:0:
493,153,138348,6,0,P|460:136|425:133,1,72.7999977783204,0|0,3:2|0:2,0:0:0:0:
344,196,138803,1,8,0:2:0:0:
344,196,138917,2,0,L|332:252,1,36.3999988891602,0|0,0:2|0:0,0:0:0:0:
423,328,139257,5,0,3:2:0:0:
423,328,139371,1,0,0:2:0:0:
423,328,139485,2,0,P|376:314|361:314,1,36.3999988891602,0|0,0:2|0:2,0:0:0:0:
323,348,139712,1,8,0:2:0:0:
323,348,139826,2,0,L|260:341,1,36.3999988891602,0|0,0:2|0:0,0:0:0:0:
156,361,140167,6,0,L|154:269,1,72.7999977783204,0|0,3:2|0:2,0:0:0:0:
104,229,140507,2,0,L|72:211,2,36.3999988891602,0|8|0,0:2|0:2|0:2,0:0:0:0:
180,215,140848,2,0,L|211:196,1,36.3999988891602,0|0,0:2|0:2,0:0:0:0:
285,226,141076,6,0,L|386:217,2,72.7999977783204,0|0|8,3:2|0:2|0:2,0:0:0:0:
285,225,141985,6,0,L|292:153,1,72.7999977783204,0|0,3:2|0:2,0:0:0:0:
249,88,142326,2,0,P|235:75|219:66,2,36.3999988891602,0|8|0,0:2|0:2|0:2,0:0:0:0:
326,84,142667,2,0,P|344:78|359:69,1,36.3999988891602,0|0,0:2|0:0,0:0:0:0:
439,73,142894,5,0,3:2:0:0:
439,73,143007,2,0,L|449:21,2,36.3999988891602,0|0|0,0:2|0:0|0:2,0:0:0:0:
483,181,143348,2,0,P|451:162|416:152,1,72.7999977783204,8|0,0:2|0:2,0:0:0:0:
347,177,143651,1,8,0:1:0:0:
345,185,143727,1,8,0:1:0:0:
343,193,143803,6,0,L|262:186,2,55.4666666666667,8|8|8,0:1|0:1|0:1,0:0:0:0:
434,265,144257,2,0,L|515:272,2,55.4666666666667,8|8|8,0:1|0:1|0:1,0:0:0:0:
325,342,144712,5,8,0:1:0:0:
325,342,144826,2,0,P|338:304|340:274,1,57.2000017456055,4|0,0:1|0:2,0:0:0:0:
232,364,145053,1,4,0:1:0:0:
232,364,145167,6,0,P|192:340|145:336,1,93.5999971435548,4|0,0:1|0:2,0:0:0:0:
5,326,145621,6,0,B|84:306|65:357|146:336,1,145.599995556641,4|2,3:2|0:2,0:0:0:0:
193,261,145962,1,0,0:2:0:0:
244,190,146076,2,0,L|235:129,1,62.3999980957032,8|0,3:2|0:2,0:0:0:0:
286,57,146303,1,2,0:2:0:0:
286,57,146417,1,0,0:2:0:0:
366,90,146530,6,0,P|399:87|448:67,1,62.3999980957032,0|0,3:2|0:2,0:0:0:0:
503,175,146757,1,2,0:2:0:0:
503,175,146871,2,0,P|473:166|442:164,2,62.3999980957032,0|8|0,0:2|3:2|0:2,0:0:0:0:
393,281,147212,2,0,P|384:251|381:220,1,62.3999980957032,2|0,0:2|0:2,0:0:0:0:
308,355,147439,6,0,B|345:350|345:350|388:376|428:355,2,124.799996191406,0|2|8,3:2|0:2|3:2,0:0:0:0:
81,322,148121,1,2,0:2:0:0:
102,345,148235,1,0,0:2:0:0:
123,368,148348,6,0,B|126:325|126:325|113:294|113:294|113:237,1,124.799996191406,0|2,3:2|0:2,0:0:0:0:
178,187,148689,1,0,0:2:0:0:
178,187,148803,2,0,B|185:157|185:157|178:120,1,62.3999980957032,8|0,3:2|0:2,0:0:0:0:
41,200,149030,2,0,B|26:172|26:172|23:135,1,62.3999980957032,2|0,0:2|0:2,0:0:0:0:
31,44,149257,6,0,B|63:43|91:62|91:62|113:40|144:34,1,124.799996191406,0|2,3:2|0:2,0:0:0:0:
229,55,149598,1,0,0:2:0:0:
311,83,149712,2,0,B|387:59,1,62.3999980957032,8|0,3:2|0:2,0:0:0:0:
439,118,149939,2,0,B|498:136,1,62.3999980957032,2|0,0:2|0:2,0:0:0:0:
367,223,150167,6,0,B|359:192|359:192|362:162,2,62.3999980957032,0|0|2,3:2|0:2|0:2,0:0:0:0:
480,315,150507,1,0,0:2:0:0:
481,315,150621,2,0,B|455:297|455:297|425:289,1,62.3999980957032,8|0,3:2|0:2,0:0:0:0:
287,341,150848,2,0,B|316:328|316:328|339:306,1,62.3999980957032,2|0,0:2|0:2,0:0:0:0:
362,161,151076,6,0,B|367:224|367:224|318:184,1,124.799996191406,0|2,3:2|0:2,0:0:0:0:
243,130,151417,1,0,0:2:0:0:
243,130,151530,2,0,B|237:68|237:68|302:120,1,124.799996191406,8|2,3:2|0:2,0:0:0:0:
243,213,151871,1,0,0:2:0:0:
219,218,151985,6,0,L|127:195,1,62.3999980957032,0|0,3:2|0:2,0:0:0:0:
70,203,152212,2,0,B|73:172|73:172|82:147|82:147|73:126|73:126|67:71,1,124.799996191406,2|8,0:2|3:2,0:0:0:0:
150,46,152553,1,0,0:2:0:0:
150,46,152667,2,0,P|181:38|209:24,1,62.3999980957032,2|0,0:2|0:2,0:0:0:0:
345,57,152894,6,0,B|316:48|283:48|283:48|268:33|268:33|230:33|206:24,1,145.599995556641,4|2,3:2|0:2,0:0:0:0:
121,12,153235,1,0,0:2:0:0:
68,82,153348,2,0,L|64:154,1,62.3999980957032,8|0,3:2|0:2,0:0:0:0:
30,224,153576,1,2,0:2:0:0:
30,224,153689,1,0,0:2:0:0:
111,253,153803,6,0,P|140:244|171:242,1,62.3999980957032,0|0,3:2|0:2,0:0:0:0:
288,331,154030,2,0,P|265:310|249:284,2,62.3999980957032,2|0|8,0:2|0:2|3:2,0:0:0:0:
374,313,154371,2,0,P|382:283|384:252,2,62.3999980957032,0|0|0,0:2|0:0|0:2,0:0:0:0:
482,354,154712,6,0,B|455:321|455:321|366:312,1,124.799996191406,0|2,3:2|0:2,0:0:0:0:
311,241,155053,1,0,0:2:0:0:
296,221,155167,2,0,L|292:154,1,62.3999980957032,8|0,3:2|0:2,0:0:0:0:
366,44,155394,2,0,L|363:107,1,62.3999980957032,2|0,0:2|0:2,0:0:0:0:
231,104,155621,6,0,P|255:85|286:79,1,62.3999980957032,0|0,3:2|0:2,0:0:0:0:
371,130,155848,1,2,0:2:0:0:
387,148,155962,2,0,P|417:149|445:136,1,62.3999980957032,0|8,0:0|3:2,0:0:0:0:
285,79,156189,2,0,P|256:66|225:67,2,62.3999980957032,0|2|0,0:2|0:2|0:2,0:0:0:0:
234,208,156530,6,0,L|240:128,1,62.3999980957032,0|0,3:2|0:2,0:0:0:0:
143,242,156757,2,0,L|91:206,1,62.3999980957032,2|0,0:2|0:2,0:0:0:0:
125,87,156985,2,0,L|153:144,1,62.3999980957032,8|0,3:2|0:2,0:0:0:0:
40,84,157212,1,2,0:2:0:0:
40,84,157326,1,0,0:2:0:0:
40,84,157439,6,0,P|48:47|69:21,1,62.3999980957032,0|0,3:2|0:2,0:0:0:0:
1,214,157667,1,2,0:2:0:0:
1,214,157780,2,0,P|17:187|22:157,1,62.3999980957032,0|8,0:2|3:2,0:0:0:0:
63,337,158007,1,0,0:2:0:0:
63,337,158121,2,0,P|55:300|34:274,1,62.3999980957032,2|0,0:2|0:2,0:0:0:0:
213,228,158348,6,0,P|153:211|90:211,1,124.799996191406,0|2,3:2|0:2,0:0:0:0:
22,156,158689,1,0,0:2:0:0:
83,93,158803,2,0,P|91:62|95:14,1,62.3999980957032,8|0,3:2|0:2,0:0:0:0:
187,135,159030,2,0,P|179:104|175:56,1,62.3999980957032,2|0,0:2|0:2,0:0:0:0:
277,149,159257,6,0,P|292:121|309:75,1,62.3999980957032,0|0,3:2|0:2,0:0:0:0:
401,178,159485,1,2,0:2:0:0:
401,178,159598,2,0,P|392:146|388:97,1,62.3999980957032,0|8,0:2|3:2,0:0:0:0:
491,199,159826,1,0,0:2:0:0:
491,199,159939,2,0,P|504:170|508:139,1,62.3999980957032,2|0,0:2|0:2,0:0:0:0:
493,0,160167,6,0,B|492:58|492:58|510:88|510:88|508:141,1,145.599995556641,4|2,3:2|0:2,0:0:0:0:
477,222,160507,1,0,0:2:0:0:
401,178,160621,2,0,L|329:164,1,62.3999980957032,8|0,3:2|0:2,0:0:0:0:
261,204,160848,1,2,0:2:0:0:
261,204,160962,1,0,0:2:0:0:
190,152,161076,6,0,B|165:113|183:68|183:68|144:36,1,124.799996191406,0|2,3:2|0:2,0:0:0:0:
28,94,161417,1,0,0:2:0:0:
28,94,161530,2,0,L|14:13,1,62.3999980957032,8|0,3:2|0:2,0:0:0:0:
94,159,161757,2,0,L|108:78,1,62.3999980957032,2|0,0:2|0:2,0:0:0:0:
13,195,161985,6,0,P|74:201|121:241,1,124.799996191406,0|2,3:2|0:2,0:0:0:0:
154,322,162326,1,0,0:2:0:0:
237,346,162439,2,0,L|312:341,1,62.3999980957032,8|0,3:2|0:2,0:0:0:0:
383,366,162667,2,0,L|458:361,1,62.3999980957032,2|0,0:2|0:2,0:0:0:0:
505,297,162894,6,0,P|484:273|467:247,1,62.3999980957032,0|0,3:2|0:2,0:0:0:0:
502,110,163121,2,0,P|485:136|465:160,2,62.3999980957032,2|0|8,0:2|0:2|3:2,0:0:0:0:
377,156,163462,1,0,0:2:0:0:
377,156,163576,2,0,P|356:132|339:106,1,62.3999980957032,0|0,0:0|0:2,0:0:0:0:
260,222,163803,6,0,B|304:210|304:210|326:226|326:226|377:232,2,124.799996191406,0|2|8,3:2|0:2|3:2,0:0:0:0:
116,323,164485,1,2,0:2:0:0:
116,323,164598,1,0,0:2:0:0:
179,383,164712,6,0,P|202:305|175:256,1,124.799996191406,0|2,3:2|0:2,0:0:0:0:
113,219,165053,1,0,0:2:0:0:
91,207,165167,2,0,P|81:178|78:147,1,62.3999980957032,8|0,3:2|0:2,0:0:0:0:
131,77,165394,2,0,P|141:48|144:17,1,62.3999980957032,2|0,0:2|0:2,0:0:0:0:
249,96,165621,6,0,P|186:71|123:79,1,124.799996191406,0|2,3:2|0:2,0:0:0:0:
82,150,165962,1,0,0:2:0:0:
13,88,166076,2,0,P|3:58|0:28,1,62.3999980957032,8|0,3:2|0:2,0:0:0:0:
82,150,166303,2,0,P|79:180|69:210,1,62.3999980957032,2|0,0:2|0:2,0:0:0:0:
7,323,166530,6,0,P|63:298|125:303,1,124.799996191406,0|2,3:2|0:2,0:0:0:0:
236,339,166871,1,0,0:2:0:0:
261,343,166985,2,0,P|293:336|320:321,1,62.3999980957032,8|0,3:2|0:2,0:0:0:0:
405,204,167212,2,0,P|396:233|380:260,1,62.3999980957032,2|0,0:2|0:2,0:0:0:0:
241,226,167439,6,0,B|297:233|297:233|322:250|322:250|379:260,1,145.599995556641,4|2,3:2|0:2,0:0:0:0:
487,214,167780,2,0,B|488:182|488:182|502:155,2,62.3999980957032,0|8|0,0:2|3:2|0:2,0:0:0:0:
467,346,168121,2,0,B|466:315|466:315|452:288,1,62.3999980957032,2|0,0:2|0:2,0:0:0:0:
331,344,168348,6,0,B|281:344|281:344|257:356|257:356|208:356,1,124.799996191406,0|2,3:2|0:2,0:0:0:0:
123,337,168689,1,0,0:2:0:0:
44,369,168803,2,0,L|36:305,1,62.3999980957032,8|0,3:2|0:2,0:0:0:0:
1,232,169030,1,2,0:2:0:0:
1,232,169144,1,0,0:2:0:0:
44,156,169257,6,0,B|93:149|93:149|118:158|118:158|167:152,1,124.799996191406,0|2,3:2|0:2,0:0:0:0:
264,48,169598,2,0,P|234:58|211:78,2,62.3999980957032,0|8|0,0:2|3:2|0:2,0:0:0:0:
347,74,169939,2,0,P|376:79|407:74,1,62.3999980957032,2|0,0:2|0:2,0:0:0:0:
401,190,170167,6,0,P|385:130|408:73,1,124.799996191406,0|2,3:2|0:2,0:0:0:0:
494,50,170507,1,0,0:2:0:0:
494,50,170621,2,0,L|499:-16,1,62.3999980957032,8|0,3:2|0:2,0:0:0:0:
408,73,170848,2,0,L|397:6,1,62.3999980957032,2|0,0:2|0:2,0:0:0:0:
398,218,171076,6,0,L|407:72,1,145.599995556641,0|0,3:2|0:0,0:0:0:0:
114,218,171530,2,0,L|104:72,1,145.599995556641,8|0,3:2|0:0,0:0:0:0:
351,291,171985,6,0,P|431:297|481:234,1,166.4,0|0,3:2|0:0,0:0:0:0:
160,291,172439,2,0,P|80:297|30:234,1,166.4,8|0,3:2|0:0,0:0:0:0:
256,175,172894,5,2,3:2:0:0:
256,167,173007,1,2,0:0:0:0:
256,158,173121,1,2,0:2:0:0:
256,149,173235,1,2,0:2:0:0:
256,141,173348,1,2,3:2:0:0:
256,132,173462,1,2,0:2:0:0:
256,123,173576,1,2,0:2:0:0:
256,115,173689,1,2,0:2:0:0:
256,106,173803,1,2,3:2:0:0:
256,97,173917,1,2,0:2:0:0:
257,88,174030,5,10,0:1:0:0:
238,124,174144,1,6,0:3:0:0:
204,147,174257,1,10,0:1:0:0:
163,152,174371,1,6,0:3:0:0:
125,136,174485,1,10,0:1:0:0:
99,103,174598,1,10,0:1:0:0:
90,63,174712,6,0,B|125:35|125:35|124:148,1,145.599995556641,4|0,3:2|0:2,0:0:0:0:
18,236,175167,1,8,3:2:0:0:
18,236,175280,2,0,P|43:223|75:223,1,52,0|0,0:2|0:2,0:0:0:0:
146,267,175507,1,0,0:2:0:0:
146,267,175621,2,0,L|149:193,1,52,0|0,3:2|0:2,0:0:0:0:
236,305,175848,1,0,0:2:0:0:
236,305,175962,2,0,L|230:244,2,52,0|8|0,0:2|3:2|0:2,0:0:0:0:
316,268,176303,2,0,L|318:209,1,52,0|0,0:2|0:2,0:0:0:0:
386,322,176530,6,0,P|441:309|502:315,1,104,0|0,3:2|0:2,0:0:0:0:
509,167,176985,1,8,3:2:0:0:
509,167,177098,2,0,P|494:148|490:107,1,52,0|0,0:2|0:2,0:0:0:0:
407,104,177326,1,0,0:2:0:0:
407,104,177439,2,0,P|409:80|435:48,1,52,0|0,3:2|0:2,0:0:0:0:
336,143,177667,1,0,0:2:0:0:
336,143,177780,2,0,P|327:120|294:96,1,52,0|8,0:2|3:2,0:0:0:0:
255,219,178007,1,0,0:2:0:0:
255,219,178121,2,0,P|250:195|267:157,1,52,0|0,0:2|0:2,0:0:0:0:
351,247,178348,6,0,P|286:218|232:224,1,104,0|0,3:2|0:2,0:0:0:0:
122,281,178803,1,8,3:2:0:0:
122,281,178917,2,0,L|116:221,1,52,0|0,0:2|0:2,0:0:0:0:
175,168,179144,1,0,0:2:0:0:
175,168,179257,2,0,L|181:108,1,52,0|0,3:2|0:2,0:0:0:0:
251,68,179485,1,0,0:2:0:0:
251,68,179598,2,0,L|245:7,2,52,0|8|0,0:2|3:2|0:2,0:0:0:0:
333,90,179939,2,0,L|359:33,1,52,0|0,0:2|0:2,0:0:0:0:
457,53,180167,6,0,P|402:40|341:46,1,104,0|0,3:2|0:2,0:0:0:0:
397,182,180621,1,8,3:2:0:0:
397,182,180735,2,0,P|407:146|404:120,1,52,0|0,0:2|0:2,0:0:0:0:
325,223,180962,1,0,0:2:0:0:
325,223,181076,2,0,P|315:187|318:161,1,52,0|0,3:2|0:2,0:0:0:0:
361,300,181303,1,0,0:2:0:0:
361,300,181417,2,0,P|387:273|398:249,1,52,0|8,0:2|3:2,0:0:0:0:
267,282,181644,1,0,0:2:0:0:
267,282,181757,2,0,P|246:249|242:223,1,52,0|0,0:2|0:2,0:0:0:0:
196,346,181985,6,0,P|156:326|54:322,1,104,0|0,3:2|0:2,0:0:0:0:
13,197,182439,1,8,3:2:0:0:
13,197,182553,2,0,L|7:136,1,52,0|0,0:2|0:2,0:0:0:0:
96,175,182780,1,0,0:2:0:0:
96,175,182894,2,0,L|99:101,1,52,0|0,3:2|0:2,0:0:0:0:
167,217,183121,1,0,0:2:0:0:
167,217,183235,2,0,L|185:153,2,52,0|8|0,0:2|3:2|0:2,0:0:0:0:
263,267,183576,2,0,L|253:208,1,52,0|0,0:2|0:2,0:0:0:0:
365,256,183803,6,0,P|314:268|262:266,1,104,0|0,3:2|0:2,0:0:0:0:
148,356,184257,1,8,3:2:0:0:
148,356,184371,2,0,P|161:333|170:309,1,52,0|0,0:2|0:2,0:0:0:0:
170,222,184598,1,0,0:2:0:0:
170,222,184712,2,0,P|156:199|147:175,1,52,0|0,3:2|0:2,0:0:0:0:
67,143,184939,1,0,0:2:0:0:
67,143,185053,2,0,P|79:120|96:100,1,52,0|8,0:2|3:2,0:0:0:0:
217,126,185280,1,0,0:2:0:0:
217,126,185394,2,0,P|199:107|177:92,1,52,0|0,0:2|0:2,0:0:0:0:
170,221,185621,6,0,P|219:205|271:202,1,104,0|0,3:2|0:2,0:0:0:0:
399,271,186076,1,8,3:2:0:0:
399,271,186189,2,0,L|407:199,1,52,0|0,0:2|0:2,0:0:0:0:
474,169,186417,1,0,0:2:0:0:
474,169,186530,2,0,L|466:97,1,52,0|0,3:2|0:2,0:0:0:0:
405,65,186757,1,0,0:2:0:0:
405,65,186871,2,0,L|399:4,2,52,0|8|0,0:2|3:2|0:2,0:0:0:0:
337,115,187212,2,0,L|286:83,1,34.6666666666667,0|8,0:2|0:1,0:0:0:0:
299,90,187363,1,8,0:1:0:0:
289,85,187439,6,0,B|204:80,2,69.3333333333333,8|8|8,0:1|0:1|0:1,0:0:0:0:
405,65,187894,2,0,B|490:70,2,69.3333333333333,8|8|8,0:1|0:1|0:1,0:0:0:0:
289,85,188348,6,0,P|280:109|277:135,1,52,8|4,0:1|0:1,0:0:0:0:
303,214,188576,1,0,0:2:0:0:
303,214,188689,2,0,P|311:238|314:264,1,52,4|4,0:1|0:1,0:0:0:0:
252,311,188917,1,0,0:2:0:0:
252,311,189030,2,0,P|243:335|240:361,1,52,4|0,0:1|0:2,0:0:0:0:
374,358,189257,6,0,B|326:356|326:356|289:366|289:366|240:361,1,135.199993811035,4|0,3:2|0:2,0:0:0:0:
159,384,189598,2,0,P|156:356|145:325,1,52,0|8,0:2|3:2,0:0:0:0:
68,297,189826,1,0,0:2:0:0:
68,297,189939,2,0,P|71:269|82:238,1,52,0|0,0:2|0:2,0:0:0:0:
202,209,190167,6,0,P|176:213|151:212,1,52,0|0,3:2|0:2,0:0:0:0:
81,167,190394,1,0,0:2:0:0:
81,167,190507,2,0,P|68:143|61:118,1,52,0|8,0:2|3:2,0:0:0:0:
83,39,190735,1,0,0:2:0:0:
83,39,190848,2,0,P|102:19|123:5,1,52,0|0,0:2|0:2,0:0:0:0:
233,33,191076,6,0,P|281:50|332:45,1,104,0|0,3:2|0:2,0:0:0:0:
424,43,191417,2,0,P|409:65|402:90,1,52,0|8,0:2|3:2,0:0:0:0:
462,154,191644,1,0,0:2:0:0:
462,154,191757,2,0,P|476:132|484:107,1,52,0|0,0:2|0:0,0:0:0:0:
376,167,191985,6,0,P|355:152|331:144,1,52,0|0,3:2|0:2,0:0:0:0:
247,150,192212,1,0,0:2:0:0:
247,150,192326,2,0,P|223:160|204:177,1,52,0|8,0:2|3:2,0:0:0:0:
167,253,192553,1,0,0:2:0:0:
167,253,192667,2,0,P|164:278|169:303,1,52,0|0,0:2|0:2,0:0:0:0:
266,361,192894,6,0,P|310:340|370:342,1,104,0|0,3:2|0:2,0:0:0:0:
439,375,193235,2,0,L|447:323,2,52,0|8|0,0:2|3:2|0:2,0:0:0:0:
388,262,193576,2,0,L|378:198,1,52,0|0,0:2|0:0,0:0:0:0:
440,151,193803,6,0,P|415:145|396:129,1,52,0|0,3:2|0:2,0:0:0:0:
315,153,194030,1,0,0:2:0:0:
315,153,194144,2,0,P|307:128|312:103,1,52,0|8,0:2|3:2,0:0:0:0:
436,16,194371,1,0,0:2:0:0:
433,29,194485,1,0,0:2:0:0:
430,42,194598,1,0,0:2:0:0:
445,69,194712,6,0,P|395:58|358:22,1,104,0|0,3:2|0:2,0:0:0:0:
311,103,195053,2,0,P|282:89|243:84,1,52,0|8,0:2|3:2,0:0:0:0:
192,142,195280,1,0,0:2:0:0:
192,142,195394,2,0,P|159:139|123:124,1,52,0|0,0:2|0:2,0:0:0:0:
262,204,195621,6,0,P|286:196|312:195,1,52,0|0,3:2|0:2,0:0:0:0:
444,220,195848,1,0,0:2:0:0:
444,220,195962,2,0,P|418:219|394:212,1,52,0|8,0:2|3:2,0:0:0:0:
355,329,196189,1,0,0:2:0:0:
358,315,196303,1,0,0:0:0:0:
360,302,196417,1,0,0:2:0:0:
343,267,196530,6,0,L|345:370,1,104,0|0,3:2|0:2,0:0:0:0:
264,349,196871,2,0,P|255:325|236:306,1,52,0|8,0:2|3:2,0:0:0:0:
165,262,197098,1,0,0:2:0:0:
165,262,197212,2,0,P|139:257|113:264,1,52,0|0,0:2|0:2,0:0:0:0:
38,359,197439,6,0,L|44:308,1,52,0|0,3:2|0:2,0:0:0:0:
7,236,197667,1,0,0:2:0:0:
7,236,197780,2,0,L|1:184,1,52,0|8,0:2|3:2,0:0:0:0:
71,135,198007,1,0,0:2:0:0:
71,135,198121,2,0,L|76:83,1,52,0|0,0:2|0:2,0:0:0:0:
146,191,198348,6,0,P|199:191|246:170,1,104,0|0,3:2|0:2,0:0:0:0:
320,207,198689,2,0,P|344:202|372:202,1,52,0|8,0:2|3:2,0:0:0:0:
425,138,198917,1,0,0:2:0:0:
425,138,199030,2,0,P|408:119|394:95,1,52,0|0,0:2|0:2,0:0:0:0:
308,70,199257,5,0,3:2:0:0:
308,70,199371,2,0,P|325:51|339:27,2,52,0|0|0,0:2|0:2|0:2,0:0:0:0:
172,68,199712,2,0,P|198:70|224:77,1,52,8|0,3:2|0:2,0:0:0:0:
97,104,199939,2,0,P|71:102|45:95,1,52,0|0,0:2|0:2,0:0:0:0:
124,237,200167,6,0,P|142:207|149:174,1,69.3333333333333,4|4,3:1|0:1,0:0:0:0:
38,362,200470,1,4,0:1:0:0:
0,290,200621,6,0,P|24:280|49:281,1,52,6|0,3:1|0:2,0:0:0:0:
123,319,200848,2,0,P|148:320|172:310,1,52,0|0,0:2|0:2,0:0:0:0:
296,211,201076,5,4,3:1:0:0:
166,221,201227,1,4,0:1:0:0:
258,283,201379,1,4,0:1:0:0:
204,149,201530,6,0,P|180:139|155:140,1,52,6|0,3:1|0:2,0:0:0:0:
296,211,201757,2,0,P|321:212|345:202,1,52,0|0,0:2|0:2,0:0:0:0:
382,26,201985,5,4,3:1:0:0:
301,129,202136,1,4,0:1:0:0:
299,19,202288,1,4,0:1:0:0:
384,136,202439,5,6,3:1:0:0:
465,33,202591,1,4,0:1:0:0:
467,143,202742,1,4,0:1:0:0:
303,23,202894,5,0,3:2:0:0:
303,23,203007,2,0,L|245:16,2,52,8|8|8,0:1|0:1|0:1,0:0:0:0:
384,136,203348,5,8,3:2:0:0:
379,116,203462,1,8,0:1:0:0:
380,95,203576,1,8,0:1:0:0:
384,76,203689,1,8,0:1:0:0:
443,309,204132,6,0,L|453:265,2,34.6666666666667,2|2|2,0:0|0:0|0:0,0:0:0:0:
