osu file format v14

[General]
AudioFilename: audio.mp3
AudioLeadIn: 0
PreviewTime: 87389
Countdown: 0
SampleSet: Soft
StackLeniency: 0.6
Mode: 0
LetterboxInBreaks: 0
WidescreenStoryboard: 1

[Editor]
Bookmarks: 14662,29207,43753,58298,72844,80177,87389,101935,101995,116480,131026,143753,145571,160177,167449,174662,189207,204267
DistanceSpacing: 1.2
BeatDivisor: 4
GridSize: 32
TimelineZoom: 1.8

[Metadata]
Title:Maritime Police
TitleUnicode:Maritime Police
Artist:Street
ArtistUnicode:Street
Creator:Mir
Version:Hard
Source:
Tags:lasse c90 toyKasket rock SunFlowers House
BeatmapID:1451309
BeatmapSetID:681410

[Difficulty]
HPDrainRate:4
CircleSize:4
OverallDifficulty:5
ApproachRate:7
SliderMultiplier:1.5
SliderTickRate:1

[Events]
//Background and Video events
0,0,"really big seagull.jpg",0,0
//Break Periods
2,116731,130177
2,174913,186540
//Storyboard Layer 0 (Background)
//Storyboard Layer 1 (Fail)
//Storyboard Layer 2 (Pass)
//Storyboard Layer 3 (Foreground)
//Storyboard Sound Samples

[TimingPoints]
167,454.545454545455,4,2,1,80,1,0
14712,-100,4,2,1,80,0,0
14939,-100,4,2,1,80,0,0
29257,-100,4,2,1,70,0,0
29485,-100,4,2,1,70,0,0
43803,-100,4,2,1,70,0,0
44030,-100,4,2,1,70,0,0
57894,-100,4,2,1,70,0,0
58348,-83.3333333333333,4,2,1,100,0,1
58576,-83.3333333333333,4,2,1,100,0,1
65621,-83.3333333333333,4,2,1,100,0,1
65849,-83.3333333333333,4,2,1,100,0,1
72894,-83.3333333333333,4,2,1,100,0,1
73122,-83.3333333333333,4,2,1,100,0,1
80167,-83.3333333333333,4,2,1,100,0,1
80395,-83.3333333333333,4,2,1,100,0,1
83803,-83.3333333333333,4,2,1,100,0,1
84712,-100,4,2,1,100,0,1
85621,-100,4,2,1,100,0,1
87439,-100,4,2,2,70,0,0
94257,-100,4,2,3,70,0,0
94371,-100,4,2,2,70,0,0
94712,-100,4,2,2,70,0,0
100621,-100,4,2,1,70,0,0
100773,-100,4,2,2,70,0,0
101530,-100,4,2,1,70,0,0
101644,-100,4,2,2,70,0,0
101985,-100,4,2,2,80,0,0
102212,-100,4,2,2,80,0,0
112894,-100,4,2,1,80,0,0
131076,-100,4,2,3,50,0,0
143689,-100,4,2,1,70,0,0
144712,-100,4,2,1,80,0,0
145167,-100,4,2,1,80,0,0
145621,-83.3333333333333,4,2,1,100,0,1
145849,-83.3333333333333,4,2,1,100,0,1
152894,-83.3333333333333,4,2,1,100,0,1
153122,-83.3333333333333,4,2,1,100,0,1
160167,-83.3333333333333,4,2,1,100,0,1
160394,-83.3333333333333,4,2,1,100,0,1
167439,-83.3333333333333,4,2,1,100,0,1
167668,-83.3333333333333,4,2,1,100,0,1
171076,-83.3333333333333,4,2,1,100,0,1
171985,-83.3333333333333,4,2,1,100,0,1
172894,-83.3333333333333,4,2,1,100,0,1
174030,-83.3333333333333,4,2,4,100,0,1
174712,-100,4,2,1,70,0,0
174939,-100,4,2,1,70,0,0
189257,-100,4,2,1,70,0,0
189485,-100,4,2,1,70,0,0
204132,454.545454545455,4,2,1,70,1,0

[Colours]
Combo1 : 228,228,228
Combo2 : 179,255,255
Combo3 : 155,200,255
Combo4 : 250,223,160

[HitObjects]
124,121,12895,6,0,L|43:117,2,50,8|8|8,0:1|0:1|0:1,0:0:0:0:
155,194,13349,2,0,L|236:190,2,50,8|8|8,0:1|0:1|0:1,0:0:0:0:
108,252,13804,5,8,0:1:0:0:
108,252,13918,2,0,P|101:321|112:350,1,75,4|4,0:1|0:1,0:0:0:0:
121,365,14258,2,0,L|228:362,1,75,4|4,0:1|0:1,0:0:0:0:
266,329,14713,5,4,3:2:0:0:
266,329,14827,2,0,P|266:278|284:230,1,75,0|0,0:2|0:2,0:0:0:0:
289,221,15168,2,0,L|373:224,1,75,8|0,3:2|0:2,0:0:0:0:
465,231,15622,1,0,3:2:0:0:
465,231,15736,2,0,B|474:189|474:189|463:128,1,75,0|0,0:2|0:2,0:0:0:0:
451,115,16077,1,8,3:2:0:0:
406,37,16304,1,0,0:2:0:0:
324,75,16531,5,0,3:2:0:0:
324,75,16645,2,0,P|254:82|223:74,1,75,0|0,0:2|0:2,0:0:0:0:
212,56,16986,2,0,L|126:56,1,75,8|0,3:2|0:2,0:0:0:0:
67,113,17440,1,0,3:2:0:0:
67,113,17554,2,0,L|71:209,1,75,0|0,0:2|0:2,0:0:0:0:
75,232,17895,1,8,3:2:0:0:
33,311,18122,1,0,0:2:0:0:
101,369,18349,5,0,3:2:0:0:
101,369,18463,2,0,P|158:358|198:362,1,75,0|0,0:2|0:2,0:0:0:0:
218,370,18804,2,0,L|301:368,1,75,8|0,3:2|0:2,0:0:0:0:
365,315,19258,1,0,3:2:0:0:
365,315,19372,2,0,P|375:275|365:221,1,75,0|0,0:2|0:2,0:0:0:0:
347,203,19713,2,0,L|344:147,1,37.5,8|0,3:2|0:2,0:0:0:0:
343,120,19940,1,0,0:2:0:0:
383,39,20168,5,0,3:2:0:0:
383,39,20281,2,0,P|436:42|475:40,1,75,0|0,0:2|0:2,0:0:0:0:
503,41,20622,2,0,L|501:115,1,75,8|0,3:2|0:2,0:0:0:0:
496,206,21077,1,0,3:2:0:0:
496,206,21190,2,0,L|394:199,1,75,0|0,0:2|0:2,0:0:0:0:
382,223,21531,2,0,L|381:270,2,37.5,8|0|0,3:2|0:2|0:2,0:0:0:0:
263,232,21986,5,0,3:2:0:0:
263,232,22099,2,0,P|250:293|259:328,1,75,0|0,0:2|0:2,0:0:0:0:
268,346,22440,2,0,L|372:347,1,75,8|0,3:2|0:2,0:0:0:0:
433,340,22895,1,0,3:2:0:0:
433,340,23008,2,0,P|445:289|436:247,1,75,0|0,0:2|0:2,0:0:0:0:
414,231,23349,2,0,L|416:144,1,75,8|0,3:2|0:2,0:0:0:0:
436,68,23804,5,0,3:2:0:0:
436,68,23918,2,0,P|374:51|333:55,1,75,0|0,0:2|0:2,0:0:0:0:
325,74,24258,2,0,L|223:79,1,75,8|0,3:2|0:2,0:0:0:0:
166,43,24713,1,0,3:2:0:0:
166,43,24827,2,0,P|162:88|180:135,1,75,0|0,0:2|0:2,0:0:0:0:
177,160,25168,2,0,L|111:164,1,37.5,8|0,3:2|0:2,0:0:0:0:
94,165,25395,1,0,0:2:0:0:
29,228,25622,6,0,P|35:258|35:300,1,50,4|4,3:1|0:1,0:0:0:0:
91,337,25925,1,4,0:1:0:0:
91,337,26077,2,0,P|156:330|208:327,1,100,6|0,3:1|0:0,0:0:0:0:
260,309,26531,6,0,P|290:310|327:318,1,50,4|4,3:1|0:1,0:0:0:0:
387,339,26834,1,4,0:1:0:0:
387,339,26986,2,0,P|389:267|377:222,1,100,6|0,3:1|0:0,0:0:0:0:
375,160,27440,6,0,L|375:79,2,50,4|4|4,3:1|0:1|0:1,0:0:0:0:
288,167,27895,2,0,L|288:217,2,50,6|4|4,3:1|0:1|0:1,0:0:0:0:
221,98,28349,5,0,3:2:0:0:
202,93,28463,1,8,0:1:0:0:
183,88,28577,1,8,0:1:0:0:
164,83,28690,1,8,0:1:0:0:
145,78,28804,2,0,L|96:67,1,37.5,8|8,3:2|0:1,0:0:0:0:
54,125,29031,2,0,L|17:133,1,37.5,8|8,0:1|0:1,0:0:0:0:
105,187,29258,6,0,P|122:233|109:298,1,112.5,4|0,3:2|0:2,0:0:0:0:
97,337,29713,2,0,L|205:333,1,75,8|0,3:2|0:2,0:0:0:0:
216,329,30054,1,8,0:1:0:0:
216,329,30168,1,0,3:2:0:0:
298,363,30395,2,0,P|301:304|283:269,1,75,8|8,0:1|3:2,0:0:0:0:
234,223,30849,1,0,0:2:0:0:
234,223,30963,1,8,0:1:0:0:
234,223,31077,6,0,L|233:134,2,75,0|8|8,3:2|0:1|3:2,0:0:0:0:
147,246,31758,1,0,0:2:0:0:
86,179,31986,2,0,L|78:50,1,112.5,0|0,3:2|0:2,0:0:0:0:
96,25,32440,2,0,L|200:23,1,75,8|0,3:2|0:2,0:0:0:0:
184,36,32781,1,8,0:1:0:0:
195,50,32895,6,0,L|324:49,1,112.5,0|0,3:2|0:2,0:0:0:0:
347,70,33349,2,0,P|363:120|354:168,1,75,8|0,3:2|0:2,0:0:0:0:
349,185,33690,1,8,0:1:0:0:
349,185,33804,1,0,3:2:0:0:
264,154,34031,1,8,0:1:0:0:
185,198,34258,1,8,3:2:0:0:
185,198,34372,2,0,P|121:199|88:185,1,75,0|8,0:2|0:1,0:0:0:0:
66,187,34713,6,0,L|72:290,1,75,0|8,3:2|0:1,0:0:0:0:
78,344,35168,1,8,3:2:0:0:
153,294,35395,1,0,0:2:0:0:
153,294,35508,1,8,0:1:0:0:
153,294,35622,2,0,P|203:288|246:293,1,75,0|8,3:2|0:1,0:0:0:0:
311,322,36077,1,8,3:2:0:0:
311,322,36190,2,0,P|331:268|336:225,1,75,0|8,0:2|0:1,0:0:0:0:
305,216,36531,6,0,P|293:167|302:109,1,75,0|8,3:2|0:1,0:0:0:0:
302,98,36872,1,0,0:2:0:0:
302,98,36986,2,0,L|208:97,1,75,8|0,3:2|0:2,0:0:0:0:
159,37,37440,2,0,L|65:36,1,75,0|8,3:2|0:1,0:0:0:0:
46,61,37781,1,0,0:2:0:0:
46,61,37895,2,0,P|34:115|38:147,1,75,8|0,3:2|0:2,0:0:0:0:
108,187,38349,6,0,L|107:289,1,75,0|8,3:2|0:1,0:0:0:0:
106,307,38690,1,0,0:2:0:0:
106,307,38804,2,0,P|162:304|194:309,1,75,8|0,3:2|0:2,0:0:0:0:
261,346,39258,2,0,P|268:292|257:253,1,75,0|8,3:2|0:1,0:0:0:0:
241,233,39599,1,0,0:2:0:0:
241,233,39713,2,0,P|234:179|245:140,1,75,8|0,3:2|0:2,0:0:0:0:
266,73,40168,5,0,3:2:0:0:
266,73,40281,2,0,L|344:70,1,75,0|0,0:2|0:2,0:0:0:0:
386,69,40622,1,8,3:2:0:0:
449,132,40849,1,0,0:2:0:0:
449,132,40963,1,8,0:1:0:0:
449,132,41077,2,0,P|476:84|481:50,2,75,0|8|8,3:2|0:1|3:2,0:0:0:0:
393,202,41758,1,0,0:2:0:0:
393,202,41872,1,8,0:1:0:0:
393,202,41986,6,0,L|392:291,1,75,0|8,3:2|0:1,0:0:0:0:
357,360,42440,2,0,P|298:352|268:341,1,75,8|0,3:2|0:2,0:0:0:0:
207,298,42895,2,0,L|80:297,1,112.5,0|0,3:2|0:2,0:0:0:0:
52,313,43349,2,0,P|50:270|68:227,1,75,8|0,3:2|0:2,0:0:0:0:
122,174,43804,6,0,P|135:115|117:58,1,112.5,4|0,3:2|0:2,0:0:0:0:
114,21,44258,2,0,L|219:26,1,75,8|0,3:2|0:2,0:0:0:0:
232,14,44599,1,8,0:1:0:0:
232,14,44713,1,0,3:2:0:0:
302,69,44940,1,8,0:1:0:0:
302,69,45054,1,0,0:2:0:0:
302,69,45168,2,0,L|373:73,1,37.5,8|0,3:2|0:2,0:0:0:0:
376,45,45395,2,0,L|413:42,1,37.5,0|8,0:2|0:1,0:0:0:0:
446,73,45622,6,0,P|468:129|456:184,1,112.5,0|0,3:2|0:2,0:0:0:0:
417,199,46077,2,0,L|412:289,1,75,8|0,3:2|0:2,0:0:0:0:
349,338,46531,1,0,3:2:0:0:
349,338,46645,2,0,L|282:329,1,37.5,0|8,0:2|0:1,0:0:0:0:
267,323,46872,1,0,0:2:0:0:
267,323,46986,2,0,B|230:315|230:315|167:317,1,75,8|0,3:2|0:2,0:0:0:0:
103,318,47440,5,0,3:2:0:0:
103,318,47554,2,0,P|114:263|112:227,1,75,0|0,0:2|0:2,0:0:0:0:
111,199,47895,2,0,L|106:121,1,75,8|0,3:2|0:2,0:0:0:0:
93,35,48349,2,0,P|161:27|196:38,1,75,0|8,3:2|0:1,0:0:0:0:
203,53,48690,1,0,0:2:0:0:
203,53,48804,1,8,3:2:0:0:
291,36,49031,1,0,0:2:0:0:
336,113,49258,5,0,3:2:0:0:
336,113,49372,2,0,L|333:198,1,75,0|0,0:2|0:2,0:0:0:0:
331,233,49713,2,0,P|390:243|421:234,1,75,8|0,3:2|0:2,0:0:0:0:
448,230,50054,1,8,0:1:0:0:
448,230,50168,1,0,3:2:0:0:
469,317,50395,1,8,0:1:0:0:
469,317,50508,1,0,0:2:0:0:
469,317,50622,1,8,3:2:0:0:
395,368,50849,1,0,0:2:0:0:
309,338,51077,6,0,P|224:333|216:335,1,75,0|8,3:2|0:1,0:0:0:0:
146,347,51531,2,0,L|142:238,1,75,8|0,3:2|0:2,0:0:0:0:
138,181,51986,1,0,3:2:0:0:
138,181,52099,1,0,0:2:0:0:
138,181,52213,1,8,0:1:0:0:
71,120,52440,1,8,3:2:0:0:
71,120,52554,2,0,P|18:121|-11:104,1,75,0|8,0:2|0:1,0:0:0:0:
3,66,52895,6,0,P|79:38|133:67,1,112.5,0|0,3:2|0:2,0:0:0:0:
147,64,53349,2,0,L|243:64,1,75,8|0,3:2|0:2,0:0:0:0:
301,22,53804,1,0,3:2:0:0:
301,111,54031,1,8,0:1:0:0:
378,65,54258,1,8,3:2:0:0:
378,65,54372,2,0,L|475:67,1,75,0|8,0:2|0:1,0:0:0:0:
481,101,54713,6,0,P|493:173|476:226,1,112.5,0|0,3:2|0:2,0:0:0:0:
450,241,55168,2,0,L|449:334,1,75,8|0,3:2|0:2,0:0:0:0:
436,329,55508,1,8,0:1:0:0:
423,343,55622,2,0,P|345:356|261:320,1,150,0|8,3:2|3:2,0:0:0:0:
218,266,56304,1,0,0:2:0:0:
124,263,56531,6,0,L|43:267,2,50,8|8|8,0:1|0:1|0:1,0:0:0:0:
155,190,56985,2,0,L|236:194,2,50,8|8|8,0:1|0:1|0:1,0:0:0:0:
108,132,57440,5,8,0:1:0:0:
108,132,57554,2,0,P|101:63|112:34,1,75,4|4,0:1|0:1,0:0:0:0:
121,19,57894,2,0,L|228:22,1,75,4|4,0:1|0:1,0:0:0:0:
290,74,58349,6,0,P|366:78|419:63,1,89.999997253418,4|2,3:2|0:2,0:0:0:0:
487,82,58804,2,0,L|489:207,1,89.999997253418,8|2,3:2|0:2,0:0:0:0:
425,259,59258,2,0,P|368:272|297:263,1,89.9999972534181,0|2,3:2|0:2,0:0:0:0:
239,222,59713,1,8,3:2:0:0:
221,210,59827,2,0,P|163:204|112:213,1,89.999997253418,0|0,0:2|0:2,0:0:0:0:
116,224,60168,5,0,3:2:0:0:
101,241,60281,1,0,0:0:0:0:
88,259,60395,1,2,0:2:0:0:
134,356,60622,1,8,3:2:0:0:
231,309,60849,2,0,B|320:288|318:354|427:311,1,179.999994506836,2|2,0:2|0:2,0:0:0:0:
427,308,61418,1,0,0:2:0:0:
448,301,61531,1,8,3:2:0:0:
393,207,61758,1,2,0:2:0:0:
285,196,61986,6,0,L|163:194,1,89.999997253418,0|2,3:2|0:2,0:0:0:0:
97,241,62440,2,0,P|83:180|90:143,1,89.999997253418,8|2,3:2|0:2,0:0:0:0:
84,45,62895,2,0,L|228:48,1,134.999995880127,0|0,3:2|0:2,0:0:0:0:
231,66,63349,1,8,3:2:0:0:
241,85,63463,2,0,L|330:83,1,89.999997253418,0|0,0:2|0:2,0:0:0:0:
380,61,63804,6,0,L|373:222,1,134.999995880127,0|0,3:2|0:2,0:0:0:0:
367,249,64258,2,0,P|300:258|267:246,1,89.999997253418,8|2,3:2|0:2,0:0:0:0:
180,209,64713,1,0,3:2:0:0:
160,197,64827,2,0,P|148:266|169:341,1,134.999995880127,0|8,0:2|3:2,0:0:0:0:
257,379,65395,1,2,0:2:0:0:
350,325,65622,6,0,B|440:301|438:361|536:321,1,179.999994506836,4|8,3:2|3:2,0:0:0:0:
491,222,66304,1,2,0:2:0:0:
383,211,66531,2,0,P|386:156|423:104,1,89.999997253418,0|2,3:2|0:2,0:0:0:0:
413,106,66872,1,0,0:2:0:0:
431,93,66986,1,8,3:2:0:0:
455,84,67099,1,0,0:2:0:0:
310,72,67440,6,0,P|261:47|213:47,1,89.9999972534181,0|2,3:2|0:2,0:0:0:0:
204,45,67781,1,0,0:2:0:0:
181,48,67895,2,0,L|178:109,1,44.999998626709,8|0,3:2|0:2,0:0:0:0:
131,119,68122,2,0,P|182:125|246:174,2,89.999997253418,2|0|2,0:2|3:2|0:2,0:0:0:0:
39,177,68804,2,0,L|40:280,1,89.999997253418,8|2,3:2|0:2,0:0:0:0:
96,358,69258,6,0,P|174:360|218:346,1,89.999997253418,0|2,3:2|0:2,0:0:0:0:
253,273,69713,2,0,P|331:271|375:285,1,89.999997253418,8|2,3:2|0:2,0:0:0:0:
428,338,70168,2,0,L|442:191,1,134.999995880127,0|0,3:2|0:2,0:0:0:0:
389,184,70622,2,0,L|377:67,1,89.999997253418,8|2,3:2|0:2,0:0:0:0:
377,72,70963,1,0,0:2:0:0:
374,49,71077,6,0,B|305:45|305:45|274:55|274:55|169:48,1,179.999994506836,0|8,3:2|3:2,0:0:0:0:
92,18,71758,1,2,0:2:0:0:
123,121,71986,1,0,3:2:0:0:
49,200,72213,2,0,P|36:278|46:318,1,89.999997253418,2|8,0:2|3:2,0:0:0:0:
99,376,72668,1,2,0:2:0:0:
179,303,72895,6,0,L|365:295,1,179.999994506836,4|8,3:2|3:2,0:0:0:0:
444,361,73577,1,2,0:2:0:0:
463,254,73804,2,0,L|470:113,1,134.999995880127,0|0,3:2|0:2,0:0:0:0:
446,70,74258,2,0,P|400:70|339:85,1,89.999997253418,8|2,3:2|0:2,0:0:0:0:
250,100,74713,5,0,3:2:0:0:
161,38,74940,1,2,0:2:0:0:
150,145,75168,1,8,3:2:0:0:
140,37,75395,1,2,0:2:0:0:
59,108,75622,1,0,3:2:0:0:
59,108,75736,1,0,0:2:0:0:
59,108,75849,1,2,0:2:0:0:
80,214,76077,2,0,L|75:323,1,89.999997253418,8|2,3:2|0:2,0:0:0:0:
161,369,76531,5,0,3:2:0:0:
236,291,76758,2,0,L|345:293,1,89.999997253418,2|8,0:2|3:2,0:0:0:0:
408,363,77213,1,2,0:2:0:0:
413,255,77440,2,0,B|391:206|391:206|403:104,1,134.999995880127,0|0,3:2|0:2,0:0:0:0:
419,73,77895,1,8,3:2:0:0:
512,27,78122,1,2,0:2:0:0:
507,134,78349,6,0,L|498:260,1,89.999997253418,0|2,3:2|0:2,0:0:0:0:
483,330,78804,1,8,3:2:0:0:
375,318,79031,1,2,0:2:0:0:
375,318,79145,1,0,0:2:0:0:
375,318,79258,2,0,P|326:309|260:305,1,89.999997253418,0|2,3:2|0:2,0:0:0:0:
177,303,79713,1,8,3:2:0:0:
75,338,79940,1,2,0:2:0:0:
95,231,80168,6,0,L|94:33,1,179.999994506836,4|8,3:2|3:2,0:0:0:0:
201,55,80849,1,2,0:2:0:0:
201,55,80963,1,0,0:2:0:0:
201,55,81077,2,0,P|266:63|317:50,1,89.999997253418,0|2,3:2|0:2,0:0:0:0:
385,32,81531,2,0,L|380:130,1,89.999997253418,8|2,3:2|0:2,0:0:0:0:
307,201,81986,6,0,P|360:221|477:170,1,179.999994506836,0|8,3:2|3:2,0:0:0:0:
380,121,82668,1,2,0:2:0:0:
272,111,82895,2,0,L|116:97,1,134.999995880127,0|0,3:2|0:2,0:0:0:0:
83,91,83349,2,0,P|111:141|111:193,1,89.999997253418,8|2,3:2|0:2,0:0:0:0:
75,274,83804,5,2,3:2:0:0:
290,277,84258,1,2,3:2:0:0:
133,350,84713,1,2,3:2:0:0:
312,359,85168,1,2,3:2:0:0:
384,250,85622,6,0,B|411:248|411:248|457:257,2,50,8|8|8,3:1|0:1|0:1,0:0:0:0:
353,177,86077,2,0,B|330:172|330:172|303:174,2,50,8|8|8,0:1|0:1|0:1,0:0:0:0:
400,119,86531,2,0,B|413:75|413:75|412:33,1,75,8|2,0:1|0:3,0:0:0:0:
326,18,86985,2,0,L|262:20,1,37.5,8|2,0:1|0:3,0:0:0:0:
250,43,87213,2,0,L|212:41,1,37.5,8|8,0:1|0:1,0:0:0:0:
169,28,87440,5,6,3:2:0:0:
159,56,87554,1,2,0:2:0:0:
150,84,87668,2,0,L|152:180,1,75,10|10,0:1|3:2,0:0:0:0:
154,248,88122,1,2,0:2:0:0:
231,201,88349,2,0,P|290:194|338:201,1,75,2|10,3:2|0:1,0:0:0:0:
319,198,88690,1,2,0:2:0:0:
332,204,88804,2,0,L|420:201,1,75,8|0,3:2|0:2,0:0:0:0:
471,138,89258,6,0,P|475:87|467:49,1,75,0|8,3:2|0:1,0:0:0:0:
462,51,89599,1,2,0:2:0:0:
451,40,89713,2,0,L|355:36,1,75,10|0,3:2|0:2,0:0:0:0:
291,68,90168,2,0,P|230:73|199:66,1,75,0|8,3:2|0:1,0:0:0:0:
135,32,90622,2,0,P|74:27|43:34,1,75,8|0,3:2|0:2,0:0:0:0:
95,112,91077,6,0,P|124:178|121:207,1,75,0|8,3:2|0:1,0:0:0:0:
120,193,91418,1,2,0:2:0:0:
115,207,91531,2,0,L|121:296,1,75,10|0,3:2|0:2,0:0:0:0:
182,344,91986,2,0,P|227:342|265:327,1,75,0|8,3:2|0:1,0:0:0:0:
268,326,92327,1,2,0:2:0:0:
282,321,92440,2,0,P|327:323|365:338,1,75,8|0,3:2|0:2,0:0:0:0:
442,354,92895,6,0,L|454:197,1,150,0|10,3:2|3:2,0:0:0:0:
441,164,93463,1,2,0:2:0:0:
394,77,93690,1,10,0:1:0:0:
394,77,93804,2,0,L|400:11,3,37.5,0|2|2|2,3:2|0:2|0:1|0:2,0:0:0:0:
319,31,94258,6,0,L|315:68,1,37.5,8|2,0:2|0:2,0:0:0:0:
237,25,94486,2,0,L|233:62,1,37.5,2|10,0:2|0:1,0:0:0:0:
178,124,94713,6,0,P|108:123|84:108,1,75,2|10,3:2|0:1,0:0:0:0:
92,113,95054,1,2,0:2:0:0:
80,103,95168,2,0,L|76:195,1,75,8|0,3:2|0:2,0:0:0:0:
20,248,95622,2,0,L|24:340,1,75,2|10,3:2|0:1,0:0:0:0:
36,329,95963,1,2,0:2:0:0:
48,336,96077,2,0,B|73:352|73:352|142:349,1,75,8|0,3:2|0:2,0:0:0:0:
177,282,96531,6,0,P|221:285|281:301,1,75,0|8,3:2|0:1,0:0:0:0:
297,368,96986,2,0,P|341:365|401:349,1,75,10|0,3:2|0:2,0:0:0:0:
411,278,97440,2,0,L|414:180,1,75,0|8,3:2|0:1,0:0:0:0:
406,189,97781,1,2,0:2:0:0:
399,175,97895,2,0,L|402:77,1,75,8|0,3:2|0:2,0:0:0:0:
312,142,98349,6,0,P|246:156|162:109,1,150,0|10,3:2|3:2,0:0:0:0:
148,84,98918,1,2,0:2:0:0:
88,151,99145,1,10,0:1:0:0:
88,151,99258,2,0,L|84:202,1,37.5,0|2,3:2|0:2,0:0:0:0:
47,214,99486,1,10,0:1:0:0:
47,214,99599,2,0,L|51:265,2,37.5,2|8|2,0:2|3:2|0:2,0:0:0:0:
183,323,100168,6,0,P|180:349|171:383,2,50,8|8|8,0:1|0:1|0:1,0:0:0:0:
254,273,100622,2,0,P|249:249|246:224,2,50,10|8|8,0:1|0:1|0:1,0:0:0:0:
320,334,101077,1,8,0:1:0:0:
320,334,101190,2,0,L|411:336,1,75,4|4,0:1|0:1,0:0:0:0:
434,313,101531,1,6,0:1:0:0:
393,234,101758,2,0,L|399:182,1,37.5,6|2,0:1|0:2,0:0:0:0:
405,151,101986,5,6,3:2:0:0:
449,72,102213,2,0,L|354:66,1,75,10|10,0:1|3:2,0:0:0:0:
343,34,102554,2,0,L|268:38,1,75,0|8,0:2|0:1,0:0:0:0:
223,31,102895,2,0,L|218:105,1,75,2|10,3:2|0:1,0:0:0:0:
176,124,103236,2,0,L|181:198,1,75,2|2,0:2|0:2,0:0:0:0:
195,244,103577,1,0,0:0:0:0:
160,327,103804,5,0,3:2:0:0:
249,316,104031,2,0,L|358:304,1,75,0|10,0:0|3:2,0:0:0:0:
364,326,104372,2,0,P|371:268|356:234,1,75,2|10,0:2|0:1,0:0:0:0:
375,208,104713,2,0,L|484:196,1,75,0|8,3:2|0:1,0:0:0:0:
480,166,105054,2,0,P|487:108|472:74,1,75,2|2,0:2|0:2,0:0:0:0:
453,58,105395,1,0,0:2:0:0:
370,21,105622,5,0,3:2:0:0:
299,76,105849,2,0,P|219:95|193:88,1,75,8|10,0:1|3:2,0:0:0:0:
191,69,106190,2,0,P|111:50|85:57,1,75,2|10,0:2|0:1,0:0:0:0:
85,77,106531,2,0,L|96:182,1,75,0|8,3:2|0:1,0:0:0:0:
133,171,106872,2,0,L|125:245,1,75,2|2,0:2|0:2,0:0:0:0:
118,290,107213,1,0,0:2:0:0:
162,367,107440,5,0,3:2:0:0:
71,367,107668,2,0,P|38:326|31:283,1,75,0|10,0:0|3:2,0:0:0:0:
31,260,108008,2,0,L|35:167,1,75,2|10,0:2|0:1,0:0:0:0:
3,151,108349,2,0,L|-1:58,1,75,0|10,3:2|0:1,0:0:0:0:
33,46,108690,2,0,P|86:31|124:37,1,75,2|2,0:2|0:2,0:0:0:0:
149,40,109031,1,2,0:2:0:0:
225,88,109258,5,2,3:2:0:0:
291,27,109486,2,0,P|317:77|314:113,1,75,10|8,0:1|3:2,0:0:0:0:
304,137,109827,2,0,P|278:187|281:223,1,75,2|10,0:2|0:1,0:0:0:0:
294,246,110168,2,0,L|386:236,1,75,2|8,3:2|0:1,0:0:0:0:
402,209,110508,2,0,L|476:217,1,75,2|2,0:2|0:2,0:0:0:0:
507,250,110849,1,0,0:2:0:0:
483,337,111077,5,0,3:2:0:0:
393,337,111304,2,0,B|356:330|356:330|290:337,1,75,0|10,0:0|3:2,0:0:0:0:
274,344,111645,2,0,B|237:351|237:351|171:344,1,75,2|10,0:2|0:1,0:0:0:0:
156,335,111986,2,0,L|156:245,1,75,0|10,3:2|0:1,0:0:0:0:
190,230,112327,2,0,L|190:140,1,75,2|0,0:2|0:2,0:0:0:0:
160,120,112668,1,0,0:2:0:0:
42,177,112895,6,0,P|48:207|48:249,1,50,4|4,3:1|0:1,0:0:0:0:
45,303,113198,1,4,0:1:0:0:
45,303,113350,2,0,P|110:296|162:293,1,100,6|0,3:1|0:0,0:0:0:0:
206,343,113804,6,0,P|236:344|273:352,1,50,4|4,3:1|0:1,0:0:0:0:
338,379,114107,1,4,0:1:0:0:
338,379,114259,2,0,P|340:307|328:262,1,100,6|0,3:1|0:0,0:0:0:0:
280,218,114713,6,0,L|280:137,2,50,4|4|4,3:1|0:1|0:1,0:0:0:0:
367,141,115168,2,0,L|367:191,2,50,6|4|4,3:1|0:1|0:1,0:0:0:0:
303,80,115622,5,0,3:2:0:0:
284,85,115736,1,8,0:1:0:0:
265,90,115850,1,8,0:1:0:0:
246,95,115963,1,8,0:1:0:0:
227,100,116077,2,0,L|178:111,1,37.5,8|8,3:2|0:1,0:0:0:0:
118,130,116304,2,0,L|81:138,1,37.5,8|8,0:1|0:1,0:0:0:0:
5,161,116531,5,4,3:2:0:0:
410,102,131077,6,0,L|225:94,1,150,4|8,3:2|0:2,0:0:0:0:
191,37,131758,1,0,0:2:0:0:
106,69,131986,2,0,P|68:146|103:212,1,150,0|8,3:2|0:2,0:0:0:0:
171,241,132668,1,0,0:2:0:0:
171,241,132781,1,0,0:2:0:0:
171,241,132895,6,0,L|160:360,1,112.5,0|0,3:2|0:2,0:0:0:0:
198,377,133349,2,0,P|250:363|299:366,1,75,8|0,0:2|0:2,0:0:0:0:
360,373,133804,1,0,3:2:0:0:
360,373,133918,2,0,P|362:319|348:292,1,75,0|0,0:2|0:2,0:0:0:0:
343,257,134258,2,0,L|443:251,1,75,0|0,0:0|0:2,0:0:0:0:
481,188,134713,6,0,B|485:145|485:145|465:68,1,112.5,0|0,3:2|0:2,0:0:0:0:
457,33,135168,2,0,L|355:47,1,75,8|0,0:2|0:2,0:0:0:0:
318,106,135622,2,0,L|199:85,1,112.5,0|0,3:2|0:2,0:0:0:0:
163,73,136077,2,0,P|145:133|160:173,1,75,8|0,0:2|0:2,0:0:0:0:
202,214,136531,5,0,3:2:0:0:
202,214,136645,2,0,P|220:274|205:314,1,75,0|0,0:2|0:2,0:0:0:0:
208,328,136986,2,0,L|116:328,1,75,8|0,0:2|0:2,0:0:0:0:
45,347,137440,2,0,P|44:309|61:276,1,75,0|0,3:2|0:2,0:0:0:0:
92,244,137781,2,0,L|91:197,1,37.5,0|8,0:2|0:2,0:0:0:0:
82,116,138122,1,0,0:2:0:0:
39,36,138349,6,0,B|76:27|76:27|125:32,1,75,0|0,3:2|0:2,0:0:0:0:
169,100,138804,2,0,P|217:102|267:77,1,75,8|0,0:2|0:0,0:0:0:0:
327,57,139258,1,0,3:2:0:0:
327,57,139372,1,0,0:2:0:0:
327,57,139486,1,0,0:2:0:0:
329,146,139713,1,8,0:2:0:0:
329,146,139827,2,0,L|324:244,1,75,0|0,0:2|0:2,0:0:0:0:
315,264,140168,6,0,P|389:261|439:278,1,112.5,0|0,3:2|0:2,0:0:0:0:
455,304,140622,2,0,L|450:402,1,75,8|0,0:2|0:2,0:0:0:0:
360,378,141077,1,0,3:2:0:0:
270,378,141304,1,0,0:2:0:0:
180,378,141531,1,8,0:2:0:0:
180,378,141645,2,0,P|168:318|175:291,1,75,0|0,0:0|0:0,0:0:0:0:
174,260,141986,6,0,L|53:264,1,112.5,0|0,3:2|0:2,0:0:0:0:
16,266,142440,2,0,P|4:206|11:179,1,75,8|0,0:2|0:2,0:0:0:0:
46,112,142895,2,0,L|39:21,1,75,0|0,3:2|0:0,0:0:0:0:
125,7,143349,1,8,0:2:0:0:
213,163,143804,6,0,L|207:229,2,50,8|8|8,0:1|0:1|0:1,0:0:0:0:
296,91,144258,2,0,L|290:157,2,50,8|8|8,0:1|0:1|0:1,0:0:0:0:
355,17,144713,5,8,0:1:0:0:
355,17,144827,2,0,P|407:22|449:41,1,75,4|4,0:1|0:1,0:0:0:0:
449,69,145168,1,4,0:1:0:0:
416,152,145395,1,4,0:1:0:0:
476,241,145622,6,0,B|489:287|489:287|472:366,1,89.9999972534181,4|2,3:2|0:2,0:0:0:0:
381,372,146077,2,0,L|273:373,1,89.9999972534181,8|2,3:2|0:2,0:0:0:0:
194,324,146531,1,0,3:2:0:0:
194,324,146645,1,0,0:2:0:0:
194,324,146758,2,0,L|86:325,1,89.9999972534181,2|8,0:2|3:2,0:0:0:0:
50,317,147099,2,0,P|54:242|77:217,1,89.9999972534181,0|0,0:2|0:2,0:0:0:0:
78,218,147440,5,0,3:2:0:0:
95,203,147554,1,0,0:2:0:0:
113,190,147668,1,2,0:2:0:0:
129,83,147895,1,8,3:2:0:0:
227,122,148122,2,0,P|292:135|332:120,1,89.9999972534181,2|0,0:2|3:2,0:0:0:0:
375,40,148577,1,2,0:2:0:0:
463,113,148804,2,0,B|477:158|477:158|459:235,1,89.9999972534181,8|2,3:2|0:2,0:0:0:0:
419,296,149258,5,0,3:2:0:0:
332,360,149486,2,0,L|200:363,1,89.9999972534181,2|8,0:2|3:2,0:0:0:0:
144,315,149940,1,2,0:2:0:0:
204,225,150168,2,0,P|219:162|208:73,1,134.999995880127,0|0,3:2|0:2,0:0:0:0:
196,40,150622,2,0,L|94:53,1,89.9999972534181,8|2,3:2|0:2,0:0:0:0:
31,129,151077,6,0,B|19:173|19:173|40:249,1,89.9999972534181,0|2,3:2|0:2,0:0:0:0:
120,276,151531,2,0,L|152:370,1,89.9999972534181,8|2,3:2|0:2,0:0:0:0:
253,333,151986,1,0,3:2:0:0:
351,288,152213,1,2,0:2:0:0:
447,240,152440,2,0,B|458:197|458:197|446:153,1,89.9999972534181,8|2,3:2|0:2,0:0:0:0:
373,73,152895,6,0,B|287:41|295:115|165:75,1,179.999994506836,4|8,3:2|3:2,0:0:0:0:
106,24,153577,1,2,0:2:0:0:
102,131,153804,2,0,L|108:246,1,89.9999972534181,0|2,3:2|0:2,0:0:0:0:
109,328,154258,1,8,3:2:0:0:
123,345,154372,2,0,P|188:351|243:329,1,89.9999972534181,0|0,0:2|0:2,0:0:0:0:
231,334,154713,5,0,3:2:0:0:
250,323,154827,1,0,0:0:0:0:
269,312,154940,1,2,0:2:0:0:
361,369,155168,1,8,3:2:0:0:
440,295,155395,2,0,P|442:249|413:196,1,89.9999972534181,2|0,0:2|3:2,0:0:0:0:
325,166,155849,2,0,L|326:66,1,89.9999972534181,2|8,0:2|3:2,0:0:0:0:
335,22,156190,2,0,P|399:19|446:38,1,89.9999972534181,0|0,0:2|0:2,0:0:0:0:
467,57,156531,5,0,3:2:0:0:
507,156,156758,1,2,0:2:0:0:
456,251,156986,1,8,3:2:0:0:
494,351,157213,2,0,P|428:355|389:333,1,89.9999972534181,2|0,0:2|3:2,0:0:0:0:
309,298,157668,1,2,0:2:0:0:
309,298,157781,1,0,0:2:0:0:
309,298,157895,2,0,P|243:294|204:316,1,89.9999972534181,8|2,3:2|0:2,0:0:0:0:
130,359,158349,6,0,L|118:250,1,89.9999972534181,0|2,3:2|0:2,0:0:0:0:
18,233,158804,2,0,L|30:124,1,89.9999972534181,8|2,3:2|0:2,0:0:0:0:
48,37,159258,2,0,B|90:44|127:27|127:27|142:37|142:37|172:20|248:35,1,179.999994506836,0|8,3:2|3:2,0:0:0:0:
327,54,159940,1,2,0:2:0:0:
327,54,160054,1,0,0:2:0:0:
327,54,160168,6,0,B|349:109|349:109|330:240,1,179.999994506836,4|8,3:2|3:2,0:0:0:0:
227,256,160849,1,2,0:2:0:0:
301,331,161077,2,0,P|347:335|432:278,1,134.999995880127,0|0,3:2|0:2,0:0:0:0:
458,252,161531,2,0,L|471:150,1,89.9999972534181,8|2,3:2|0:2,0:0:0:0:
480,54,161986,6,0,B|431:37|431:37|361:40,1,89.9999972534181,0|2,3:2|0:2,0:0:0:0:
290,71,162440,2,0,B|241:88|241:88|171:85,1,89.9999972534181,8|2,3:2|0:2,0:0:0:0:
98,56,162895,1,0,3:2:0:0:
111,163,163122,2,0,L|120:276,1,89.9999972534181,2|8,0:2|3:2,0:0:0:0:
121,275,163463,1,0,0:2:0:0:
124,297,163577,1,0,0:0:0:0:
224,259,163804,6,0,P|301:254|340:263,1,89.9999972534181,0|2,3:2|0:2,0:0:0:0:
385,335,164258,2,0,P|462:340|501:331,1,89.9999972534181,8|2,3:2|0:2,0:0:0:0:
477,229,164713,2,0,L|472:69,1,134.999995880127,0|0,3:2|0:2,0:0:0:0:
463,40,165168,2,0,P|418:36|373:43,1,89.9999972534181,8|2,3:2|0:2,0:0:0:0:
286,106,165622,6,0,B|223:132|223:132|109:109,1,179.999994506836,0|8,3:2|3:2,0:0:0:0:
30,40,166304,1,2,0:2:0:0:
0,143,166531,2,0,L|11:288,1,134.999995880127,0|0,3:2|0:2,0:0:0:0:
9,332,166986,2,0,P|77:326|117:307,1,89.9999972534181,8|2,3:2|0:2,0:0:0:0:
197,279,167440,6,0,B|253:263|253:263|345:269,1,134.999995880127,4|0,3:2|0:2,0:0:0:0:
373,300,167895,2,0,L|375:195,1,89.9999972534181,8|2,3:2|0:2,0:0:0:0:
450,133,168349,2,0,P|378:105|307:130,1,134.999995880127,0|0,3:2|0:2,0:0:0:0:
273,138,168804,2,0,L|176:132,1,89.9999972534181,8|2,3:2|0:2,0:0:0:0:
97,67,169258,2,0,B|81:123|81:123|87:215,1,134.999995880127,0|0,3:2|0:2,0:0:0:0:
118,243,169713,2,0,L|13:245,1,89.9999972534181,8|2,3:2|0:2,0:0:0:0:
92,331,170168,6,0,P|163:325|209:253,1,134.999995880127,0|0,3:2|0:2,0:0:0:0:
217,227,170622,2,0,L|306:225,1,89.9999972534181,8|2,3:2|0:2,0:0:0:0:
373,310,171077,5,0,3:2:0:0:
510,144,171531,1,8,3:2:0:0:
306,225,171986,1,0,3:2:0:0:
369,18,172440,1,8,3:2:0:0:
215,90,172895,5,2,3:2:0:0:
179,93,173008,1,2,0:0:0:0:
144,82,173122,2,0,L|83:82,2,44.999998626709,2|2|2,0:2|0:2|3:2,0:0:0:0:
52,21,173463,6,0,P|80:79|56:166,1,134.999995880127,2|2,0:2|3:2,0:0:0:0:
34,239,174031,1,10,0:1:0:0:
17,270,174145,1,6,0:3:0:0:
1,302,174258,2,0,L|-1:351,3,44.999998626709,10|6|10|10,0:1|0:3|0:1|0:1,0:0:0:0:
18,370,174713,5,4,3:2:0:0:
141,99,187440,6,0,L|136:26,2,50,8|8|8,0:1|0:1|0:1,0:0:0:0:
229,89,187895,2,0,L|224:16,2,50,8|8|8,0:1|0:1|0:1,0:0:0:0:
192,172,188349,5,8,0:1:0:0:
192,172,188463,2,0,P|208:228|198:272,1,75,4|4,0:1|0:1,0:0:0:0:
193,279,188804,1,4,0:1:0:0:
109,245,189031,1,4,0:1:0:0:
31,200,189258,5,4,3:2:0:0:
31,200,189372,2,0,P|31:149|49:101,1,75,0|0,0:2|0:2,0:0:0:0:
54,92,189713,2,0,L|138:95,1,75,8|0,3:2|0:2,0:0:0:0:
213,64,190167,1,0,3:2:0:0:
213,64,190281,2,0,B|222:106|222:106|211:167,1,75,0|0,0:2|0:2,0:0:0:0:
199,180,190622,1,8,3:2:0:0:
165,263,190849,1,0,0:2:0:0:
223,331,191076,5,0,3:2:0:0:
223,331,191190,2,0,P|293:338|324:330,1,75,0|0,0:2|0:2,0:0:0:0:
332,309,191531,2,0,L|407:309,1,75,8|0,3:2|0:2,0:0:0:0:
472,246,191985,1,0,3:2:0:0:
472,246,192099,2,0,P|482:213|476:150,1,75,0|0,0:2|0:2,0:0:0:0:
477,127,192440,1,8,3:2:0:0:
415,61,192667,1,0,0:2:0:0:
326,76,192894,5,0,3:2:0:0:
326,76,193008,2,0,B|288:85|288:85|229:83,1,75,0|0,0:2|0:2,0:0:0:0:
209,75,193349,2,0,B|171:69|171:69|126:77,1,75,8|0,3:2|0:2,0:0:0:0:
54,35,193803,1,0,3:2:0:0:
54,35,193917,2,0,P|44:75|54:129,1,75,0|0,0:2|0:2,0:0:0:0:
72,147,194258,2,0,L|75:203,1,37.5,8|0,3:2|0:2,0:0:0:0:
76,230,194485,1,0,0:2:0:0:
165,243,194713,5,0,3:2:0:0:
165,243,194826,2,0,B|202:248|202:248|257:244,1,75,0|0,0:2|0:2,0:0:0:0:
285,245,195167,2,0,L|283:319,1,75,8|0,3:2|0:2,0:0:0:0:
369,292,195622,1,0,3:2:0:0:
369,292,195735,2,0,L|376:190,1,75,0|0,0:2|0:2,0:0:0:0:
352,178,196076,1,8,3:2:0:0:
352,178,196190,2,0,L|359:76,1,75,0|0,0:2|0:2,0:0:0:0:
343,59,196531,5,0,3:2:0:0:
343,59,196644,2,0,B|301:52|301:52|247:55,1,75,0|0,0:2|0:2,0:0:0:0:
224,63,196986,2,0,B|182:70|182:70|128:67,1,75,8|0,3:2|0:2,0:0:0:0:
69,27,197440,1,0,3:2:0:0:
69,27,197553,2,0,P|57:78|66:120,1,75,0|0,0:2|0:2,0:0:0:0:
88,136,197894,2,0,L|86:223,1,75,8|0,3:2|0:2,0:0:0:0:
86,301,198349,5,0,3:2:0:0:
86,301,198463,2,0,P|148:318|189:314,1,75,0|0,0:2|0:2,0:0:0:0:
197,295,198803,2,0,L|299:290,1,75,8|0,3:2|0:2,0:0:0:0:
275,201,199258,1,0,3:2:0:0:
275,201,199372,2,0,P|279:156|261:109,1,75,0|0,0:2|0:2,0:0:0:0:
264,84,199713,2,0,L|330:80,1,37.5,8|0,3:2|0:2,0:0:0:0:
347,79,199940,1,0,0:2:0:0:
389,158,200167,6,0,P|383:188|383:230,1,50,4|4,3:1|0:1,0:0:0:0:
327,267,200470,1,4,0:1:0:0:
327,267,200622,2,0,P|262:260|210:257,1,100,6|0,3:1|0:0,0:0:0:0:
138,234,201076,6,0,P|108:235|71:243,1,50,4|4,3:1|0:1,0:0:0:0:
1,262,201379,1,4,0:1:0:0:
1,262,201531,2,0,P|-1:190|11:145,1,100,6|0,3:1|0:0,0:0:0:0:
43,90,201985,6,0,L|43:9,2,50,4|4|4,3:1|0:1|0:1,0:0:0:0:
130,97,202440,2,0,L|130:147,2,50,6|4|4,3:1|0:1|0:1,0:0:0:0:
187,36,202894,5,0,3:2:0:0:
207,36,203008,1,8,0:1:0:0:
227,36,203122,1,8,0:1:0:0:
246,36,203235,1,8,0:1:0:0:
266,36,203349,2,0,L|316:38,1,37.5,8|8,3:2|0:1,0:0:0:0:
342,105,203576,2,0,L|375:122,1,37.5,8|8,0:1|0:1,0:0:0:0:
417,284,204132,6,0,L|416:321,2,25,2|2|2,0:0|0:0|0:0,0:0:0:0:
