osu file format v14

[General]
AudioFilename: audio.mp3
AudioLeadIn: 0
PreviewTime: 87389
Countdown: 0
SampleSet: Soft
StackLeniency: 0.2
Mode: 0
LetterboxInBreaks: 0
WidescreenStoryboard: 1

[Editor]
Bookmarks: 14662,29207,43753,58298,72844,87389,101935,116480,131026,143753,145571,174662,189207
DistanceSpacing: 1
BeatDivisor: 4
GridSize: 32
TimelineZoom: 1.8

[Metadata]
Title:Maritime Police
TitleUnicode:Maritime Police
Artist:Street
ArtistUnicode:Street
Creator:Mir
Version:Easy
Source:
Tags:lasse c90 toyKasket rock SunFlowers House
BeatmapID:1445843
BeatmapSetID:681410

[Difficulty]
HPDrainRate:2
CircleSize:2
OverallDifficulty:3
ApproachRate:3
SliderMultiplier:0.999999999999999
SliderTickRate:1

[Events]
//Background and Video events
0,0,"really big seagull.jpg",0,0
//Break Periods
2,116730,129636
2,174912,185999
//Storyboard Layer 0 (Background)
//Storyboard Layer 1 (Fail)
//Storyboard Layer 2 (Pass)
//Storyboard Layer 3 (Foreground)
//Storyboard Sound Samples

[TimingPoints]
167,454.545454545455,4,2,1,80,1,0
29257,-100,4,2,1,70,0,0
58348,-100,4,2,1,100,0,1
58576,-100,4,2,1,100,0,1
65621,-100,4,2,1,100,0,1
65849,-100,4,2,1,100,0,1
72894,-100,4,2,1,100,0,1
73122,-100,4,2,1,100,0,1
80167,-100,4,2,1,100,0,1
80395,-100,4,2,1,100,0,1
81076,-100,4,2,1,100,0,1
81303,-100,4,2,1,100,0,1
87439,-100,4,2,2,70,0,0
94257,-100,4,2,3,70,0,0
94371,-100,4,2,2,70,0,0
100621,-100,4,2,1,70,0,0
100773,-100,4,2,2,70,0,0
101530,-100,4,2,1,70,0,0
101644,-100,4,2,2,70,0,0
101985,-100,4,2,2,80,0,0
112894,-100,4,2,1,80,0,0
131076,-100,4,2,3,50,0,0
143689,-100,4,2,1,70,0,0
144712,-100,4,2,1,80,0,0
145621,-100,4,2,1,100,0,1
145849,-100,4,2,1,100,0,1
152894,-100,4,2,1,100,0,1
153122,-100,4,2,1,100,0,1
160167,-100,4,2,1,100,0,1
160394,-100,4,2,1,100,0,1
167440,-100,4,2,1,100,0,1
167668,-100,4,2,1,100,0,1
174030,-100,4,2,4,100,0,1
174712,-100,4,2,1,70,0,0
204132,454.545454545455,4,2,1,70,1,0

[Colours]
Combo1 : 228,228,228
Combo2 : 179,255,255
Combo3 : 155,200,255
Combo4 : 250,223,160

[HitObjects]
58,74,14712,6,0,L|273:68,1,200,4|0,3:2|3:2,0:0:0:0:
348,26,16076,1,8,3:2:0:0:
432,79,16530,2,0,P|456:165|422:278,1,200,0|0,3:2|3:2,0:0:0:0:
371,352,17894,1,8,3:2:0:0:
297,283,18348,6,0,L|97:288,1,200,0|0,3:2|3:2,0:0:0:0:
13,339,19712,1,8,3:2:0:0:
13,238,20167,2,0,B|14:117,1,99.9999999999999,0|8,3:2|3:2,0:0:0:0:
59,48,21076,1,0,3:2:0:0:
114,130,21530,1,8,3:2:0:0:
176,208,21985,6,0,B|205:236|205:236|368:232,1,200,0|0,3:2|3:2,0:0:0:0:
417,147,23348,1,8,3:2:0:0:
419,46,23803,2,0,L|204:49,1,200,0|0,3:2|3:2,0:0:0:0:
118,47,25167,1,8,3:2:0:0:
161,137,25621,6,0,P|175:197|163:245,1,99.9999999999999,4|6,3:1|3:1,0:0:0:0:
106,313,26530,2,0,P|160:332|209:325,1,99.9999999999999,4|6,3:1|3:1,0:0:0:0:
272,256,27439,2,0,L|385:259,2,99.9999999999999,4|6|0,3:1|3:1|3:2,0:0:0:0:
217,172,28803,1,8,3:2:0:0:
269,86,29257,6,0,L|388:86,1,99.9999999999999,4|8,3:2|3:2,0:0:0:0:
456,37,30167,2,0,P|469:85|449:147,1,99.9999999999999,0|8,3:2|3:2,0:0:0:0:
371,184,31076,2,0,L|378:301,2,99.9999999999999,0|8|0,3:2|3:2|3:2,0:0:0:0:
369,86,32439,1,8,3:2:0:0:
285,30,32894,6,0,P|235:24|173:30,1,99.9999999999999,0|8,3:2|3:2,0:0:0:0:
125,107,33803,2,0,P|75:113|13:107,1,99.9999999999999,0|8,3:2|3:2,0:0:0:0:
14,208,34712,2,0,L|19:328,1,99.9999999999999,0|8,3:2|3:2,0:0:0:0:
104,358,35621,1,0,3:2:0:0:
176,287,36076,1,8,3:2:0:0:
258,342,36530,6,0,L|371:337,1,99.9999999999999,0|8,3:2|3:2,0:0:0:0:
394,244,37439,2,0,L|281:239,1,99.9999999999999,0|8,3:2|3:2,0:0:0:0:
254,147,38348,2,0,L|367:142,1,99.9999999999999,0|8,3:2|3:2,0:0:0:0:
380,46,39257,2,0,L|267:41,1,99.9999999999999,0|8,3:2|3:2,0:0:0:0:
188,1,40167,6,0,B|141:89|232:95|173:202,1,200,0|0,3:2|3:2,0:0:0:0:
104,260,41530,1,8,3:2:0:0:
163,340,41985,2,0,B|301:341|301:341|323:329|323:329|372:327,1,200,0|0,3:2|3:2,0:0:0:0:
459,321,43348,1,8,3:2:0:0:
401,239,43803,6,0,P|391:151|402:122,1,99.9999999999999,4|8,3:2|3:2,0:0:0:0:
328,65,44712,2,0,L|211:62,1,99.9999999999999,0|8,3:2|3:2,0:0:0:0:
133,96,45621,2,0,P|127:46|140:-1,2,99.9999999999999,0|8|0,3:2|3:2|3:2,0:0:0:0:
210,159,46985,1,8,3:2:0:0:
117,195,47439,6,0,B|104:244|104:244|120:313,1,99.9999999999999,0|8,3:2|3:2,0:0:0:0:
194,352,48348,2,0,L|305:349,1,99.9999999999999,0|8,3:2|3:2,0:0:0:0:
393,341,49257,2,0,L|504:338,1,99.9999999999999,0|8,3:2|3:2,0:0:0:0:
509,239,50167,2,0,L|501:125,1,99.9999999999999,0|8,3:2|3:2,0:0:0:0:
409,176,51076,6,0,P|355:185|297:171,1,99.9999999999999,0|8,3:2|3:2,0:0:0:0:
214,151,51985,1,0,3:2:0:0:
114,154,52439,1,8,3:2:0:0:
115,53,52894,2,0,L|237:53,1,99.9999999999999,0|8,3:2|3:2,0:0:0:0:
315,49,53803,2,0,L|437:49,1,99.9999999999999,0|8,3:2|3:2,0:0:0:0:
488,116,54712,6,0,P|502:181|493:229,1,99.9999999999999,0|8,3:2|3:2,0:0:0:0:
419,276,55621,2,0,L|319:276,1,99.9999999999999,0|8,3:2|3:2,0:0:0:0:
219,286,56530,5,8,0:1:0:0:
165,197,56985,1,8,0:1:0:0:
201,104,57439,2,0,P|201:59|191:17,2,74.9999999999999,8|4|4,0:1|0:1|0:1,0:0:0:0:
244,129,58348,6,0,L|458:124,1,200,4|0,3:2|3:2,0:0:0:0:
496,209,59712,1,8,3:2:0:0:
452,299,60167,2,0,B|416:294|416:294|396:299|396:299|341:294,1,99.9999999999999,0|8,3:2|3:2,0:0:0:0:
253,281,61076,2,0,B|205:276|205:276|140:288,1,99.9999999999999,0|8,3:2|3:2,0:0:0:0:
57,311,61985,5,0,3:2:0:0:
48,211,62439,1,8,3:2:0:0:
39,111,62894,2,0,L|31:5,1,99.9999999999999,0|8,3:2|3:2,0:0:0:0:
130,28,63803,2,0,P|197:38|238:30,1,99.9999999999999,0|8,3:2|3:2,0:0:0:0:
326,15,64712,2,0,P|375:9|424:19,1,99.9999999999999,0|8,3:2|3:2,0:0:0:0:
470,108,65621,6,0,B|459:183|459:183|470:220|470:220|455:322,1,200,4|0,3:2|3:2,0:0:0:0:
368,350,66985,1,8,3:2:0:0:
276,306,67439,2,0,P|209:288|168:288,1,99.9999999999999,0|8,3:2|3:2,0:0:0:0:
80,306,68348,2,0,L|69:193,1,99.9999999999999,0|8,3:2|3:2,0:0:0:0:
56,107,69257,5,0,3:2:0:0:
136,48,69712,1,8,3:2:0:0:
226,91,70167,2,0,P|283:99|332:83,1,99.9999999999999,0|8,3:2|3:2,0:0:0:0:
423,85,71076,2,0,L|416:206,1,99.9999999999999,0|8,3:2|3:2,0:0:0:0:
413,284,71985,1,0,3:2:0:0:
330,339,72439,1,8,3:2:0:0:
247,282,72894,6,0,B|182:274|182:274|123:289|123:289|38:277,1,200,4|0,3:2|3:2,0:0:0:0:
7,188,74257,1,8,3:2:0:0:
46,95,74712,2,0,L|160:98,1,99.9999999999999,0|8,3:2|3:2,0:0:0:0:
219,29,75621,2,0,L|318:26,1,99.9999999999999,0|8,3:2|3:2,0:0:0:0:
410,66,76530,5,0,3:2:0:0:
353,148,76985,1,8,3:2:0:0:
414,227,77439,2,0,P|426:285|414:333,1,99.9999999999999,0|8,3:2|3:2,0:0:0:0:
323,357,78348,2,0,L|217:353,1,99.9999999999999,0|8,3:2|3:2,0:0:0:0:
129,316,79257,2,0,L|29:319,1,99.9999999999999,0|8,3:2|3:2,0:0:0:0:
18,220,80167,6,0,L|24:102,1,99.9999999999999,4|8,3:2|3:2,0:0:0:0:
94,50,81076,2,0,B|169:45|169:45|213:62|213:62|298:54,1,200,0|0,3:2|3:2,0:0:0:0:
388,37,82439,1,8,3:2:0:0:
464,101,82894,2,0,P|489:149|485:203,1,99.9999999999999,0|8,3:2|3:2,0:0:0:0:
448,285,83803,5,2,3:2:0:0:
365,229,84257,1,2,3:2:0:0:
277,277,84712,1,2,3:2:0:0:
192,223,85167,1,2,3:2:0:0:
107,276,85621,5,8,3:1:0:0:
51,83,86985,1,8,0:1:0:0:
131,142,87439,6,0,B|242:149|242:149|309:210,1,200,6|2,3:2|3:2,0:0:0:0:
287,306,88803,1,8,3:2:0:0:
194,344,89257,2,0,P|146:337|89:316,1,99.9999999999999,0|10,3:2|3:2,0:0:0:0:
52,232,90167,2,0,L|48:124,1,99.9999999999999,0|8,3:2|3:2,0:0:0:0:
116,58,91076,6,0,L|235:55,1,99.9999999999999,0|10,3:2|3:2,0:0:0:0:
308,94,91985,1,0,3:2:0:0:
397,49,92439,1,8,3:2:0:0:
472,114,92894,2,0,P|490:182|486:220,1,99.9999999999999,0|10,3:2|3:2,0:0:0:0:
394,246,93803,2,0,P|376:314|380:352,1,99.9999999999999,0|8,3:2|0:2,0:0:0:0:
278,347,94712,5,2,3:2:0:0:
208,275,95167,2,0,B|165:254|165:254|101:252,1,99.9999999999999,8|2,3:2|3:2,0:0:0:0:
12,252,96076,1,8,3:2:0:0:
65,167,96530,2,0,P|80:116|70:64,1,99.9999999999999,0|10,3:2|3:2,0:0:0:0:
150,8,97439,1,0,3:2:0:0:
242,47,97894,1,8,3:2:0:0:
338,23,98348,6,0,L|461:26,1,99.9999999999999,0|10,3:2|3:2,0:0:0:0:
499,104,99257,2,0,P|505:156|485:212,1,99.9999999999999,0|8,3:2|3:2,0:0:0:0:
468,298,100167,1,8,0:1:0:0:
393,231,100621,1,10,0:1:0:0:
293,238,101076,1,8,0:1:0:0:
107,311,101985,6,0,L|106:199,1,99.9999999999999,6|10,3:2|3:2,0:0:0:0:
61,125,102894,1,2,3:2:0:0:
135,59,103348,1,8,3:2:0:0:
231,86,103803,2,0,P|305:96|341:88,1,99.9999999999999,0|10,3:2|3:2,0:0:0:0:
409,150,104712,2,0,P|483:140|519:148,1,99.9999999999999,0|8,3:2|3:2,0:0:0:0:
504,244,105621,6,0,L|493:366,1,99.9999999999999,0|10,3:2|3:2,0:0:0:0:
394,342,106530,1,0,3:2:0:0:
293,341,106985,1,8,3:2:0:0:
221,271,107439,2,0,B|191:261|191:261|115:263,1,99.9999999999999,0|10,3:2|3:2,0:0:0:0:
42,322,108348,2,0,P|25:280|33:217,1,99.9999999999999,0|10,3:2|3:2,0:0:0:0:
62,127,109257,5,2,3:2:0:0:
133,57,109712,2,0,L|256:57,1,99.9999999999999,8|2,3:2|3:2,0:0:0:0:
318,109,110621,1,8,3:2:0:0:
384,33,111076,2,0,P|413:83|414:133,1,99.9999999999999,0|10,3:2|3:2,0:0:0:0:
362,208,111985,2,0,L|362:331,1,99.9999999999999,0|8,3:2|3:2,0:0:0:0:
272,352,112894,6,0,L|159:353,1,99.9999999999999,4|6,3:1|3:1,0:0:0:0:
149,255,113803,2,0,L|262:256,1,99.9999999999999,4|6,3:1|3:1,0:0:0:0:
272,158,114712,2,0,P|278:97|262:55,2,99.9999999999999,4|6|0,3:1|3:1|3:2,0:0:0:0:
248,255,116076,1,8,3:2:0:0:
272,352,116530,5,4,3:2:0:0:
72,66,131076,6,0,L|284:67,1,200,4|0,3:2|3:2,0:0:0:0:
467,110,132894,2,0,P|492:176|471:317,1,200,0|0,3:2|3:2,0:0:0:0:
386,351,134257,1,0,0:0:0:0:
302,295,134712,6,0,B|216:258|211:335|85:290,1,200,0|0,3:2|3:2,0:0:0:0:
10,121,136530,2,0,L|226:121,1,200,0|0,3:2|3:2,0:0:0:0:
292,64,137894,1,8,0:2:0:0:
384,103,138348,6,0,P|428:177|410:292,1,200,0|0,3:2|3:2,0:0:0:0:
365,373,139712,1,8,0:2:0:0:
276,326,140167,2,0,L|65:328,1,200,0|0,3:2|3:2,0:0:0:0:
45,232,141530,1,8,0:2:0:0:
85,140,141985,6,0,L|89:37,1,99.9999999999999,0|8,3:2|0:2,0:0:0:0:
186,62,142894,2,0,P|253:70|291:61,1,99.9999999999999,0|8,3:2|0:2,0:0:0:0:
370,11,143803,1,8,0:1:0:0:
442,76,144257,1,8,0:1:0:0:
365,140,144712,2,0,L|365:225,2,74.9999999999999,8|4|4,0:1|0:1|0:1,0:0:0:0:
319,119,145621,6,0,B|221:82|234:156|115:122,1,200,4|0,3:2|3:2,0:0:0:0:
26,103,146985,1,8,3:2:0:0:
57,197,147439,1,0,3:2:0:0:
9,285,147894,2,0,P|-2:332|19:395,1,99.9999999999999,8|0,3:2|3:2,0:0:0:0:
110,375,148803,1,8,3:2:0:0:
206,350,149257,6,0,B|250:334|250:334|325:337,1,99.9999999999999,0|8,3:2|3:2,0:0:0:0:
403,337,150167,2,0,B|456:339|456:339|500:323,1,99.9999999999999,0|8,3:2|3:2,0:0:0:0:
492,223,151076,1,0,3:2:0:0:
433,141,151530,1,8,3:2:0:0:
467,46,151985,2,0,P|414:44|352:73,1,99.9999999999999,0|8,3:2|3:2,0:0:0:0:
282,107,152894,6,0,B|226:123|191:113|191:113|171:97|171:97|129:81|73:104,1,200,4|0,3:2|3:2,0:0:0:0:
31,178,154257,1,8,3:2:0:0:
56,274,154712,2,0,P|111:298|156:296,1,99.9999999999999,0|8,3:2|3:2,0:0:0:0:
236,247,155621,2,0,P|291:223|336:225,1,99.9999999999999,0|8,3:2|3:2,0:0:0:0:
429,214,156530,5,0,3:2:0:0:
381,302,156985,1,8,3:2:0:0:
317,378,157439,2,0,L|209:377,1,99.9999999999999,0|8,3:2|3:2,0:0:0:0:
143,309,158348,1,0,3:2:0:0:
204,229,158803,1,8,3:2:0:0:
193,131,159257,2,0,B|193:78|193:78|169:37,1,99.9999999999999,0|8,3:2|3:2,0:0:0:0:
69,25,160167,6,0,B|55:104|55:104|70:143|70:143|56:235,1,200,4|0,3:2|3:2,0:0:0:0:
29,315,161530,1,8,3:2:0:0:
118,359,161985,2,0,P|204:363|233:348,1,99.9999999999999,0|8,3:2|3:2,0:0:0:0:
277,280,162894,2,0,P|325:269|373:280,1,99.9999999999999,0|8,3:2|3:2,0:0:0:0:
456,337,163803,5,0,3:2:0:0:
462,237,164257,1,8,3:2:0:0:
439,139,164712,2,0,B|387:115|387:115|331:114,1,99.9999999999999,0|8,3:2|3:2,0:0:0:0:
256,163,165621,2,0,P|243:109|257:55,1,99.9999999999999,0|8,3:2|3:2,0:0:0:0:
339,17,166530,1,0,3:2:0:0:
438,23,166985,1,8,3:2:0:0:
502,98,167439,6,0,L|497:207,1,99.9999999999999,4|8,3:2|3:2,0:0:0:0:
408,243,168348,2,0,L|413:352,1,99.9999999999999,0|8,3:2|3:2,0:0:0:0:
315,365,169257,2,0,P|258:362|205:337,1,99.9999999999999,0|8,3:2|3:2,0:0:0:0:
135,289,170167,1,0,3:2:0:0:
198,210,170621,1,8,3:2:0:0:
198,109,171076,6,0,P|135:47|113:186,1,300,0|8,3:2|3:2,0:0:0:0:
200,212,172894,6,0,B|224:205|224:205|240:212|240:212|254:206|254:206|268:212|268:212|283:206|283:206|296:212|296:212|312:204|312:204|360:204|360:204|372:212|372:212|384:204|384:204|396:212|396:212|408:204|408:204|424:211|424:211|436:204|436:204|452:212|452:212|480:205,1,300,2|10,3:2|0:1,0:0:0:0:
469,106,174712,5,4,3:2:0:0:
267,345,187439,6,0,L|376:341,2,99.9999999999999,8|8|8,0:1|0:1|0:1,0:0:0:0:
185,286,188803,1,4,0:1:0:0:
110,220,189257,6,0,B|107:78|107:78|152:30,1,200,4|0,3:2|3:2,0:0:0:0:
209,113,190621,1,8,3:2:0:0:
271,191,191076,2,0,L|472:174,1,200,0|0,3:2|3:2,0:0:0:0:
504,80,192439,1,8,3:2:0:0:
415,33,192894,6,0,B|336:39|336:39|296:59|296:59|206:66,1,200,0|0,3:2|3:2,0:0:0:0:
132,17,194257,1,8,3:2:0:0:
44,64,194712,2,0,P|28:144|29:176,1,99.9999999999999,0|8,3:2|3:2,0:0:0:0:
51,259,195621,1,0,3:2:0:0:
138,216,196076,1,8,3:2:0:0:
217,276,196530,6,0,P|299:302|416:259,1,200,0|0,3:2|3:2,0:0:0:0:
470,193,197894,1,8,3:2:0:0:
422,105,198348,2,0,L|205:94,1,200,0|0,3:2|3:2,0:0:0:0:
134,45,199712,1,8,3:2:0:0:
55,107,200167,6,0,B|45:157|45:157|51:213,1,99.9999999999999,4|6,3:1|3:1,0:0:0:0:
148,224,201076,2,0,B|158:274|158:274|152:330,1,99.9999999999999,4|6,3:1|3:1,0:0:0:0:
244,363,201985,2,0,L|351:362,2,99.9999999999999,4|6|0,3:1|3:1|3:2,0:0:0:0:
152,322,203348,2,0,L|149:238,1,74.9999999999999,8|8,3:2|0:1,0:0:0:0:
220,143,204283,5,2,0:0:0:0:
