osu file format v14

[General]
AudioFilename: audio.mp3
AudioLeadIn: 0
PreviewTime: 66367
Countdown: 0
SampleSet: Normal
StackLeniency: 0.7
Mode: 1
LetterboxInBreaks: 0
WidescreenStoryboard: 0

[Editor]
Bookmarks: 574,13815,27056,40298,53539,66780,93263
DistanceSpacing: 2
BeatDivisor: 4
GridSize: 16
TimelineZoom: 2.6

[Metadata]
Title:Koiyamai (TV Size)
TitleUnicode:恋病 (TV Size)
Artist:Street
ArtistUnicode:Street
Creator:Ulqui
Version:Uragiri
Source:osu!
Tags:electronic japanese featured artist fa mappers' guild mg jazz pops
BeatmapID:2522728
BeatmapSetID:1211980

[Difficulty]
HPDrainRate:6
CircleSize:2
OverallDifficulty:6
ApproachRate:10
SliderMultiplier:1.4
SliderTickRate:1

[Events]
//Background and Video events
0,0,"66910974_p0_master1200.jpg",0,-20
//Break Periods
//Storyboard Layer 0 (Background)
//Storyboard Layer 1 (Fail)
//Storyboard Layer 2 (Pass)
//Storyboard Layer 3 (Foreground)
//Storyboard Layer 4 (Overlay)
//Storyboard Sound Samples

[TimingPoints]
574,413.793103448276,4,1,0,60,1,0
574,-100,4,1,0,60,0,0
27056,-71.4285714285714,4,1,0,60,0,0
27160,-121.951219512195,4,1,0,60,0,0
40298,-100,4,1,0,60,0,0
53539,-71.4285714285714,4,1,0,60,0,0
53642,-121.951219512195,4,1,0,60,0,0
66780,-55.5555555555556,4,1,0,60,0,1
66833,-83.3333333333333,4,1,0,60,0,1
76711,-55.5555555555556,4,1,0,60,0,1
76815,-83.3333333333333,4,1,0,60,0,1
79142,-55.5555555555556,4,1,0,60,0,1
79246,-83.3333333333333,4,1,0,60,0,1
79970,-55.5555555555556,4,1,0,60,0,1
80074,-83.3333333333333,4,1,0,60,0,1
89901,-55.5555555555556,4,1,0,60,0,1
90005,-83.3333333333333,4,1,0,60,0,1
92384,-55.5555555555556,4,1,0,60,0,1
92488,-83.3333333333333,4,1,0,60,0,1
93263,-55.5555555555556,4,1,0,60,0,0
94815,-100,4,1,0,60,0,0

[HitObjects]
146,133,6987,5,8,0:0:0:0:
146,133,7091,1,8,0:0:0:0:
146,133,7194,1,0,0:0:0:0:
172,134,7298,1,0,0:0:0:0:
172,134,7401,1,0,0:0:0:0:
171,135,7505,1,8,0:0:0:0:
136,178,7711,1,0,0:0:0:0:
136,178,7815,1,0,0:0:0:0:
186,60,7918,1,0,0:0:0:0:
136,178,8022,1,8,0:0:0:0:
108,122,8849,1,0,0:0:0:0:
108,122,8953,1,0,0:0:0:0:
108,122,9056,1,0,0:0:0:0:
108,122,9160,1,8,0:0:0:0:
193,88,9367,1,0,0:0:0:0:
202,82,9470,1,0,0:0:0:0:
196,87,9574,1,0,0:0:0:0:
194,88,9677,1,8,0:0:0:0:
200,105,9780,1,0,0:0:0:0:
154,102,9884,1,8,0:0:0:0:
200,105,9987,1,8,0:0:0:0:
154,102,10091,1,8,0:0:0:0:
154,102,10194,1,0,0:0:0:0:
166,87,10505,1,0,0:0:0:0:
172,132,10608,1,0,0:0:0:0:
172,132,10711,1,0,0:0:0:0:
172,132,10815,1,8,0:0:0:0:
172,132,11022,1,0,0:0:0:0:
172,132,11125,1,0,0:0:0:0:
172,132,11229,1,0,0:0:0:0:
172,132,11332,1,8,0:0:0:0:
182,147,12160,1,0,0:0:0:0:
182,147,12263,1,0,0:0:0:0:
181,148,12367,1,0,0:0:0:0:
182,147,12470,1,8,0:0:0:0:
182,147,12677,1,0,0:0:0:0:
182,147,12780,1,0,0:0:0:0:
182,147,12884,1,0,0:0:0:0:
182,147,12987,1,8,0:0:0:0:
182,147,13091,1,0,0:0:0:0:
182,147,13194,1,8,0:0:0:0:
181,82,13298,1,0,0:0:0:0:
181,148,13401,1,8,0:0:0:0:
146,81,13505,1,8,0:0:0:0:
181,73,13711,1,8,0:0:0:0:
182,96,13815,1,0,0:0:0:0:
104,211,13918,1,0,0:0:0:0:
104,211,14022,1,0,0:0:0:0:
104,211,14125,1,8,0:0:0:0:
147,156,14332,1,0,0:0:0:0:
147,156,14436,1,0,0:0:0:0:
147,156,14539,1,0,0:0:0:0:
147,156,14642,1,8,0:0:0:0:
171,167,14849,1,0,0:0:0:0:
171,167,15160,1,0,0:0:0:0:
171,167,15470,1,0,0:0:0:0:
171,167,15574,1,0,0:0:0:0:
171,167,15677,1,0,0:0:0:0:
171,167,15780,1,8,0:0:0:0:
169,146,15987,1,0,0:0:0:0:
171,144,16091,1,0,0:0:0:0:
170,146,16194,1,0,0:0:0:0:
169,148,16298,1,8,0:0:0:0:
143,150,16401,1,0,0:0:0:0:
143,150,16505,1,8,0:0:0:0:
143,150,16608,1,8,0:0:0:0:
143,150,16711,1,8,0:0:0:0:
151,61,16815,1,0,0:0:0:0:
145,93,17022,1,8,0:0:0:0:
147,76,17125,1,0,0:0:0:0:
165,85,17229,1,0,0:0:0:0:
165,85,17332,1,0,0:0:0:0:
164,87,17436,1,8,0:0:0:0:
163,90,17642,1,0,0:0:0:0:
163,90,17746,1,0,0:0:0:0:
163,90,17849,1,0,0:0:0:0:
162,91,17953,1,8,0:0:0:0:
181,139,18160,1,0,0:0:0:0:
181,139,18470,1,0,0:0:0:0:
181,139,18677,1,8,0:0:0:0:
181,139,18780,1,0,0:0:0:0:
163,146,18884,1,0,0:0:0:0:
163,146,18987,1,0,0:0:0:0:
163,146,19091,1,8,0:0:0:0:
175,102,19298,1,0,0:0:0:0:
175,102,19401,1,0,0:0:0:0:
175,102,19505,1,0,0:0:0:0:
175,102,19608,1,8,0:0:0:0:
162,93,19711,1,0,0:0:0:0:
162,93,19815,1,8,0:0:0:0:
162,93,19918,1,0,0:0:0:0:
162,93,20022,1,8,0:0:0:0:
162,93,20125,1,8,0:0:0:0:
197,63,20332,1,8,0:0:0:0:
166,71,20436,1,0,0:0:0:0:
197,63,20539,1,0,0:0:0:0:
197,63,20642,1,0,0:0:0:0:
197,63,20746,1,8,0:0:0:0:
176,85,20953,1,0,0:0:0:0:
176,88,21056,1,0,0:0:0:0:
176,89,21160,1,0,0:0:0:0:
176,89,21263,1,8,0:0:0:0:
138,73,21470,1,0,0:0:0:0:
138,73,21780,1,0,0:0:0:0:
138,73,22091,1,0,0:0:0:0:
140,77,22194,1,0,0:0:0:0:
140,77,22298,1,0,0:0:0:0:
138,79,22401,1,8,0:0:0:0:
142,99,22608,1,0,0:0:0:0:
141,102,22711,1,0,0:0:0:0:
141,102,22815,1,0,0:0:0:0:
139,102,22918,1,8,0:0:0:0:
154,111,23022,1,0,0:0:0:0:
157,100,23125,1,8,0:0:0:0:
157,100,23229,1,8,0:0:0:0:
154,99,23332,1,8,0:0:0:0:
167,92,23436,1,0,0:0:0:0:
162,109,23642,1,8,0:0:0:0:
162,109,23746,1,0,0:0:0:0:
161,112,23849,1,0,0:0:0:0:
161,113,23953,1,0,0:0:0:0:
161,113,24056,1,8,0:0:0:0:
149,124,24263,1,0,0:0:0:0:
149,125,24367,1,0,0:0:0:0:
148,125,24470,1,0,0:0:0:0:
148,125,24574,1,8,0:0:0:0:
170,96,24780,1,0,0:0:0:0:
170,96,25091,1,0,0:0:0:0:
170,96,25298,1,8,0:0:0:0:
170,96,25401,1,0,0:0:0:0:
156,129,25505,1,0,0:0:0:0:
156,129,25608,1,0,0:0:0:0:
156,129,25711,1,8,0:0:0:0:
162,93,25918,1,0,0:0:0:0:
162,94,26022,1,0,0:0:0:0:
162,94,26125,1,0,0:0:0:0:
162,94,26229,1,8,0:0:0:0:
162,94,26332,1,0,0:0:0:0:
162,93,26436,1,8,0:0:0:0:
162,93,26539,1,0,0:0:0:0:
143,95,26642,1,8,0:0:0:0:
143,96,26746,1,0,0:0:0:0:
81,138,26849,1,0,0:0:0:0:
81,138,26953,1,0,0:0:0:0:
164,62,27056,1,12,0:0:0:0:
148,112,27263,1,0,0:0:0:0:
148,112,27367,1,0,0:0:0:0:
148,112,27574,1,8,0:0:0:0:
148,112,27677,1,0,0:0:0:0:
177,112,27884,1,8,0:0:0:0:
161,135,28091,1,0,0:0:0:0:
189,64,28194,5,0,0:0:0:0:
189,64,28298,1,8,0:0:0:0:
160,150,28608,1,8,0:0:0:0:
160,150,28711,1,0,0:0:0:0:
145,175,28918,1,0,0:0:0:0:
180,44,29022,1,0,0:0:0:0:
145,175,29125,1,0,0:0:0:0:
167,103,29332,1,0,0:0:0:0:
167,103,29539,1,8,0:0:0:0:
160,122,29746,1,0,0:0:0:0:
160,122,29849,1,0,0:0:0:0:
167,103,29953,1,8,0:0:0:0:
161,137,30367,1,0,0:0:0:0:
161,142,30574,1,8,0:0:0:0:
158,144,30677,1,0,0:0:0:0:
161,142,30884,1,8,0:0:0:0:
161,142,30987,1,8,0:0:0:0:
159,93,31194,1,8,0:0:0:0:
158,117,31401,1,0,0:0:0:0:
158,117,31505,1,0,0:0:0:0:
158,117,31608,1,0,0:0:0:0:
158,117,31918,1,8,0:0:0:0:
158,117,32022,1,0,0:0:0:0:
148,96,32125,1,0,0:0:0:0:
148,97,32332,1,0,0:0:0:0:
148,97,32436,1,0,0:0:0:0:
181,42,32539,1,8,0:0:0:0:
181,42,32642,1,0,0:0:0:0:
181,42,32849,1,8,0:0:0:0:
148,97,33056,1,0,0:0:0:0:
148,96,33160,1,0,0:0:0:0:
148,97,33263,1,8,0:0:0:0:
131,163,33470,1,0,0:0:0:0:
131,163,33574,1,8,0:0:0:0:
131,163,33677,1,8,0:0:0:0:
155,117,33884,1,0,0:0:0:0:
155,117,33987,1,0,0:0:0:0:
155,117,34194,1,8,0:0:0:0:
155,117,34298,1,0,0:0:0:0:
155,117,34505,1,8,0:0:0:0:
153,88,34815,1,0,0:0:0:0:
158,120,35022,1,0,0:0:0:0:
153,88,35125,1,8,0:0:0:0:
162,119,35229,1,8,0:0:0:0:
153,88,35332,1,0,0:0:0:0:
153,88,35436,1,8,0:0:0:0:
153,88,35642,1,0,0:0:0:0:
151,140,35849,1,8,0:0:0:0:
151,140,35953,1,0,0:0:0:0:
146,112,36160,1,8,0:0:0:0:
164,110,36367,1,0,0:0:0:0:
163,110,36574,1,8,0:0:0:0:
160,112,36780,1,8,0:0:0:0:
160,113,36884,1,0,0:0:0:0:
161,112,36987,1,8,0:0:0:0:
119,140,37194,1,8,0:0:0:0:
119,140,37298,1,0,0:0:0:0:
156,57,37505,1,0,0:0:0:0:
151,60,37608,1,0,0:0:0:0:
164,82,37815,1,8,0:0:0:0:
178,82,38022,1,0,0:0:0:0:
178,82,38125,1,0,0:0:0:0:
178,82,38229,1,8,0:0:0:0:
155,67,38332,1,0,0:0:0:0:
155,67,38539,1,0,0:0:0:0:
155,68,38642,1,12,0:0:0:0:
153,115,38849,1,0,0:0:0:0:
153,115,38953,1,12,0:0:0:0:
153,115,39160,1,0,0:0:0:0:
153,115,39263,1,12,0:0:0:0:
167,133,39677,1,0,0:0:0:0:
167,133,39884,1,8,0:0:0:0:
167,133,39987,1,8,0:0:0:0:
149,226,40298,1,0,0:0:0:0:
157,75,40401,1,8,0:0:0:0:
149,226,40505,1,0,0:0:0:0:
149,226,40608,1,0,0:0:0:0:
149,226,40711,1,8,0:0:0:0:
122,93,40918,1,0,0:0:0:0:
122,93,41022,1,8,0:0:0:0:
122,93,41125,1,8,0:0:0:0:
122,93,41229,1,0,0:0:0:0:
122,93,41332,1,0,0:0:0:0:
150,82,41539,1,8,0:0:0:0:
147,87,41642,1,0,0:0:0:0:
146,90,41849,1,8,0:0:0:0:
146,91,41953,1,0,0:0:0:0:
217,82,42056,1,8,0:0:0:0:
150,82,42160,1,0,0:0:0:0:
144,80,42263,1,0,0:0:0:0:
143,80,42367,1,8,0:0:0:0:
174,107,42574,1,0,0:0:0:0:
174,107,42677,1,8,0:0:0:0:
174,107,42780,1,8,0:0:0:0:
181,79,42987,1,8,0:0:0:0:
181,79,43194,1,8,0:0:0:0:
181,79,43298,1,0,0:0:0:0:
181,79,43608,1,0,0:0:0:0:
179,46,43711,1,8,0:0:0:0:
171,81,43815,1,0,0:0:0:0:
171,81,43918,1,0,0:0:0:0:
171,81,44022,1,8,0:0:0:0:
161,79,44229,1,0,0:0:0:0:
160,82,44332,1,8,0:0:0:0:
159,83,44436,1,8,0:0:0:0:
160,104,44539,1,0,0:0:0:0:
160,104,44642,1,0,0:0:0:0:
158,107,44849,1,8,0:0:0:0:
158,107,44953,1,0,0:0:0:0:
128,125,45160,1,8,0:0:0:0:
158,107,45263,1,0,0:0:0:0:
178,109,45367,1,8,0:0:0:0:
128,125,45470,1,0,0:0:0:0:
128,125,45574,1,0,0:0:0:0:
128,125,45677,1,8,0:0:0:0:
205,67,45780,1,0,0:0:0:0:
156,70,45884,1,0,0:0:0:0:
156,70,45987,1,8,0:0:0:0:
163,83,46091,1,8,0:0:0:0:
156,70,46298,1,8,0:0:0:0:
156,70,46505,1,8,0:0:0:0:
156,70,46608,1,8,0:0:0:0:
149,226,46918,1,8,0:0:0:0:
180,117,47022,1,8,0:0:0:0:
149,226,47125,1,0,0:0:0:0:
149,226,47229,1,0,0:0:0:0:
149,226,47332,1,8,0:0:0:0:
122,93,47539,1,0,0:0:0:0:
122,93,47642,1,8,0:0:0:0:
122,93,47746,1,8,0:0:0:0:
122,93,47849,1,0,0:0:0:0:
122,93,47953,1,0,0:0:0:0:
150,82,48160,1,8,0:0:0:0:
147,87,48263,1,0,0:0:0:0:
146,90,48470,1,8,0:0:0:0:
146,91,48574,1,0,0:0:0:0:
180,117,48677,1,8,0:0:0:0:
150,82,48780,1,0,0:0:0:0:
144,80,48884,1,0,0:0:0:0:
143,80,48987,1,8,0:0:0:0:
174,107,49194,1,0,0:0:0:0:
174,107,49298,1,8,0:0:0:0:
174,107,49401,1,8,0:0:0:0:
181,79,49608,1,8,0:0:0:0:
181,79,49815,1,8,0:0:0:0:
181,79,49918,1,0,0:0:0:0:
181,79,50229,1,8,0:0:0:0:
180,117,50332,1,8,0:0:0:0:
171,81,50436,1,0,0:0:0:0:
171,81,50539,1,0,0:0:0:0:
171,81,50642,1,8,0:0:0:0:
161,79,50849,1,0,0:0:0:0:
160,82,50953,1,8,0:0:0:0:
159,83,51056,1,8,0:0:0:0:
160,104,51160,1,0,0:0:0:0:
160,104,51263,1,0,0:0:0:0:
158,107,51470,1,8,0:0:0:0:
158,107,51574,1,0,0:0:0:0:
128,125,51780,1,8,0:0:0:0:
158,107,51884,1,0,0:0:0:0:
176,95,51987,1,8,0:0:0:0:
128,125,52091,1,0,0:0:0:0:
128,125,52194,1,0,0:0:0:0:
128,125,52298,1,8,0:0:0:0:
176,99,52401,1,0,0:0:0:0:
156,70,52505,1,0,0:0:0:0:
156,70,52608,1,8,0:0:0:0:
163,83,52711,1,8,0:0:0:0:
156,70,52918,1,8,0:0:0:0:
156,70,53125,1,8,0:0:0:0:
156,70,53229,1,0,0:0:0:0:
161,159,53332,1,0,0:0:0:0:
161,159,53436,1,0,0:0:0:0:
164,62,53539,1,12,0:0:0:0:
148,112,53746,1,0,0:0:0:0:
148,112,53849,1,0,0:0:0:0:
148,112,54056,1,8,0:0:0:0:
148,112,54160,1,0,0:0:0:0:
177,112,54367,1,8,0:0:0:0:
161,135,54574,1,0,0:0:0:0:
189,64,54677,5,0,0:0:0:0:
189,64,54780,1,8,0:0:0:0:
160,150,55091,1,8,0:0:0:0:
160,150,55194,1,0,0:0:0:0:
145,175,55401,1,0,0:0:0:0:
180,44,55505,1,0,0:0:0:0:
145,175,55608,1,0,0:0:0:0:
167,103,55815,1,0,0:0:0:0:
167,103,56022,1,8,0:0:0:0:
160,122,56229,1,0,0:0:0:0:
160,122,56332,1,0,0:0:0:0:
167,103,56436,1,8,0:0:0:0:
161,137,56849,1,0,0:0:0:0:
161,142,57056,1,8,0:0:0:0:
158,144,57160,1,0,0:0:0:0:
161,142,57367,1,8,0:0:0:0:
161,142,57470,1,8,0:0:0:0:
159,93,57677,1,8,0:0:0:0:
158,117,57884,1,0,0:0:0:0:
158,117,57987,1,0,0:0:0:0:
158,117,58091,1,0,0:0:0:0:
158,117,58401,1,8,0:0:0:0:
158,117,58505,1,0,0:0:0:0:
148,96,58608,1,0,0:0:0:0:
148,97,58815,1,0,0:0:0:0:
148,97,58918,1,0,0:0:0:0:
181,42,59022,1,8,0:0:0:0:
181,42,59125,1,0,0:0:0:0:
181,42,59332,1,8,0:0:0:0:
148,97,59539,1,0,0:0:0:0:
148,96,59642,1,0,0:0:0:0:
148,97,59746,1,8,0:0:0:0:
131,163,59953,1,0,0:0:0:0:
131,163,60056,1,8,0:0:0:0:
131,163,60160,1,8,0:0:0:0:
155,117,60367,1,0,0:0:0:0:
155,117,60470,1,0,0:0:0:0:
155,117,60677,1,8,0:0:0:0:
155,117,60780,1,0,0:0:0:0:
155,117,60987,1,8,0:0:0:0:
153,88,61298,1,0,0:0:0:0:
158,120,61505,1,0,0:0:0:0:
153,88,61608,1,8,0:0:0:0:
162,119,61711,1,8,0:0:0:0:
153,88,61815,1,0,0:0:0:0:
153,88,61918,1,8,0:0:0:0:
153,88,62125,1,0,0:0:0:0:
151,140,62332,1,8,0:0:0:0:
151,140,62436,1,0,0:0:0:0:
146,112,62642,1,8,0:0:0:0:
164,110,62849,1,0,0:0:0:0:
163,110,63056,1,8,0:0:0:0:
160,112,63263,1,8,0:0:0:0:
160,113,63367,1,0,0:0:0:0:
161,112,63470,1,8,0:0:0:0:
119,140,63677,1,8,0:0:0:0:
119,140,63780,1,0,0:0:0:0:
156,57,63987,1,0,0:0:0:0:
151,60,64091,1,0,0:0:0:0:
164,82,64298,1,8,0:0:0:0:
178,82,64505,1,0,0:0:0:0:
178,82,64608,1,0,0:0:0:0:
178,82,64711,1,8,0:0:0:0:
155,67,64815,1,0,0:0:0:0:
155,67,65022,1,0,0:0:0:0:
155,68,65125,1,12,0:0:0:0:
153,115,65332,1,0,0:0:0:0:
153,115,65436,1,12,0:0:0:0:
153,115,65642,1,0,0:0:0:0:
153,115,65746,1,12,0:0:0:0:
167,133,66160,1,0,0:0:0:0:
167,133,66367,1,8,0:0:0:0:
167,133,66470,1,8,0:0:0:0:
243,181,66574,1,8,0:0:0:0:
241,218,66677,1,8,0:0:0:0:
216,81,66780,1,4,0:0:0:0:
156,113,67091,1,0,0:0:0:0:
156,113,67194,1,8,0:0:0:0:
153,108,67401,1,8,0:0:0:0:
153,108,67505,1,8,0:0:0:0:
153,108,67608,1,0,0:0:0:0:
150,112,67815,1,0,0:0:0:0:
150,112,68022,1,8,0:0:0:0:
145,124,68125,1,8,0:0:0:0:
145,124,68332,1,8,0:0:0:0:
145,119,68436,1,0,0:0:0:0:
151,164,68642,1,0,0:0:0:0:
151,164,68849,1,8,0:0:0:0:
151,164,68953,1,8,0:0:0:0:
151,164,69160,1,8,0:0:0:0:
151,164,69263,1,0,0:0:0:0:
151,164,69367,1,0,0:0:0:0:
171,92,69574,1,0,0:0:0:0:
171,92,69677,1,8,0:0:0:0:
166,90,69884,1,0,0:0:0:0:
167,84,69987,1,8,0:0:0:0:
166,90,70091,1,0,0:0:0:0:
162,101,70401,1,0,0:0:0:0:
162,101,70505,1,8,0:0:0:0:
165,97,70711,1,0,0:0:0:0:
165,97,70815,1,0,0:0:0:0:
165,97,70918,1,0,0:0:0:0:
165,97,71125,1,0,0:0:0:0:
165,97,71332,1,8,0:0:0:0:
165,97,71539,1,0,0:0:0:0:
175,57,71642,1,8,0:0:0:0:
165,97,71746,1,8,0:0:0:0:
154,89,71953,1,0,0:0:0:0:
151,76,72056,1,0,0:0:0:0:
154,89,72160,1,8,0:0:0:0:
189,67,72367,1,0,0:0:0:0:
185,69,72470,1,0,0:0:0:0:
184,70,72574,1,8,0:0:0:0:
184,70,72677,1,8,0:0:0:0:
183,70,72780,1,0,0:0:0:0:
163,94,72987,1,8,0:0:0:0:
162,62,73091,1,8,0:0:0:0:
162,62,73194,1,8,0:0:0:0:
162,62,73298,1,8,0:0:0:0:
162,62,73401,1,0,0:0:0:0:
182,90,73711,1,0,0:0:0:0:
182,90,73815,1,8,0:0:0:0:
193,157,74022,1,8,0:0:0:0:
193,157,74125,1,8,0:0:0:0:
193,157,74229,1,0,0:0:0:0:
145,120,74436,1,0,0:0:0:0:
145,120,74642,1,8,0:0:0:0:
151,105,74746,1,8,0:0:0:0:
151,105,74953,1,8,0:0:0:0:
151,105,75056,1,0,0:0:0:0:
163,125,75263,1,0,0:0:0:0:
162,125,75470,1,8,0:0:0:0:
156,77,75574,1,0,0:0:0:0:
162,125,75780,1,8,0:0:0:0:
162,126,75884,1,0,0:0:0:0:
161,76,75987,1,0,0:0:0:0:
161,76,76091,1,8,0:0:0:0:
169,68,76298,1,8,0:0:0:0:
168,112,76505,1,8,0:0:0:0:
168,112,76608,1,8,0:0:0:0:
167,112,76711,1,4,0:0:0:0:
170,118,77022,1,0,0:0:0:0:
168,112,77125,1,8,0:0:0:0:
159,142,77332,1,0,0:0:0:0:
179,42,77436,1,8,0:0:0:0:
159,142,77539,1,8,0:0:0:0:
159,142,77642,1,0,0:0:0:0:
159,142,77746,1,0,0:0:0:0:
152,128,77953,1,8,0:0:0:0:
135,147,78160,1,0,0:0:0:0:
135,147,78263,1,0,0:0:0:0:
130,151,78367,1,8,0:0:0:0:
149,97,78574,1,0,0:0:0:0:
149,97,78677,1,8,0:0:0:0:
149,97,78884,1,0,0:0:0:0:
154,98,78987,1,8,0:0:0:0:
118,108,79194,1,12,0:0:0:0:
147,126,79401,1,0,0:0:0:0:
147,126,79505,1,0,0:0:0:0:
147,126,79608,1,8,0:0:0:0:
169,83,79711,1,8,0:0:0:0:
169,83,79815,1,8,0:0:0:0:
173,57,79918,1,8,0:0:0:0:
168,83,80022,1,4,0:0:0:0:
156,113,80332,1,0,0:0:0:0:
156,113,80436,1,8,0:0:0:0:
153,108,80642,1,8,0:0:0:0:
153,108,80746,1,8,0:0:0:0:
153,108,80849,1,0,0:0:0:0:
150,112,81056,1,0,0:0:0:0:
150,112,81263,1,8,0:0:0:0:
145,124,81367,1,8,0:0:0:0:
145,124,81574,1,8,0:0:0:0:
145,119,81677,1,0,0:0:0:0:
151,164,81884,1,0,0:0:0:0:
151,164,82091,1,8,0:0:0:0:
151,164,82194,1,8,0:0:0:0:
151,164,82401,1,8,0:0:0:0:
151,164,82505,1,0,0:0:0:0:
151,164,82608,1,0,0:0:0:0:
171,92,82815,1,0,0:0:0:0:
171,92,82918,1,8,0:0:0:0:
166,90,83125,1,0,0:0:0:0:
167,84,83229,1,8,0:0:0:0:
166,90,83332,1,0,0:0:0:0:
162,101,83642,1,0,0:0:0:0:
162,101,83746,1,8,0:0:0:0:
165,97,83953,1,0,0:0:0:0:
165,97,84056,1,0,0:0:0:0:
165,97,84160,1,0,0:0:0:0:
165,97,84367,1,0,0:0:0:0:
165,97,84574,1,8,0:0:0:0:
165,97,84780,1,0,0:0:0:0:
175,57,84884,1,8,0:0:0:0:
165,97,84987,1,8,0:0:0:0:
154,89,85194,1,0,0:0:0:0:
151,76,85298,1,0,0:0:0:0:
154,89,85401,1,8,0:0:0:0:
189,67,85608,1,0,0:0:0:0:
185,69,85711,1,0,0:0:0:0:
184,70,85815,1,8,0:0:0:0:
184,70,85918,1,8,0:0:0:0:
183,70,86022,1,0,0:0:0:0:
163,94,86229,1,8,0:0:0:0:
162,62,86332,1,8,0:0:0:0:
162,62,86436,1,8,0:0:0:0:
162,62,86539,1,8,0:0:0:0:
162,62,86642,1,0,0:0:0:0:
182,90,86953,1,0,0:0:0:0:
182,90,87056,1,8,0:0:0:0:
193,157,87263,1,8,0:0:0:0:
193,157,87367,1,8,0:0:0:0:
193,157,87470,1,0,0:0:0:0:
145,120,87677,1,0,0:0:0:0:
145,120,87884,1,8,0:0:0:0:
151,105,87987,1,8,0:0:0:0:
151,105,88194,1,8,0:0:0:0:
151,105,88298,1,0,0:0:0:0:
163,125,88505,1,0,0:0:0:0:
162,125,88711,1,8,0:0:0:0:
156,77,88815,1,0,0:0:0:0:
162,125,89022,1,8,0:0:0:0:
162,126,89125,1,0,0:0:0:0:
161,76,89229,1,0,0:0:0:0:
161,76,89332,1,8,0:0:0:0:
169,68,89539,1,8,0:0:0:0:
168,112,89746,1,8,0:0:0:0:
168,112,89849,1,8,0:0:0:0:
167,112,89953,1,4,0:0:0:0:
170,118,90263,1,0,0:0:0:0:
168,112,90367,1,8,0:0:0:0:
159,142,90574,1,0,0:0:0:0:
179,42,90677,1,8,0:0:0:0:
159,142,90780,1,8,0:0:0:0:
159,142,90884,1,0,0:0:0:0:
159,142,90987,1,0,0:0:0:0:
152,128,91194,1,8,0:0:0:0:
156,163,91401,1,8,0:0:0:0:
156,163,91505,1,8,0:0:0:0:
154,164,91608,1,0,0:0:0:0:
159,142,91815,1,0,0:0:0:0:
165,134,91918,1,0,0:0:0:0:
159,142,92022,1,8,0:0:0:0:
158,146,92229,1,0,0:0:0:0:
158,146,92436,1,12,0:0:0:0:
172,128,92642,1,0,0:0:0:0:
169,134,92849,1,8,0:0:0:0:
165,134,92953,1,8,0:0:0:0:
166,135,93056,1,8,0:0:0:0:
166,135,93160,1,8,0:0:0:0:
172,128,93263,1,4,0:0:0:0:
169,138,93574,1,4,0:0:0:0:
169,134,93884,1,4,0:0:0:0:
166,135,94194,1,4,0:0:0:0:
169,138,94505,1,4,0:0:0:0:
238,42,94918,1,0,0:0:0:0:
166,167,95022,1,0,0:0:0:0:
156,177,95125,1,0,0:0:0:0:
156,177,95229,1,8,0:0:0:0:
173,92,95436,1,0,0:0:0:0:
173,92,95539,1,0,0:0:0:0:
173,92,95642,1,0,0:0:0:0:
173,92,95746,1,8,0:0:0:0:
191,91,95953,1,8,0:0:0:0:
191,92,96160,1,8,0:0:0:0:
191,92,96263,1,0,0:0:0:0:
195,116,96574,1,0,0:0:0:0:
196,120,96677,1,0,0:0:0:0:
195,122,96780,1,0,0:0:0:0:
193,124,96884,1,8,0:0:0:0:
184,112,97091,1,0,0:0:0:0:
184,113,97194,1,0,0:0:0:0:
181,115,97298,1,0,0:0:0:0:
176,117,97401,1,8,0:0:0:0:
141,148,98229,1,0,0:0:0:0:
141,148,98332,1,0,0:0:0:0:
141,148,98436,1,0,0:0:0:0:
141,148,98539,1,8,0:0:0:0:
187,98,98746,1,0,0:0:0:0:
187,98,98849,1,0,0:0:0:0:
187,98,98953,1,0,0:0:0:0:
187,98,99056,1,8,0:0:0:0:
187,98,99263,1,8,0:0:0:0:
187,98,99470,1,8,0:0:0:0:
187,98,99574,1,8,0:0:0:0:
