osu file format v14

[General]
AudioFilename: audio.mp3
AudioLeadIn: 0
PreviewTime: 66367
Countdown: 0
SampleSet: Normal
StackLeniency: 0.7
Mode: 1
LetterboxInBreaks: 0
WidescreenStoryboard: 1

[Editor]
Bookmarks: 574,13815,27056,40298,53539,66780,93263
DistanceSpacing: 2
BeatDivisor: 4
GridSize: 16
TimelineZoom: 2.6

[Metadata]
Title:Koiyamai (TV Size)
TitleUnicode:恋病 (TV Size)
Artist:Street
ArtistUnicode:Street
Creator:Ulqui
Version:Muzukashii
Source:osu!
Tags:electronic japanese featured artist fa mappers' guild mg jazz pops
BeatmapID:2522849
BeatmapSetID:1211980

[Difficulty]
HPDrainRate:6
CircleSize:2
OverallDifficulty:4
ApproachRate:10
SliderMultiplier:1.4
SliderTickRate:1

[Events]
//Background and Video events
0,0,"66910974_p0_master1200.jpg",0,-20
//Break Periods
//Storyboard Layer 0 (Background)
//Storyboard Layer 1 (Fail)
//Storyboard Layer 2 (Pass)
//Storyboard Layer 3 (Foreground)
//Storyboard Layer 4 (Overlay)
//Storyboard Sound Samples

[TimingPoints]
574,413.793103448276,4,1,0,60,1,0
574,-100,4,1,0,60,0,0
27056,-100,4,1,0,60,0,0
40298,-100,4,1,0,60,0,0
53539,-100,4,1,0,60,0,0
66780,-100,4,1,0,60,0,1
93263,-100,4,1,0,60,0,0

[HitObjects]
117,116,6987,5,8,0:0:0:0:
117,116,7194,1,0,0:0:0:0:
171,106,7505,1,8,0:0:0:0:
171,106,7815,1,0,0:0:0:0:
171,106,8022,1,8,0:0:0:0:
193,127,8849,1,0,0:0:0:0:
193,127,9160,1,8,0:0:0:0:
193,127,9470,1,0,0:0:0:0:
193,127,9677,1,8,0:0:0:0:
180,102,10091,1,0,0:0:0:0:
154,150,10194,1,0,0:0:0:0:
206,129,10505,1,0,0:0:0:0:
206,129,10815,1,8,0:0:0:0:
206,129,11125,1,0,0:0:0:0:
206,129,11332,1,8,0:0:0:0:
205,120,12160,1,0,0:0:0:0:
205,120,12470,1,8,0:0:0:0:
205,120,12780,1,0,0:0:0:0:
205,120,12987,1,8,0:0:0:0:
174,66,13401,1,8,0:0:0:0:
157,138,13505,1,8,0:0:0:0:
174,66,13815,1,4,0:0:0:0:
171,75,14125,1,8,0:0:0:0:
171,75,14436,1,0,0:0:0:0:
171,75,14642,1,8,0:0:0:0:
176,112,15470,1,0,0:0:0:0:
176,112,15780,1,8,0:0:0:0:
176,112,16091,1,0,0:0:0:0:
176,112,16298,1,8,0:0:0:0:
166,122,16505,1,8,0:0:0:0:
173,125,16711,1,0,0:0:0:0:
204,118,16815,1,0,0:0:0:0:
161,122,17125,1,0,0:0:0:0:
151,117,17436,1,8,0:0:0:0:
151,117,17746,1,0,0:0:0:0:
176,102,17953,1,8,0:0:0:0:
176,102,18780,1,0,0:0:0:0:
176,102,19091,1,8,0:0:0:0:
176,102,19401,1,0,0:0:0:0:
176,102,19608,1,8,0:0:0:0:
187,102,19815,1,8,0:0:0:0:
186,104,20022,1,8,0:0:0:0:
176,102,20125,1,8,0:0:0:0:
182,123,20436,1,0,0:0:0:0:
181,124,20746,1,8,0:0:0:0:
181,124,21056,1,0,0:0:0:0:
182,123,21263,1,8,0:0:0:0:
182,123,22091,1,0,0:0:0:0:
182,123,22401,1,8,0:0:0:0:
182,123,22711,1,0,0:0:0:0:
182,123,22918,1,8,0:0:0:0:
166,113,23125,1,8,0:0:0:0:
165,116,23332,1,0,0:0:0:0:
225,113,23436,1,0,0:0:0:0:
165,116,23746,1,0,0:0:0:0:
166,113,24056,1,8,0:0:0:0:
165,116,24367,1,0,0:0:0:0:
165,116,24574,1,8,0:0:0:0:
165,116,25401,1,0,0:0:0:0:
165,116,25711,1,8,0:0:0:0:
165,116,26022,1,0,0:0:0:0:
165,116,26229,1,8,0:0:0:0:
181,104,26436,1,8,0:0:0:0:
180,105,26642,1,0,0:0:0:0:
210,88,26746,1,0,0:0:0:0:
180,105,27056,1,12,0:0:0:0:
170,147,27677,1,0,0:0:0:0:
170,147,27884,1,8,0:0:0:0:
184,152,28091,1,8,0:0:0:0:
184,152,28505,1,8,0:0:0:0:
184,152,28711,1,0,0:0:0:0:
173,160,29125,1,0,0:0:0:0:
173,160,29332,1,8,0:0:0:0:
173,160,29539,1,8,0:0:0:0:
173,160,29746,1,0,0:0:0:0:
170,127,29849,1,0,0:0:0:0:
173,160,29953,1,8,0:0:0:0:
168,107,30367,1,0,0:0:0:0:
171,136,30987,1,0,0:0:0:0:
171,137,31194,1,8,0:0:0:0:
171,137,31401,1,8,0:0:0:0:
171,136,31815,1,8,0:0:0:0:
171,136,32022,1,0,0:0:0:0:
162,107,32436,1,0,0:0:0:0:
162,107,32642,1,8,0:0:0:0:
162,107,32849,1,8,0:0:0:0:
162,107,33056,1,0,0:0:0:0:
162,107,33160,1,0,0:0:0:0:
162,107,33263,1,8,0:0:0:0:
156,122,33677,1,0,0:0:0:0:
157,125,34298,1,0,0:0:0:0:
156,122,34505,1,8,0:0:0:0:
182,111,34918,1,8,0:0:0:0:
182,111,35125,1,8,0:0:0:0:
182,111,35332,1,0,0:0:0:0:
159,117,35642,1,0,0:0:0:0:
172,83,35953,1,0,0:0:0:0:
159,117,36160,1,8,0:0:0:0:
171,87,36367,1,0,0:0:0:0:
170,88,36574,1,8,0:0:0:0:
172,83,36780,1,0,0:0:0:0:
172,83,36884,1,0,0:0:0:0:
170,88,36987,1,0,0:0:0:0:
143,73,37608,1,0,0:0:0:0:
143,73,37815,1,8,0:0:0:0:
155,114,38229,1,8,0:0:0:0:
174,153,38436,1,0,0:0:0:0:
186,96,38642,1,8,0:0:0:0:
149,90,38953,1,8,0:0:0:0:
149,90,39263,1,8,0:0:0:0:
151,110,39884,1,12,0:0:0:0:
167,179,40298,5,0,0:0:0:0:
161,208,40711,1,12,0:0:0:0:
150,133,41125,1,0,0:0:0:0:
151,140,41332,1,0,0:0:0:0:
164,128,41539,1,8,0:0:0:0:
164,128,41953,1,0,0:0:0:0:
164,128,42367,1,8,0:0:0:0:
164,128,42574,1,0,0:0:0:0:
164,128,42780,1,8,0:0:0:0:
145,114,42987,1,8,0:0:0:0:
145,114,43194,1,0,0:0:0:0:
145,114,43298,1,0,0:0:0:0:
167,79,43608,1,0,0:0:0:0:
167,79,44022,1,8,0:0:0:0:
221,77,44229,1,0,0:0:0:0:
221,77,44332,1,0,0:0:0:0:
167,79,44436,1,0,0:0:0:0:
176,112,44642,1,0,0:0:0:0:
167,79,44849,1,8,0:0:0:0:
176,122,45263,1,0,0:0:0:0:
176,122,45677,1,8,0:0:0:0:
176,122,45884,1,0,0:0:0:0:
176,122,46091,1,8,0:0:0:0:
176,122,46298,1,8,0:0:0:0:
176,122,46505,1,8,0:0:0:0:
176,122,46608,1,8,0:0:0:0:
161,119,46918,1,4,0:0:0:0:
161,120,47332,1,12,0:0:0:0:
161,119,47746,1,0,0:0:0:0:
215,82,47953,1,0,0:0:0:0:
161,120,48160,1,8,0:0:0:0:
161,120,48574,1,0,0:0:0:0:
161,120,48987,1,8,0:0:0:0:
161,120,49194,1,0,0:0:0:0:
161,120,49401,1,8,0:0:0:0:
161,120,49608,1,8,0:0:0:0:
161,120,49815,1,0,0:0:0:0:
161,120,49918,1,0,0:0:0:0:
158,170,50229,1,4,0:0:0:0:
158,170,50642,1,8,0:0:0:0:
158,170,50849,1,0,0:0:0:0:
221,87,50953,1,0,0:0:0:0:
204,148,51056,1,0,0:0:0:0:
221,87,51263,1,0,0:0:0:0:
204,148,51470,1,8,0:0:0:0:
204,148,51884,1,0,0:0:0:0:
204,148,52298,1,8,0:0:0:0:
204,148,52505,1,0,0:0:0:0:
197,152,52711,1,12,0:0:0:0:
197,152,52918,1,8,0:0:0:0:
197,152,53125,1,0,0:0:0:0:
197,152,53229,1,0,0:0:0:0:
180,105,53539,1,12,0:0:0:0:
170,147,54160,1,0,0:0:0:0:
170,147,54367,1,8,0:0:0:0:
184,152,54574,1,8,0:0:0:0:
184,152,54987,1,8,0:0:0:0:
184,152,55194,1,0,0:0:0:0:
173,160,55608,1,0,0:0:0:0:
173,160,55815,1,8,0:0:0:0:
173,160,56022,1,8,0:0:0:0:
173,160,56229,1,0,0:0:0:0:
170,127,56332,1,0,0:0:0:0:
173,160,56436,1,8,0:0:0:0:
168,107,56849,1,0,0:0:0:0:
171,136,57470,1,0,0:0:0:0:
171,137,57677,1,8,0:0:0:0:
171,137,57884,1,8,0:0:0:0:
171,136,58298,1,8,0:0:0:0:
171,136,58505,1,0,0:0:0:0:
162,107,58918,1,0,0:0:0:0:
162,107,59125,1,8,0:0:0:0:
162,107,59332,1,8,0:0:0:0:
162,107,59539,1,0,0:0:0:0:
162,107,59642,1,0,0:0:0:0:
162,107,59746,1,8,0:0:0:0:
156,122,60160,1,0,0:0:0:0:
157,125,60780,1,0,0:0:0:0:
156,122,60987,1,8,0:0:0:0:
182,111,61401,1,8,0:0:0:0:
182,111,61608,1,8,0:0:0:0:
182,111,61815,1,0,0:0:0:0:
159,117,62125,1,0,0:0:0:0:
172,83,62436,1,0,0:0:0:0:
159,117,62642,1,8,0:0:0:0:
171,87,62849,1,0,0:0:0:0:
170,88,63056,1,8,0:0:0:0:
172,83,63263,1,0,0:0:0:0:
172,83,63367,1,0,0:0:0:0:
170,88,63470,1,0,0:0:0:0:
143,73,64091,1,0,0:0:0:0:
143,73,64298,1,8,0:0:0:0:
155,114,64711,1,8,0:0:0:0:
174,153,64918,1,0,0:0:0:0:
186,96,65125,1,8,0:0:0:0:
149,90,65436,1,8,0:0:0:0:
149,90,65746,1,8,0:0:0:0:
151,110,66367,1,8,0:0:0:0:
149,90,66470,1,8,0:0:0:0:
149,90,66780,1,4,0:0:0:0:
176,57,67194,1,8,0:0:0:0:
129,207,67401,1,0,0:0:0:0:
129,207,67505,1,0,0:0:0:0:
129,207,67608,1,0,0:0:0:0:
150,202,67815,1,0,0:0:0:0:
129,207,68022,1,8,0:0:0:0:
151,198,68436,1,0,0:0:0:0:
168,158,68642,1,0,0:0:0:0:
168,158,68849,1,8,0:0:0:0:
168,158,69056,1,0,0:0:0:0:
168,158,69160,1,0,0:0:0:0:
168,158,69470,1,0,0:0:0:0:
168,158,69677,1,8,0:0:0:0:
195,160,69884,1,8,0:0:0:0:
168,158,70091,1,0,0:0:0:0:
168,158,70711,1,8,0:0:0:0:
168,158,70918,1,0,0:0:0:0:
157,122,71229,1,8,0:0:0:0:
157,122,71539,1,8,0:0:0:0:
157,122,71746,1,0,0:0:0:0:
170,79,71953,1,8,0:0:0:0:
186,125,72056,1,8,0:0:0:0:
196,81,72574,1,0,0:0:0:0:
215,95,72780,1,0,0:0:0:0:
145,134,72987,1,8,0:0:0:0:
145,134,73401,1,0,0:0:0:0:
181,76,73815,1,8,0:0:0:0:
174,97,74022,1,0,0:0:0:0:
186,87,74125,1,0,0:0:0:0:
174,97,74229,1,0,0:0:0:0:
167,143,74436,1,0,0:0:0:0:
167,143,74642,1,8,0:0:0:0:
171,151,75056,1,0,0:0:0:0:
187,88,75263,1,0,0:0:0:0:
187,88,75470,1,8,0:0:0:0:
187,88,75677,1,0,0:0:0:0:
187,88,75780,1,0,0:0:0:0:
187,88,76091,1,0,0:0:0:0:
187,88,76298,1,8,0:0:0:0:
196,82,76505,1,8,0:0:0:0:
187,88,76711,1,4,0:0:0:0:
151,153,77125,1,8,0:0:0:0:
151,153,77746,1,0,0:0:0:0:
151,153,77953,1,8,0:0:0:0:
225,59,78160,1,0,0:0:0:0:
151,153,78367,1,8,0:0:0:0:
126,181,78677,1,8,0:0:0:0:
126,181,78987,1,8,0:0:0:0:
180,38,79194,1,12,0:0:0:0:
136,191,79608,1,8,0:0:0:0:
141,126,79711,1,8,0:0:0:0:
149,90,80022,1,4,0:0:0:0:
176,57,80436,1,8,0:0:0:0:
129,207,80642,1,0,0:0:0:0:
129,207,80746,1,0,0:0:0:0:
129,207,80849,1,0,0:0:0:0:
150,202,81056,1,0,0:0:0:0:
129,207,81263,1,8,0:0:0:0:
151,198,81677,1,0,0:0:0:0:
168,158,81884,1,0,0:0:0:0:
168,158,82091,1,8,0:0:0:0:
168,158,82298,1,0,0:0:0:0:
168,158,82401,1,0,0:0:0:0:
168,158,82711,1,0,0:0:0:0:
168,158,82918,1,8,0:0:0:0:
195,160,83125,1,8,0:0:0:0:
168,158,83332,1,0,0:0:0:0:
168,158,83953,1,8,0:0:0:0:
168,158,84160,1,0,0:0:0:0:
157,122,84470,1,8,0:0:0:0:
157,122,84780,1,8,0:0:0:0:
157,122,84987,1,0,0:0:0:0:
170,79,85194,1,8,0:0:0:0:
186,125,85298,1,8,0:0:0:0:
188,68,85815,1,0,0:0:0:0:
188,68,86022,1,0,0:0:0:0:
145,134,86229,1,8,0:0:0:0:
145,134,86642,1,0,0:0:0:0:
181,76,87056,1,8,0:0:0:0:
174,97,87263,1,0,0:0:0:0:
186,87,87367,1,0,0:0:0:0:
174,97,87470,1,0,0:0:0:0:
167,143,87677,1,0,0:0:0:0:
167,143,87884,1,8,0:0:0:0:
171,151,88298,1,0,0:0:0:0:
187,88,88505,1,0,0:0:0:0:
187,88,88711,1,8,0:0:0:0:
187,88,88918,1,0,0:0:0:0:
187,88,89022,1,0,0:0:0:0:
187,88,89332,1,0,0:0:0:0:
187,88,89539,1,8,0:0:0:0:
196,82,89746,1,8,0:0:0:0:
187,88,89953,1,4,0:0:0:0:
151,153,90367,1,8,0:0:0:0:
151,153,90987,1,0,0:0:0:0:
151,153,91194,1,8,0:0:0:0:
206,66,91401,1,8,0:0:0:0:
151,153,91608,1,0,0:0:0:0:
168,77,92022,1,8,0:0:0:0:
55,125,92229,1,0,0:0:0:0:
168,77,92436,1,12,0:0:0:0:
182,94,92849,1,8,0:0:0:0:
191,72,93056,1,8,0:0:0:0:
182,94,93263,1,4,0:0:0:0:
182,94,93574,1,4,0:0:0:0:
182,94,93884,1,4,0:0:0:0:
182,94,94194,1,4,0:0:0:0:
182,94,94505,1,4,0:0:0:0:
168,96,94918,1,0,0:0:0:0:
168,96,95229,1,8,0:0:0:0:
168,96,95539,1,0,0:0:0:0:
168,96,95746,1,8,0:0:0:0:
168,96,95953,1,8,0:0:0:0:
168,96,96160,1,0,0:0:0:0:
168,96,96263,1,0,0:0:0:0:
201,132,96574,1,0,0:0:0:0:
201,132,96884,1,8,0:0:0:0:
195,136,97194,1,0,0:0:0:0:
195,136,97401,1,8,0:0:0:0:
195,136,98229,1,0,0:0:0:0:
195,136,98539,1,8,0:0:0:0:
195,136,98849,1,0,0:0:0:0:
195,136,99056,1,8,0:0:0:0:
195,136,99263,1,8,0:0:0:0:
195,136,99470,1,8,0:0:0:0:
195,136,99574,1,8,0:0:0:0:
