osu file format v14

[General]
AudioFilename: audio.mp3
AudioLeadIn: 0
PreviewTime: 66367
Countdown: 0
SampleSet: Normal
StackLeniency: 0.7
Mode: 1
LetterboxInBreaks: 0
WidescreenStoryboard: 1

[Editor]
Bookmarks: 574,13815,27056,40298,53539,66780,93263
DistanceSpacing: 2
BeatDivisor: 2
GridSize: 16
TimelineZoom: 1.9

[Metadata]
Title:Koiyamai (TV Size)
TitleUnicode:恋病 (TV Size)
Artist:Street
ArtistUnicode:Street
Creator:Ulqui
Version:Kantan
Source:osu!
Tags:electronic japanese featured artist fa mappers' guild mg jazz pops
BeatmapID:2522929
BeatmapSetID:1211980

[Difficulty]
HPDrainRate:7.5
CircleSize:2
OverallDifficulty:2.5
ApproachRate:10
SliderMultiplier:1.4
SliderTickRate:1

[Events]
//Background and Video events
0,0,"66910974_p0_master1200.jpg",0,-20
//Break Periods
//Storyboard Layer 0 (Background)
//Storyboard Layer 1 (Fail)
//Storyboard Layer 2 (Pass)
//Storyboard Layer 3 (Foreground)
//Storyboard Layer 4 (Overlay)
//Storyboard Sound Samples

[TimingPoints]
574,413.793103448276,4,1,0,60,1,0
574,-100,4,1,0,60,0,0
27056,-100,4,1,0,60,0,0
40298,-100,4,1,0,60,0,0
53539,-100,4,1,0,60,0,0
66780,-100,4,1,0,60,0,1
93263,-100,4,1,0,60,0,0

[HitObjects]
136,161,7194,5,0,0:0:0:0:
164,122,8849,1,0,0:0:0:0:
164,122,9677,1,8,0:0:0:0:
164,122,10091,1,0,0:0:0:0:
178,105,10505,1,0,0:0:0:0:
173,97,12160,5,0,0:0:0:0:
173,97,12987,1,8,0:0:0:0:
173,97,13401,1,8,0:0:0:0:
131,196,13815,5,4,0:0:0:0:
156,190,15470,1,0,0:0:0:0:
157,148,16298,1,8,0:0:0:0:
157,148,16711,1,0,0:0:0:0:
157,148,17125,1,0,0:0:0:0:
171,118,18780,1,0,0:0:0:0:
171,118,19608,1,8,0:0:0:0:
171,118,20022,1,8,0:0:0:0:
171,118,20436,1,0,0:0:0:0:
176,81,22091,1,0,0:0:0:0:
176,81,22918,1,8,0:0:0:0:
176,81,23332,1,0,0:0:0:0:
176,81,23746,1,0,0:0:0:0:
176,85,25401,1,0,0:0:0:0:
176,85,26229,1,8,0:0:0:0:
176,85,26642,1,0,0:0:0:0:
198,75,27056,1,12,0:0:0:0:
166,112,28711,1,0,0:0:0:0:
166,112,29539,1,8,0:0:0:0:
171,128,29953,1,8,0:0:0:0:
171,127,30367,1,0,0:0:0:0:
177,98,32022,1,0,0:0:0:0:
177,98,32849,1,8,0:0:0:0:
177,98,33263,1,8,0:0:0:0:
177,98,33677,1,0,0:0:0:0:
177,77,34505,1,8,0:0:0:0:
173,84,35332,1,0,0:0:0:0:
166,91,36160,1,8,0:0:0:0:
166,91,36574,1,8,0:0:0:0:
166,91,36987,1,0,0:0:0:0:
181,109,38229,1,8,0:0:0:0:
184,127,38642,1,0,0:0:0:0:
184,127,39263,1,0,0:0:0:0:
180,101,39884,1,12,0:0:0:0:
198,90,40298,1,0,0:0:0:0:
219,118,40711,1,12,0:0:0:0:
193,182,41953,1,0,0:0:0:0:
180,125,42780,1,8,0:0:0:0:
180,125,43194,1,0,0:0:0:0:
180,125,43608,1,0,0:0:0:0:
196,67,44436,1,8,0:0:0:0:
207,75,45263,1,0,0:0:0:0:
186,92,46091,1,8,0:0:0:0:
186,92,46505,1,8,0:0:0:0:
186,92,46918,1,4,0:0:0:0:
264,47,47332,1,12,0:0:0:0:
179,122,48574,1,0,0:0:0:0:
171,123,49401,1,8,0:0:0:0:
171,123,49815,1,0,0:0:0:0:
171,123,50229,1,4,0:0:0:0:
207,89,51056,1,8,0:0:0:0:
161,137,51884,1,0,0:0:0:0:
161,137,52711,1,12,0:0:0:0:
161,137,53125,1,0,0:0:0:0:
198,75,53539,1,12,0:0:0:0:
166,112,55194,1,0,0:0:0:0:
166,112,56022,1,8,0:0:0:0:
171,128,56436,1,8,0:0:0:0:
171,127,56849,1,0,0:0:0:0:
177,98,58505,1,0,0:0:0:0:
177,98,59332,1,8,0:0:0:0:
177,98,59746,1,8,0:0:0:0:
177,98,60160,1,0,0:0:0:0:
177,77,60987,1,8,0:0:0:0:
173,84,61815,1,0,0:0:0:0:
166,91,62642,1,8,0:0:0:0:
166,91,63056,1,8,0:0:0:0:
166,91,63470,1,0,0:0:0:0:
181,109,64711,1,8,0:0:0:0:
184,127,65125,1,0,0:0:0:0:
184,127,65746,1,0,0:0:0:0:
206,118,66780,1,4,0:0:0:0:
139,226,67608,1,8,0:0:0:0:
154,227,68436,1,0,0:0:0:0:
154,227,68849,1,0,0:0:0:0:
154,227,69263,1,8,0:0:0:0:
154,227,70091,1,0,0:0:0:0:
154,227,70918,1,8,0:0:0:0:
154,227,71746,1,0,0:0:0:0:
178,112,72987,1,8,0:0:0:0:
158,216,73401,1,0,0:0:0:0:
158,216,74229,1,8,0:0:0:0:
155,223,75056,1,0,0:0:0:0:
155,223,75884,1,8,0:0:0:0:
194,122,76298,1,8,0:0:0:0:
155,223,76711,1,4,0:0:0:0:
155,222,77953,1,8,0:0:0:0:
155,222,78367,1,0,0:0:0:0:
161,208,78987,1,0,0:0:0:0:
206,118,80022,1,4,0:0:0:0:
139,226,80849,1,8,0:0:0:0:
154,227,81677,1,0,0:0:0:0:
154,227,82091,1,0,0:0:0:0:
154,227,82505,1,8,0:0:0:0:
154,227,83332,1,0,0:0:0:0:
154,227,84160,1,8,0:0:0:0:
154,227,84987,1,0,0:0:0:0:
186,126,86229,1,8,0:0:0:0:
158,216,86642,1,0,0:0:0:0:
158,216,87470,1,8,0:0:0:0:
155,223,88298,1,0,0:0:0:0:
155,223,89125,1,8,0:0:0:0:
194,122,89539,1,8,0:0:0:0:
155,223,89953,1,4,0:0:0:0:
155,222,91194,1,0,0:0:0:0:
155,222,91608,1,8,0:0:0:0:
200,120,92436,1,12,0:0:0:0:
175,86,93263,1,4,0:0:0:0:
180,142,93884,1,4,0:0:0:0:
180,142,94505,1,4,0:0:0:0:
152,155,95746,5,8,0:0:0:0:
152,155,96160,1,0,0:0:0:0:
152,155,96574,5,0,0:0:0:0:
151,161,98229,1,0,0:0:0:0:
151,161,99056,1,8,0:0:0:0:
151,161,99470,1,8,0:0:0:0:
