osu file format v14

[General]
AudioFilename: audio.mp3
AudioLeadIn: 0
PreviewTime: 66367
Countdown: 0
SampleSet: Normal
StackLeniency: 0.7
Mode: 1
LetterboxInBreaks: 0
WidescreenStoryboard: 1

[Editor]
Bookmarks: 574,13815,27056,40298,53539,66780,93263
DistanceSpacing: 2
BeatDivisor: 4
GridSize: 16
TimelineZoom: 1.9

[Metadata]
Title:Koiyamai (TV Size)
TitleUnicode:恋病 (TV Size)
Artist:Street
ArtistUnicode:Street
Creator:Ulqui
Version:Futsuu
Source:osu!
Tags:electronic japanese featured artist fa mappers' guild mg jazz pops
BeatmapID:2522915
BeatmapSetID:1211980

[Difficulty]
HPDrainRate:7
CircleSize:2
OverallDifficulty:3
ApproachRate:10
SliderMultiplier:1.4
SliderTickRate:1

[Events]
//Background and Video events
0,0,"66910974_p0_master1200.jpg",0,-20
//Break Periods
//Storyboard Layer 0 (Background)
//Storyboard Layer 1 (Fail)
//Storyboard Layer 2 (Pass)
//Storyboard Layer 3 (Foreground)
//Storyboard Layer 4 (Overlay)
//Storyboard Sound Samples

[TimingPoints]
574,413.793103448276,4,1,0,60,1,0
574,-100,4,1,0,60,0,0
27056,-100,4,1,0,60,0,0
40298,-100,4,1,0,60,0,0
53539,-100,4,1,0,60,0,0
66780,-100,4,1,0,60,0,1
93263,-100,4,1,0,60,0,0

[HitObjects]
116,183,7194,5,0,0:0:0:0:
163,56,7505,1,8,0:0:0:0:
133,174,8022,1,8,0:0:0:0:
152,119,8849,1,0,0:0:0:0:
171,80,9160,1,8,0:0:0:0:
152,119,9677,1,8,0:0:0:0:
152,119,10091,1,0,0:0:0:0:
147,101,10505,1,0,0:0:0:0:
171,92,10815,1,8,0:0:0:0:
147,101,11332,1,8,0:0:0:0:
147,101,12160,1,0,0:0:0:0:
180,101,12470,1,8,0:0:0:0:
147,101,12987,1,8,0:0:0:0:
147,101,13401,1,8,0:0:0:0:
180,100,13815,1,4,0:0:0:0:
129,167,14125,1,8,0:0:0:0:
129,167,14642,1,8,0:0:0:0:
129,167,15470,1,0,0:0:0:0:
129,167,15780,1,8,0:0:0:0:
129,167,16298,1,8,0:0:0:0:
188,122,16505,1,8,0:0:0:0:
119,173,16711,1,0,0:0:0:0:
120,170,17125,1,0,0:0:0:0:
119,173,17436,1,8,0:0:0:0:
120,170,17953,1,8,0:0:0:0:
173,151,18780,1,0,0:0:0:0:
173,151,19091,1,8,0:0:0:0:
173,151,19608,1,8,0:0:0:0:
215,82,19815,1,8,0:0:0:0:
173,151,20022,1,8,0:0:0:0:
173,151,20436,1,0,0:0:0:0:
173,151,20746,1,8,0:0:0:0:
173,151,21263,1,8,0:0:0:0:
173,151,22091,1,0,0:0:0:0:
173,151,22401,1,8,0:0:0:0:
173,151,22918,1,8,0:0:0:0:
200,97,23125,1,8,0:0:0:0:
173,151,23332,1,0,0:0:0:0:
173,151,23746,1,0,0:0:0:0:
173,151,24056,1,8,0:0:0:0:
173,151,24574,1,8,0:0:0:0:
173,151,25401,1,0,0:0:0:0:
173,151,25711,1,8,0:0:0:0:
173,151,26229,1,8,0:0:0:0:
186,88,26436,1,8,0:0:0:0:
173,151,26642,1,0,0:0:0:0:
186,88,27056,1,12,0:0:0:0:
179,150,27884,1,8,0:0:0:0:
161,135,28298,1,0,0:0:0:0:
161,137,28711,1,0,0:0:0:0:
186,54,29125,1,0,0:0:0:0:
175,32,29332,1,8,0:0:0:0:
149,117,29539,1,8,0:0:0:0:
149,117,29953,1,8,0:0:0:0:
183,112,30367,1,0,0:0:0:0:
174,113,31194,1,8,0:0:0:0:
161,83,31608,1,0,0:0:0:0:
181,64,32022,1,8,0:0:0:0:
185,78,32436,1,0,0:0:0:0:
185,78,32642,1,8,0:0:0:0:
143,112,32849,1,8,0:0:0:0:
185,78,33263,1,8,0:0:0:0:
185,78,33677,1,0,0:0:0:0:
151,105,34505,1,8,0:0:0:0:
175,60,34815,1,8,0:0:0:0:
179,76,35125,1,8,0:0:0:0:
145,121,35332,1,0,0:0:0:0:
157,89,35746,1,0,0:0:0:0:
160,132,36160,1,8,0:0:0:0:
184,87,36367,1,0,0:0:0:0:
167,141,36574,1,8,0:0:0:0:
167,141,36987,1,0,0:0:0:0:
187,133,37815,1,8,0:0:0:0:
216,77,38229,1,8,0:0:0:0:
197,134,38642,1,0,0:0:0:0:
197,134,38953,1,0,0:0:0:0:
197,134,39263,1,0,0:0:0:0:
197,134,39884,1,12,0:0:0:0:
197,134,40298,1,0,0:0:0:0:
168,143,40711,1,12,0:0:0:0:
183,106,41125,1,8,0:0:0:0:
160,125,41953,1,0,0:0:0:0:
160,125,42367,1,8,0:0:0:0:
160,125,42780,1,8,0:0:0:0:
203,113,42987,1,8,0:0:0:0:
203,113,43194,1,0,0:0:0:0:
203,113,43608,1,0,0:0:0:0:
203,113,44022,1,8,0:0:0:0:
203,113,44642,1,0,0:0:0:0:
186,53,44849,1,8,0:0:0:0:
186,83,45263,1,0,0:0:0:0:
186,83,45677,1,8,0:0:0:0:
186,83,46091,1,8,0:0:0:0:
186,83,46298,1,8,0:0:0:0:
186,83,46505,1,8,0:0:0:0:
180,121,46918,1,4,0:0:0:0:
187,108,47332,1,12,0:0:0:0:
187,108,47746,1,8,0:0:0:0:
186,124,48574,1,0,0:0:0:0:
186,124,48987,1,8,0:0:0:0:
186,124,49401,1,8,0:0:0:0:
186,124,49608,1,8,0:0:0:0:
186,124,49815,1,0,0:0:0:0:
186,124,50229,1,4,0:0:0:0:
186,124,50642,1,8,0:0:0:0:
186,124,51263,1,0,0:0:0:0:
202,102,51470,1,8,0:0:0:0:
186,124,51884,1,0,0:0:0:0:
175,114,52298,1,8,0:0:0:0:
175,114,52711,1,8,0:0:0:0:
175,114,52918,1,8,0:0:0:0:
175,114,53125,1,0,0:0:0:0:
186,88,53539,1,12,0:0:0:0:
179,150,54367,1,8,0:0:0:0:
161,135,54780,1,0,0:0:0:0:
161,137,55194,1,0,0:0:0:0:
186,54,55608,1,0,0:0:0:0:
175,32,55815,1,8,0:0:0:0:
149,117,56022,1,8,0:0:0:0:
149,117,56436,1,8,0:0:0:0:
183,112,56849,1,0,0:0:0:0:
174,113,57677,1,8,0:0:0:0:
161,83,58091,1,0,0:0:0:0:
181,64,58505,1,8,0:0:0:0:
185,78,58918,1,0,0:0:0:0:
185,78,59125,1,8,0:0:0:0:
143,112,59332,1,8,0:0:0:0:
185,78,59746,1,8,0:0:0:0:
185,78,60160,1,0,0:0:0:0:
151,105,60987,1,8,0:0:0:0:
175,60,61298,1,8,0:0:0:0:
179,76,61608,1,8,0:0:0:0:
145,121,61815,1,0,0:0:0:0:
157,89,62229,1,0,0:0:0:0:
160,132,62642,1,8,0:0:0:0:
184,87,62849,1,0,0:0:0:0:
167,141,63056,1,8,0:0:0:0:
167,141,63470,1,0,0:0:0:0:
187,133,64298,1,8,0:0:0:0:
216,77,64711,1,8,0:0:0:0:
197,134,65125,1,0,0:0:0:0:
197,134,65436,1,0,0:0:0:0:
197,134,65746,1,0,0:0:0:0:
197,134,66367,1,8,0:0:0:0:
196,109,66780,1,4,0:0:0:0:
196,105,67401,1,8,0:0:0:0:
205,213,67608,1,8,0:0:0:0:
186,74,68229,1,0,0:0:0:0:
205,213,68436,1,0,0:0:0:0:
156,62,68849,1,8,0:0:0:0:
197,216,69263,1,0,0:0:0:0:
171,61,69470,1,0,0:0:0:0:
171,61,69677,1,8,0:0:0:0:
197,216,70091,1,0,0:0:0:0:
171,61,70711,1,8,0:0:0:0:
190,222,70918,1,0,0:0:0:0:
171,61,71332,1,8,0:0:0:0:
190,222,71746,1,0,0:0:0:0:
186,53,72160,1,8,0:0:0:0:
192,98,72987,1,8,0:0:0:0:
190,222,73401,1,0,0:0:0:0:
216,77,74022,1,8,0:0:0:0:
190,222,74229,1,8,0:0:0:0:
166,119,74849,1,0,0:0:0:0:
166,119,75056,1,0,0:0:0:0:
166,119,75470,1,8,0:0:0:0:
196,67,75677,1,8,0:0:0:0:
166,119,75884,1,0,0:0:0:0:
166,119,76298,1,8,0:0:0:0:
166,119,76711,1,4,0:0:0:0:
168,138,77125,1,8,0:0:0:0:
182,122,77953,1,8,0:0:0:0:
181,93,78367,1,0,0:0:0:0:
180,102,78677,1,0,0:0:0:0:
180,102,78987,1,0,0:0:0:0:
176,114,79608,1,8,0:0:0:0:
196,109,80022,1,4,0:0:0:0:
211,59,80642,1,8,0:0:0:0:
205,213,80849,1,8,0:0:0:0:
186,74,81470,1,0,0:0:0:0:
205,213,81677,1,0,0:0:0:0:
156,62,82091,1,8,0:0:0:0:
197,216,82505,1,0,0:0:0:0:
171,61,82711,1,0,0:0:0:0:
171,61,82918,1,8,0:0:0:0:
197,216,83332,1,0,0:0:0:0:
171,61,83953,1,8,0:0:0:0:
190,222,84160,1,0,0:0:0:0:
171,61,84574,1,8,0:0:0:0:
190,222,84987,1,0,0:0:0:0:
190,222,85401,1,8,0:0:0:0:
171,61,86229,1,8,0:0:0:0:
190,222,86642,1,0,0:0:0:0:
205,75,87263,1,8,0:0:0:0:
190,222,87470,1,8,0:0:0:0:
166,119,88091,1,0,0:0:0:0:
166,119,88298,1,0,0:0:0:0:
166,119,88711,1,8,0:0:0:0:
196,67,88918,1,8,0:0:0:0:
166,119,89125,1,0,0:0:0:0:
166,119,89539,1,8,0:0:0:0:
166,119,89953,1,4,0:0:0:0:
217,136,90367,1,8,0:0:0:0:
182,122,91194,1,8,0:0:0:0:
181,93,91608,1,0,0:0:0:0:
191,47,92022,1,8,0:0:0:0:
191,47,92229,1,0,0:0:0:0:
191,47,92436,1,12,0:0:0:0:
176,114,92849,1,8,0:0:0:0:
211,74,93263,1,4,0:0:0:0:
176,102,93574,1,4,0:0:0:0:
176,102,93884,1,4,0:0:0:0:
176,102,94194,1,4,0:0:0:0:
176,102,94505,1,4,0:0:0:0:
211,139,95746,1,8,0:0:0:0:
211,139,95953,1,8,0:0:0:0:
211,139,96160,1,0,0:0:0:0:
176,178,96574,1,0,0:0:0:0:
176,178,96884,1,8,0:0:0:0:
176,178,97401,1,8,0:0:0:0:
176,178,98229,1,0,0:0:0:0:
176,178,98539,1,8,0:0:0:0:
176,178,99056,1,8,0:0:0:0:
211,112,99263,1,8,0:0:0:0:
176,178,99470,1,8,0:0:0:0:
