osu file format v14

[General]
AudioFilename: audio.mp3
AudioLeadIn: 0
PreviewTime: 63591
Countdown: 0
SampleSet: Normal
StackLeniency: 0.7
Mode: 1
LetterboxInBreaks: 0
WidescreenStoryboard: 1

[Editor]
Bookmarks: 13099,23204,33310,40889,43415,53525,63625,73736,93946,104046,104051
DistanceSpacing: 2
BeatDivisor: 4
GridSize: 32
TimelineZoom: 2.000001

[Metadata]
Title:Hestia
TitleUnicode:Hestia
Artist:Street
ArtistUnicode:Street
Creator:tasuke912
Version:Muzukashii
Source:osu!
Tags:mappers' guild featured artist fa electronic instrumental SFES2019
BeatmapID:2518839
BeatmapSetID:1209521

[Difficulty]
HPDrainRate:6
CircleSize:2
OverallDifficulty:5
ApproachRate:5
SliderMultiplier:1.4
SliderTickRate:1

[Events]
//Background and Video events
0,0,"bg.jpg",0,-75
//Break Periods
//Storyboard Layer 0 (Background)
//Storyboard Layer 1 (Fail)
//Storyboard Layer 2 (Pass)
//Storyboard Layer 3 (Foreground)
//Storyboard Layer 4 (Overlay)
//Storyboard Sound Samples

[TimingPoints]
473,315.789473684211,4,1,0,50,1,0
10499,-100,4,1,0,60,0,0
10657,-100,4,1,0,20,0,0
12394,-100,4,1,0,90,0,0
23367,-100,4,1,0,20,0,0
25183,-100,4,1,0,90,0,0
43341,-100,4,1,0,90,0,0
63630,-100,4,1,0,90,0,1
83841,-100,4,1,0,90,0,0
83999,-100,4,1,0,90,0,0
86367,-100,4,1,0,90,0,1
104051,-100,4,1,0,90,0,0
104130,-111.111111111111,4,1,0,25,0,0
124262,-111.111111111111,4,1,0,5,0,0

[HitObjects]
256,192,473,5,2,0:0:0:0:
256,192,630,1,0,0:0:0:0:
256,192,788,1,2,0:0:0:0:
256,192,1262,1,0,0:0:0:0:
256,192,1420,1,2,0:0:0:0:
256,192,1578,1,0,0:0:0:0:
256,192,2999,1,2,0:0:0:0:
256,192,3157,1,0,0:0:0:0:
256,192,3315,1,0,0:0:0:0:
256,192,3788,1,0,0:0:0:0:
256,192,3946,1,2,0:0:0:0:
256,192,4104,1,2,0:0:0:0:
256,192,5525,1,2,0:0:0:0:
256,192,5683,1,0,0:0:0:0:
256,192,5841,1,2,0:0:0:0:
256,192,6315,1,0,0:0:0:0:
256,192,6473,1,2,0:0:0:0:
256,192,6630,1,0,0:0:0:0:
256,192,8051,1,2,0:0:0:0:
256,192,8209,1,0,0:0:0:0:
256,192,8367,1,0,0:0:0:0:
256,192,8841,1,0,0:0:0:0:
256,192,8999,1,2,0:0:0:0:
256,192,9157,1,2,0:0:0:0:
256,192,10578,1,4,0:0:0:0:
256,192,10736,12,4,12315,0:0:0:0:
256,192,12473,5,2,0:0:0:0:
256,192,12551,1,2,0:0:0:0:
256,192,12630,1,2,0:0:0:0:
256,192,12788,1,2,0:0:0:0:
256,192,12946,1,2,0:0:0:0:
256,192,13104,5,4,0:0:0:0:
256,192,13420,1,2,0:0:0:0:
256,192,13578,1,0,0:0:0:0:
256,192,13894,1,2,0:0:0:0:
256,192,14209,1,2,0:0:0:0:
256,192,14367,1,0,0:0:0:0:
256,192,14525,1,0,0:0:0:0:
256,192,14683,1,2,0:0:0:0:
256,192,14841,1,0,0:0:0:0:
256,192,15157,1,2,0:0:0:0:
256,192,15630,1,0,0:0:0:0:
256,192,15946,1,2,0:0:0:0:
256,192,16104,1,0,0:0:0:0:
256,192,16183,1,0,0:0:0:0:
256,192,16262,1,0,0:0:0:0:
256,192,16420,1,2,0:0:0:0:
256,192,16736,1,2,0:0:0:0:
256,192,16894,1,0,0:0:0:0:
256,192,17051,1,0,0:0:0:0:
256,192,17209,1,2,0:0:0:0:
256,192,17367,1,2,0:0:0:0:
256,192,17683,1,0,0:0:0:0:
256,192,17841,1,2,0:0:0:0:
256,192,18157,1,0,0:0:0:0:
256,192,18473,1,2,0:0:0:0:
256,192,18630,1,0,0:0:0:0:
256,192,18709,1,0,0:0:0:0:
256,192,18788,1,0,0:0:0:0:
256,192,18946,1,2,0:0:0:0:
256,192,19262,1,2,0:0:0:0:
256,192,19420,1,2,0:0:0:0:
256,192,19578,1,0,0:0:0:0:
256,192,19736,1,2,0:0:0:0:
256,192,19894,1,0,0:0:0:0:
256,192,20209,1,2,0:0:0:0:
256,192,20683,1,0,0:0:0:0:
256,192,20999,1,2,0:0:0:0:
256,192,21157,1,0,0:0:0:0:
256,192,21236,1,0,0:0:0:0:
256,192,21315,1,0,0:0:0:0:
256,192,21473,1,2,0:0:0:0:
256,192,21788,1,2,0:0:0:0:
256,192,22104,1,0,0:0:0:0:
256,192,22262,1,2,0:0:0:0:
256,192,22420,1,0,0:0:0:0:
256,192,22736,1,0,0:0:0:0:
256,192,22894,1,2,0:0:0:0:
256,192,22973,1,2,0:0:0:0:
256,192,23051,1,2,0:0:0:0:
256,192,23209,1,4,0:0:0:0:
256,192,23367,12,4,25104,0:0:0:0:
256,192,25262,5,0,0:0:0:0:
256,192,25341,1,0,0:0:0:0:
256,192,25420,1,2,0:0:0:0:
256,192,25736,1,0,0:0:0:0:
256,192,26051,1,2,0:0:0:0:
256,192,26209,1,0,0:0:0:0:
256,192,26288,1,0,0:0:0:0:
256,192,26367,1,0,0:0:0:0:
256,192,26525,1,2,0:0:0:0:
256,192,26999,1,2,0:0:0:0:
256,192,27157,1,0,0:0:0:0:
256,192,27315,1,2,0:0:0:0:
256,192,27473,1,2,0:0:0:0:
256,192,27788,1,0,0:0:0:0:
256,192,27946,1,2,0:0:0:0:
256,192,28262,1,0,0:0:0:0:
256,192,28578,1,2,0:0:0:0:
256,192,28736,1,0,0:0:0:0:
256,192,28815,1,0,0:0:0:0:
256,192,28894,1,0,0:0:0:0:
256,192,29051,1,2,0:0:0:0:
256,192,29209,1,2,0:0:0:0:
256,192,29367,1,0,0:0:0:0:
256,192,29683,1,0,0:0:0:0:
256,192,29841,1,2,0:0:0:0:
256,192,29999,1,0,0:0:0:0:
256,192,30315,1,0,0:0:0:0:
256,192,30473,1,2,0:0:0:0:
256,192,30788,1,0,0:0:0:0:
256,192,31104,1,2,0:0:0:0:
256,192,31262,1,0,0:0:0:0:
256,192,31578,1,2,0:0:0:0:
256,192,31894,1,2,0:0:0:0:
256,192,31973,1,2,0:0:0:0:
256,192,32051,1,2,0:0:0:0:
256,192,32209,1,0,0:0:0:0:
256,192,32367,1,2,0:0:0:0:
256,192,32525,1,0,0:0:0:0:
256,192,32841,1,0,0:0:0:0:
256,192,32920,1,0,0:0:0:0:
256,192,32999,1,2,0:0:0:0:
256,192,33315,1,4,0:0:0:0:
256,192,33473,1,4,0:0:0:0:
256,192,33788,1,6,0:0:0:0:
256,192,33946,1,4,0:0:0:0:
256,192,34262,1,6,0:0:0:0:
256,192,34420,1,6,0:0:0:0:
256,192,34736,1,4,0:0:0:0:
256,192,34894,1,4,0:0:0:0:
256,192,35841,1,6,0:0:0:0:
256,192,35999,1,6,0:0:0:0:
256,192,36315,1,4,0:0:0:0:
256,192,36473,1,6,0:0:0:0:
256,192,36788,1,4,0:0:0:0:
256,192,36946,1,4,0:0:0:0:
256,192,37262,1,6,0:0:0:0:
256,192,37420,1,6,0:0:0:0:
256,192,38367,1,4,0:0:0:0:
256,192,38525,1,6,0:0:0:0:
256,192,38841,1,4,0:0:0:0:
256,192,38999,1,4,0:0:0:0:
256,192,39315,1,6,0:0:0:0:
256,192,39473,1,6,0:0:0:0:
256,192,39788,1,4,0:0:0:0:
256,192,39946,1,4,0:0:0:0:
256,192,40894,1,6,0:0:0:0:
256,192,42788,1,2,0:0:0:0:
256,192,42946,1,2,0:0:0:0:
256,192,43104,1,2,0:0:0:0:
256,192,43262,1,2,0:0:0:0:
256,192,43420,5,4,0:0:0:0:
256,192,44051,1,2,0:0:0:0:
256,192,44130,1,2,0:0:0:0:
256,192,44209,1,2,0:0:0:0:
256,192,44367,1,0,0:0:0:0:
256,192,44525,1,2,0:0:0:0:
256,192,44604,1,2,0:0:0:0:
256,192,44683,1,2,0:0:0:0:
256,192,44841,1,0,0:0:0:0:
256,192,44999,1,2,0:0:0:0:
256,192,45078,1,2,0:0:0:0:
256,192,45157,1,2,0:0:0:0:
256,192,45315,1,0,0:0:0:0:
256,192,45473,1,2,0:0:0:0:
256,192,45551,1,2,0:0:0:0:
256,192,45630,1,2,0:0:0:0:
256,192,45788,1,2,0:0:0:0:
256,192,45946,1,0,0:0:0:0:
256,192,46262,1,2,0:0:0:0:
256,192,46420,1,0,0:0:0:0:
256,192,46578,1,0,0:0:0:0:
256,192,46657,1,0,0:0:0:0:
256,192,46736,1,0,0:0:0:0:
256,192,46894,1,2,0:0:0:0:
256,192,47051,1,0,0:0:0:0:
256,192,47367,1,0,0:0:0:0:
256,192,47525,1,2,0:0:0:0:
256,192,47683,1,0,0:0:0:0:
256,192,48157,1,2,0:0:0:0:
256,192,48473,1,0,0:0:0:0:
256,192,49104,1,0,0:0:0:0:
256,192,49183,1,0,0:0:0:0:
256,192,49262,1,0,0:0:0:0:
256,192,49420,1,2,0:0:0:0:
256,192,49578,1,0,0:0:0:0:
256,192,49657,1,0,0:0:0:0:
256,192,49736,1,0,0:0:0:0:
256,192,49894,1,2,0:0:0:0:
256,192,50051,1,0,0:0:0:0:
256,192,50130,1,0,0:0:0:0:
256,192,50209,1,0,0:0:0:0:
256,192,50367,1,2,0:0:0:0:
256,192,50525,1,0,0:0:0:0:
256,192,50604,1,0,0:0:0:0:
256,192,50683,1,0,0:0:0:0:
256,192,50841,1,2,0:0:0:0:
256,192,50999,1,0,0:0:0:0:
256,192,51315,1,2,0:0:0:0:
256,192,51394,1,2,0:0:0:0:
256,192,51473,1,2,0:0:0:0:
256,192,51630,1,2,0:0:0:0:
256,192,51788,1,0,0:0:0:0:
256,192,51946,1,2,0:0:0:0:
256,192,52104,1,0,0:0:0:0:
256,192,52420,1,2,0:0:0:0:
256,192,52578,1,2,0:0:0:0:
256,192,52736,1,0,0:0:0:0:
256,192,53051,1,0,0:0:0:0:
256,192,53209,1,2,0:0:0:0:
256,192,53525,1,4,0:0:0:0:
256,192,53841,1,2,0:0:0:0:
256,192,53999,1,0,0:0:0:0:
256,192,54315,1,0,0:0:0:0:
256,192,54394,1,0,0:0:0:0:
256,192,54473,1,0,0:0:0:0:
256,192,54630,1,2,0:0:0:0:
256,192,54946,1,2,0:0:0:0:
256,192,55104,1,2,0:0:0:0:
256,192,55262,1,0,0:0:0:0:
256,192,55578,1,0,0:0:0:0:
256,192,55736,1,2,0:0:0:0:
256,192,56051,1,0,0:0:0:0:
256,192,56367,1,0,0:0:0:0:
256,192,56446,1,0,0:0:0:0:
256,192,56525,1,0,0:0:0:0:
256,192,56683,1,2,0:0:0:0:
256,192,56841,1,0,0:0:0:0:
256,192,56999,1,2,0:0:0:0:
256,192,57157,1,0,0:0:0:0:
256,192,57473,1,2,0:0:0:0:
256,192,57630,1,2,0:0:0:0:
256,192,57788,1,0,0:0:0:0:
256,192,58104,1,0,0:0:0:0:
256,192,58262,1,2,0:0:0:0:
256,192,58578,1,0,0:0:0:0:
256,192,59209,1,2,0:0:0:0:
256,192,59288,1,2,0:0:0:0:
256,192,59367,1,2,0:0:0:0:
256,192,59525,1,0,0:0:0:0:
256,192,59683,1,2,0:0:0:0:
256,192,59762,1,2,0:0:0:0:
256,192,59841,1,2,0:0:0:0:
256,192,59999,1,0,0:0:0:0:
256,192,60157,1,2,0:0:0:0:
256,192,60236,1,2,0:0:0:0:
256,192,60315,1,2,0:0:0:0:
256,192,60473,1,0,0:0:0:0:
256,192,60630,1,2,0:0:0:0:
256,192,60709,1,2,0:0:0:0:
256,192,60788,1,2,0:0:0:0:
256,192,60946,1,2,0:0:0:0:
256,192,61104,1,0,0:0:0:0:
256,192,61420,1,2,0:0:0:0:
256,192,61578,1,0,0:0:0:0:
256,192,61736,1,0,0:0:0:0:
256,192,61815,1,0,0:0:0:0:
256,192,61894,1,0,0:0:0:0:
256,192,62051,1,2,0:0:0:0:
256,192,62209,1,4,0:0:0:0:
256,192,62841,1,2,0:0:0:0:
256,192,63630,5,4,0:0:0:0:
256,192,63946,1,2,0:0:0:0:
256,192,64104,1,0,0:0:0:0:
256,192,64420,1,2,0:0:0:0:
256,192,64499,1,2,0:0:0:0:
256,192,64578,1,2,0:0:0:0:
256,192,64736,1,0,0:0:0:0:
256,192,65051,1,0,0:0:0:0:
256,192,65209,1,2,0:0:0:0:
256,192,65367,1,2,0:0:0:0:
256,192,65683,1,0,0:0:0:0:
256,192,65841,1,2,0:0:0:0:
256,192,65920,1,2,0:0:0:0:
256,192,65999,1,2,0:0:0:0:
256,192,66157,1,0,0:0:0:0:
256,192,66315,1,0,0:0:0:0:
256,192,66473,1,2,0:0:0:0:
256,192,66630,1,0,0:0:0:0:
256,192,66709,1,0,0:0:0:0:
256,192,66788,1,0,0:0:0:0:
256,192,66946,1,2,0:0:0:0:
256,192,67104,1,0,0:0:0:0:
256,192,67262,1,2,0:0:0:0:
256,192,67578,1,0,0:0:0:0:
256,192,67736,1,2,0:0:0:0:
256,192,67815,1,2,0:0:0:0:
256,192,67894,1,2,0:0:0:0:
256,192,68051,1,2,0:0:0:0:
256,192,68209,1,0,0:0:0:0:
256,192,68367,1,2,0:0:0:0:
256,192,68525,1,2,0:0:0:0:
256,192,68683,1,0,0:0:0:0:
256,192,68999,1,2,0:0:0:0:
256,192,69157,1,0,0:0:0:0:
256,192,69473,1,0,0:0:0:0:
256,192,69630,1,2,0:0:0:0:
256,192,69788,1,2,0:0:0:0:
256,192,70104,1,0,0:0:0:0:
256,192,70262,1,2,0:0:0:0:
256,192,70420,1,0,0:0:0:0:
256,192,70578,1,2,0:0:0:0:
256,192,70657,1,2,0:0:0:0:
256,192,70736,1,2,0:0:0:0:
256,192,70894,1,0,0:0:0:0:
256,192,71051,1,2,0:0:0:0:
256,192,71209,1,0,0:0:0:0:
256,192,71841,1,0,0:0:0:0:
256,192,72078,1,0,0:0:0:0:
256,192,72315,1,2,0:0:0:0:
256,192,72551,1,0,0:0:0:0:
256,192,72788,1,2,0:0:0:0:
256,192,73025,1,2,0:0:0:0:
256,192,73183,1,0,0:0:0:0:
256,192,73420,1,6,0:0:0:0:
256,192,73736,1,4,0:0:0:0:
256,192,74051,1,2,0:0:0:0:
256,192,74209,1,0,0:0:0:0:
256,192,74288,1,0,0:0:0:0:
256,192,74367,1,0,0:0:0:0:
256,192,74525,1,2,0:0:0:0:
256,192,74683,1,0,0:0:0:0:
256,192,74841,1,2,0:0:0:0:
256,192,75157,1,0,0:0:0:0:
256,192,75315,1,2,0:0:0:0:
256,192,75394,1,2,0:0:0:0:
256,192,75473,1,2,0:0:0:0:
256,192,75630,1,2,0:0:0:0:
256,192,75788,1,0,0:0:0:0:
256,192,75946,1,2,0:0:0:0:
256,192,76104,1,2,0:0:0:0:
256,192,76262,1,0,0:0:0:0:
256,192,76578,1,2,0:0:0:0:
256,192,76736,1,0,0:0:0:0:
256,192,77051,1,0,0:0:0:0:
256,192,77209,1,2,0:0:0:0:
256,192,77367,1,2,0:0:0:0:
256,192,77683,1,0,0:0:0:0:
256,192,77841,1,2,0:0:0:0:
256,192,77999,1,0,0:0:0:0:
256,192,78157,1,0,0:0:0:0:
256,192,78236,1,0,0:0:0:0:
256,192,78315,1,0,0:0:0:0:
256,192,78473,1,2,0:0:0:0:
256,192,78630,1,2,0:0:0:0:
256,192,78788,1,0,0:0:0:0:
256,192,79104,1,2,0:0:0:0:
256,192,79262,1,0,0:0:0:0:
256,192,79578,1,0,0:0:0:0:
256,192,79736,1,2,0:0:0:0:
256,192,79894,1,2,0:0:0:0:
256,192,80209,1,0,0:0:0:0:
256,192,80367,1,2,0:0:0:0:
256,192,80525,1,0,0:0:0:0:
256,192,80683,1,2,0:0:0:0:
256,192,80762,1,2,0:0:0:0:
256,192,80841,1,2,0:0:0:0:
256,192,80999,1,2,0:0:0:0:
256,192,81157,1,2,0:0:0:0:
256,192,81315,1,0,0:0:0:0:
256,192,81630,1,2,0:0:0:0:
256,192,81788,1,0,0:0:0:0:
256,192,82104,1,0,0:0:0:0:
256,192,82262,1,2,0:0:0:0:
256,192,82341,1,2,0:0:0:0:
256,192,82420,1,2,0:0:0:0:
256,192,82736,1,0,0:0:0:0:
256,192,82894,1,2,0:0:0:0:
256,192,83051,1,0,0:0:0:0:
256,192,83209,1,2,0:0:0:0:
256,192,83367,1,2,0:0:0:0:
256,192,83525,1,2,0:0:0:0:
256,192,83604,1,2,0:0:0:0:
256,192,83683,1,2,0:0:0:0:
256,192,83841,1,4,0:0:0:0:
256,192,84946,1,2,0:0:0:0:
256,192,85736,1,2,0:0:0:0:
256,192,85894,1,0,0:0:0:0:
256,192,85973,1,0,0:0:0:0:
256,192,86051,1,2,0:0:0:0:
256,192,86367,5,4,0:0:0:0:
256,192,86683,1,2,0:0:0:0:
256,192,86841,1,0,0:0:0:0:
256,192,86920,1,0,0:0:0:0:
256,192,86999,1,0,0:0:0:0:
256,192,87157,1,2,0:0:0:0:
256,192,87315,1,0,0:0:0:0:
256,192,87473,1,2,0:0:0:0:
256,192,87788,1,0,0:0:0:0:
256,192,87946,1,2,0:0:0:0:
256,192,88025,1,2,0:0:0:0:
256,192,88104,1,2,0:0:0:0:
256,192,88262,1,2,0:0:0:0:
256,192,88420,1,0,0:0:0:0:
256,192,88578,1,2,0:0:0:0:
256,192,88736,1,2,0:0:0:0:
256,192,88894,1,0,0:0:0:0:
256,192,89209,1,2,0:0:0:0:
256,192,89367,1,0,0:0:0:0:
256,192,89683,1,0,0:0:0:0:
256,192,89841,1,2,0:0:0:0:
256,192,89999,1,2,0:0:0:0:
256,192,90315,1,2,0:0:0:0:
256,192,90473,1,0,0:0:0:0:
256,192,90551,1,0,0:0:0:0:
256,192,90630,1,0,0:0:0:0:
256,192,90788,1,2,0:0:0:0:
256,192,90946,1,0,0:0:0:0:
256,192,91104,1,2,0:0:0:0:
256,192,91183,1,2,0:0:0:0:
256,192,91262,1,2,0:0:0:0:
256,192,91420,1,0,0:0:0:0:
256,192,92051,1,0,0:0:0:0:
256,192,92288,1,0,0:0:0:0:
256,192,92525,1,2,0:0:0:0:
256,192,92762,1,0,0:0:0:0:
256,192,92999,1,2,0:0:0:0:
256,192,93236,1,2,0:0:0:0:
256,192,93394,1,0,0:0:0:0:
256,192,93630,1,6,0:0:0:0:
256,192,93946,5,4,0:0:0:0:
256,192,94262,1,2,0:0:0:0:
256,192,94420,1,0,0:0:0:0:
256,192,94736,1,0,0:0:0:0:
256,192,94894,1,2,0:0:0:0:
256,192,94973,1,2,0:0:0:0:
256,192,95051,1,2,0:0:0:0:
256,192,95367,1,2,0:0:0:0:
256,192,95525,1,0,0:0:0:0:
256,192,95604,1,0,0:0:0:0:
256,192,95683,1,0,0:0:0:0:
256,192,95841,1,2,0:0:0:0:
256,192,95999,1,0,0:0:0:0:
256,192,96157,1,2,0:0:0:0:
256,192,96236,1,2,0:0:0:0:
256,192,96315,1,2,0:0:0:0:
256,192,96473,1,0,0:0:0:0:
256,192,96788,1,0,0:0:0:0:
256,192,96946,1,2,0:0:0:0:
256,192,97262,1,0,0:0:0:0:
256,192,97420,1,2,0:0:0:0:
256,192,97578,1,2,0:0:0:0:
256,192,97894,1,0,0:0:0:0:
256,192,98051,1,2,0:0:0:0:
256,192,98209,1,0,0:0:0:0:
256,192,98367,1,2,0:0:0:0:
256,192,98446,1,2,0:0:0:0:
256,192,98525,1,2,0:0:0:0:
256,192,98683,1,2,0:0:0:0:
256,192,98841,1,0,0:0:0:0:
256,192,98999,1,0,0:0:0:0:
256,192,99315,1,0,0:0:0:0:
256,192,99473,1,2,0:0:0:0:
256,192,99788,1,0,0:0:0:0:
256,192,99946,1,2,0:0:0:0:
256,192,100104,1,2,0:0:0:0:
256,192,100420,1,0,0:0:0:0:
256,192,100578,1,2,0:0:0:0:
256,192,100736,1,0,0:0:0:0:
256,192,100894,1,0,0:0:0:0:
256,192,101051,1,2,0:0:0:0:
256,192,101209,1,2,0:0:0:0:
256,192,101288,1,2,0:0:0:0:
256,192,101367,1,2,0:0:0:0:
256,192,101525,1,0,0:0:0:0:
256,192,101841,1,0,0:0:0:0:
256,192,101999,1,2,0:0:0:0:
256,192,102315,1,0,0:0:0:0:
256,192,102473,1,2,0:0:0:0:
256,192,102551,1,2,0:0:0:0:
256,192,102630,1,2,0:0:0:0:
256,192,102946,1,0,0:0:0:0:
256,192,103104,1,2,0:0:0:0:
256,192,103262,1,0,0:0:0:0:
256,192,103420,1,2,0:0:0:0:
256,192,103578,1,2,0:0:0:0:
256,192,103736,1,2,0:0:0:0:
256,192,103894,1,2,0:0:0:0:
256,192,104051,5,4,0:0:0:0:
256,192,104525,1,2,0:0:0:0:
256,192,104999,1,2,0:0:0:0:
256,192,105473,1,2,0:0:0:0:
256,192,105946,1,2,0:0:0:0:
256,192,106104,1,2,0:0:0:0:
256,192,106262,1,2,0:0:0:0:
256,192,106578,1,2,0:0:0:0:
256,192,107051,1,2,0:0:0:0:
256,192,107525,1,2,0:0:0:0:
256,192,107999,1,2,0:0:0:0:
256,192,108473,1,2,0:0:0:0:
256,192,108630,1,2,0:0:0:0:
256,192,108788,1,2,0:0:0:0:
256,192,108946,1,2,0:0:0:0:
256,192,109104,1,0,0:0:0:0:
256,192,109578,1,2,0:0:0:0:
256,192,110051,1,2,0:0:0:0:
256,192,110525,1,2,0:0:0:0:
256,192,110999,1,2,0:0:0:0:
256,192,111315,1,2,0:0:0:0:
256,192,111473,1,2,0:0:0:0:
256,192,111630,1,2,0:0:0:0:
256,192,112104,1,2,0:0:0:0:
256,192,112578,1,2,0:0:0:0:
256,192,113051,1,2,0:0:0:0:
256,192,113525,1,2,0:0:0:0:
256,192,113683,1,2,0:0:0:0:
256,192,113841,1,2,0:0:0:0:
256,192,113999,1,2,0:0:0:0:
256,192,114157,1,0,0:0:0:0:
256,192,114630,1,2,0:0:0:0:
256,192,115104,1,2,0:0:0:0:
256,192,115578,1,2,0:0:0:0:
256,192,116051,1,2,0:0:0:0:
256,192,116209,1,2,0:0:0:0:
256,192,116367,1,2,0:0:0:0:
256,192,116683,1,0,0:0:0:0:
256,192,117157,1,2,0:0:0:0:
256,192,117630,1,2,0:0:0:0:
256,192,117946,1,0,0:0:0:0:
256,192,118104,1,2,0:0:0:0:
256,192,118420,1,2,0:0:0:0:
256,192,118578,1,2,0:0:0:0:
256,192,118736,1,2,0:0:0:0:
256,192,118894,1,2,0:0:0:0:
256,192,119209,1,0,0:0:0:0:
256,192,119683,1,2,0:0:0:0:
256,192,120157,1,2,0:0:0:0:
256,192,120630,1,2,0:0:0:0:
256,192,121104,1,2,0:0:0:0:
256,192,121262,1,2,0:0:0:0:
256,192,121420,1,2,0:0:0:0:
256,192,121736,1,2,0:0:0:0:
256,192,122209,1,2,0:0:0:0:
256,192,122683,1,2,0:0:0:0:
256,192,123157,1,2,0:0:0:0:
256,192,123630,1,2,0:0:0:0:
256,192,123788,1,2,0:0:0:0:
256,192,123946,1,2,0:0:0:0:
256,192,124104,1,2,0:0:0:0:
256,192,124262,12,0,128051,0:0:0:0:
