osu file format v14

[General]
AudioFilename: audio.mp3
AudioLeadIn: 0
PreviewTime: 63591
Countdown: 0
SampleSet: Normal
StackLeniency: 0.7
Mode: 1
LetterboxInBreaks: 0
WidescreenStoryboard: 1

[Editor]
Bookmarks: 13099,23204,33310,40889,43415,53525,63625,73736,93946,104046,104051
DistanceSpacing: 2
BeatDivisor: 2
GridSize: 32
TimelineZoom: 1.200001

[Metadata]
Title:Hestia
TitleUnicode:Hestia
Artist:Street
ArtistUnicode:Street
Creator:tasuke912
Version:Kantan
Source:osu!
Tags:mappers' guild featured artist fa electronic instrumental SFES2019
BeatmapID:2518157
BeatmapSetID:1209521

[Difficulty]
HPDrainRate:8
CircleSize:2
OverallDifficulty:3
ApproachRate:5
SliderMultiplier:1.4
SliderTickRate:1

[Events]
//Background and Video events
0,0,"bg.jpg",0,-75
//Break Periods
//Storyboard Layer 0 (Background)
//Storyboard Layer 1 (Fail)
//Storyboard Layer 2 (Pass)
//Storyboard Layer 3 (Foreground)
//Storyboard Layer 4 (Overlay)
//Storyboard Sound Samples

[TimingPoints]
473,315.789473684211,4,1,0,50,1,0
10499,-100,4,1,0,60,0,0
10657,-100,4,1,0,20,0,0
12394,-100,4,1,0,90,0,0
23367,-100,4,1,0,20,0,0
25183,-100,4,1,0,90,0,0
43341,-100,4,1,0,90,0,0
63630,-100,4,1,0,90,0,1
83841,-100,4,1,0,90,0,0
83999,-100,4,1,0,70,0,0
86367,-100,4,1,0,90,0,1
104051,-100,4,1,0,90,0,0
104130,-111.111111111111,4,1,0,25,0,0
124262,-111.111111111111,4,1,0,5,0,0

[HitObjects]
256,192,473,5,2,0:0:0:0:
256,192,788,1,2,0:0:0:0:
256,192,1262,1,2,0:0:0:0:
256,192,1578,1,2,0:0:0:0:
256,192,2999,1,2,0:0:0:0:
256,192,3315,1,2,0:0:0:0:
256,192,3788,1,2,0:0:0:0:
256,192,4104,1,2,0:0:0:0:
256,192,5525,1,2,0:0:0:0:
256,192,5841,1,2,0:0:0:0:
256,192,6315,1,2,0:0:0:0:
256,192,6630,1,2,0:0:0:0:
256,192,8051,1,2,0:0:0:0:
256,192,8367,1,2,0:0:0:0:
256,192,8841,1,2,0:0:0:0:
256,192,9157,1,2,0:0:0:0:
256,192,10578,1,4,0:0:0:0:
256,192,10736,12,0,12315,0:0:0:0:
256,192,13104,5,4,0:0:0:0:
256,192,13420,1,2,0:0:0:0:
256,192,13894,1,2,0:0:0:0:
256,192,14841,1,0,0:0:0:0:
256,192,15630,1,0,0:0:0:0:
256,192,15946,1,2,0:0:0:0:
256,192,16420,1,2,0:0:0:0:
256,192,17367,1,2,0:0:0:0:
256,192,18157,1,0,0:0:0:0:
256,192,18473,1,2,0:0:0:0:
256,192,18946,1,2,0:0:0:0:
256,192,19894,1,0,0:0:0:0:
256,192,20683,1,0,0:0:0:0:
256,192,20999,1,2,0:0:0:0:
256,192,21473,1,2,0:0:0:0:
256,192,22420,1,2,0:0:0:0:
256,192,23209,1,4,0:0:0:0:
256,192,23367,12,0,25104,0:0:0:0:
256,192,25736,5,0,0:0:0:0:
256,192,26051,1,2,0:0:0:0:
256,192,26525,1,2,0:0:0:0:
256,192,27473,1,2,0:0:0:0:
256,192,27946,1,2,0:0:0:0:
256,192,28262,1,0,0:0:0:0:
256,192,28578,1,2,0:0:0:0:
256,192,29051,1,2,0:0:0:0:
256,192,29999,1,0,0:0:0:0:
256,192,30473,1,2,0:0:0:0:
256,192,30788,1,0,0:0:0:0:
256,192,31104,1,2,0:0:0:0:
256,192,31578,1,2,0:0:0:0:
256,192,32525,1,2,0:0:0:0:
256,192,32999,1,2,0:0:0:0:
256,192,33315,1,4,0:0:0:0:
256,192,33788,1,4,0:0:0:0:
256,192,34262,1,6,0:0:0:0:
256,192,34736,1,6,0:0:0:0:
256,192,35841,1,6,0:0:0:0:
256,192,36315,1,6,0:0:0:0:
256,192,36788,1,4,0:0:0:0:
256,192,37262,1,6,0:0:0:0:
256,192,38367,1,4,0:0:0:0:
256,192,38841,1,4,0:0:0:0:
256,192,39315,1,6,0:0:0:0:
256,192,39788,1,4,0:0:0:0:
256,192,40894,1,6,0:0:0:0:
256,192,43420,5,4,0:0:0:0:
256,192,44051,1,2,0:0:0:0:
256,192,44525,1,2,0:0:0:0:
256,192,44999,1,2,0:0:0:0:
256,192,45473,1,2,0:0:0:0:
256,192,45946,1,0,0:0:0:0:
256,192,47051,1,0,0:0:0:0:
256,192,47683,1,0,0:0:0:0:
256,192,48157,1,2,0:0:0:0:
256,192,48473,1,0,0:0:0:0:
256,192,49104,1,2,0:0:0:0:
256,192,49578,1,2,0:0:0:0:
256,192,50051,1,2,0:0:0:0:
256,192,50525,1,2,0:0:0:0:
256,192,50999,1,0,0:0:0:0:
256,192,52104,1,0,0:0:0:0:
256,192,52736,1,0,0:0:0:0:
256,192,53209,1,2,0:0:0:0:
256,192,53525,1,4,0:0:0:0:
256,192,54630,1,0,0:0:0:0:
256,192,55262,1,0,0:0:0:0:
256,192,55736,1,2,0:0:0:0:
256,192,56051,1,0,0:0:0:0:
256,192,57157,1,0,0:0:0:0:
256,192,57788,1,2,0:0:0:0:
256,192,58262,1,2,0:0:0:0:
256,192,58578,1,0,0:0:0:0:
256,192,59209,1,2,0:0:0:0:
256,192,59683,1,2,0:0:0:0:
256,192,60157,1,2,0:0:0:0:
256,192,60630,1,2,0:0:0:0:
256,192,61104,1,0,0:0:0:0:
256,192,62209,1,0,0:0:0:0:
256,192,63630,1,4,0:0:0:0:
256,192,64262,1,2,0:0:0:0:
256,192,64894,1,0,0:0:0:0:
256,192,65209,1,0,0:0:0:0:
256,192,65525,1,2,0:0:0:0:
256,192,66157,1,0,0:0:0:0:
256,192,66788,1,2,0:0:0:0:
256,192,67420,1,2,0:0:0:0:
256,192,67736,1,2,0:0:0:0:
256,192,68051,1,0,0:0:0:0:
256,192,68683,1,0,0:0:0:0:
256,192,69315,1,2,0:0:0:0:
256,192,69946,1,0,0:0:0:0:
256,192,70262,1,2,0:0:0:0:
256,192,70578,1,2,0:0:0:0:
256,192,71209,1,0,0:0:0:0:
256,192,71841,1,0,0:0:0:0:
256,192,72315,1,2,0:0:0:0:
256,192,73420,1,2,0:0:0:0:
256,192,73736,5,4,0:0:0:0:
256,192,74367,1,2,0:0:0:0:
256,192,74999,1,2,0:0:0:0:
256,192,75315,1,0,0:0:0:0:
256,192,75630,1,2,0:0:0:0:
256,192,76262,1,0,0:0:0:0:
256,192,76894,1,2,0:0:0:0:
256,192,77525,1,0,0:0:0:0:
256,192,77841,1,2,0:0:0:0:
256,192,78157,1,0,0:0:0:0:
256,192,78788,1,0,0:0:0:0:
256,192,79420,1,2,0:0:0:0:
256,192,80051,1,0,0:0:0:0:
256,192,80367,1,2,0:0:0:0:
256,192,80683,1,2,0:0:0:0:
256,192,81315,1,0,0:0:0:0:
256,192,82420,1,2,0:0:0:0:
256,192,83209,1,2,0:0:0:0:
256,192,83525,1,2,0:0:0:0:
256,192,83841,1,4,0:0:0:0:
256,192,86367,5,4,0:0:0:0:
256,192,86999,1,2,0:0:0:0:
256,192,87630,1,2,0:0:0:0:
256,192,87946,1,2,0:0:0:0:
256,192,88262,1,0,0:0:0:0:
256,192,88894,1,0,0:0:0:0:
256,192,89525,1,2,0:0:0:0:
256,192,90157,1,0,0:0:0:0:
256,192,90473,1,2,0:0:0:0:
256,192,90788,1,2,0:0:0:0:
256,192,91420,1,0,0:0:0:0:
256,192,92051,1,0,0:0:0:0:
256,192,92525,1,2,0:0:0:0:
256,192,93630,1,2,0:0:0:0:
256,192,93946,1,4,0:0:0:0:
256,192,94578,1,2,0:0:0:0:
256,192,95209,1,2,0:0:0:0:
256,192,95525,1,0,0:0:0:0:
256,192,95841,1,2,0:0:0:0:
256,192,96473,1,0,0:0:0:0:
256,192,97104,1,2,0:0:0:0:
256,192,97736,1,0,0:0:0:0:
256,192,98051,1,2,0:0:0:0:
256,192,98367,1,0,0:0:0:0:
256,192,98999,1,0,0:0:0:0:
256,192,99630,1,2,0:0:0:0:
256,192,100262,1,0,0:0:0:0:
256,192,100578,1,2,0:0:0:0:
256,192,100894,1,2,0:0:0:0:
256,192,101525,1,2,0:0:0:0:
256,192,102630,1,2,0:0:0:0:
256,192,103420,1,2,0:0:0:0:
256,192,103736,1,2,0:0:0:0:
256,192,104051,1,4,0:0:0:0:
256,192,105315,1,2,0:0:0:0:
256,192,105946,1,2,0:0:0:0:
256,192,106578,1,2,0:0:0:0:
256,192,107841,1,2,0:0:0:0:
256,192,108473,1,2,0:0:0:0:
256,192,108788,1,2,0:0:0:0:
256,192,109104,1,0,0:0:0:0:
256,192,110367,1,2,0:0:0:0:
256,192,110999,1,2,0:0:0:0:
256,192,111630,1,2,0:0:0:0:
256,192,112894,1,2,0:0:0:0:
256,192,113525,1,2,0:0:0:0:
256,192,113841,1,2,0:0:0:0:
256,192,114157,1,0,0:0:0:0:
256,192,115420,1,2,0:0:0:0:
256,192,116051,1,2,0:0:0:0:
256,192,116683,1,0,0:0:0:0:
256,192,117946,1,0,0:0:0:0:
256,192,118578,1,2,0:0:0:0:
256,192,118894,1,2,0:0:0:0:
256,192,119209,1,0,0:0:0:0:
256,192,120473,1,2,0:0:0:0:
256,192,121104,1,2,0:0:0:0:
256,192,121736,1,2,0:0:0:0:
256,192,122999,1,2,0:0:0:0:
256,192,123630,1,2,0:0:0:0:
256,192,123946,1,2,0:0:0:0:
256,192,124262,12,2,128051,0:0:0:0:
