osu file format v14

[General]
AudioFilename: audio.mp3
AudioLeadIn: 0
PreviewTime: 63558
Countdown: 0
SampleSet: Soft
StackLeniency: 1
Mode: 0
LetterboxInBreaks: 0
EpilepsyWarning: 1
WidescreenStoryboard: 1

[Editor]
DistanceSpacing: 0.5
BeatDivisor: 4
GridSize: 16
TimelineZoom: 2.599999

[Metadata]
Title:Hestia
TitleUnicode:Hestia
Artist:Street
ArtistUnicode:Street
Creator:GYGY
Version:bongo's Insane
Source:Shooter's Festival 2019
Tags:featured artist fa electronic instrumental artcore sfes2019 drumstep dnb perennial 2021 nm4 gf grand finals drum and bass melodic K-Shoot MANIAチームイベント k shoot zekk bongo 0ppinosu mir shoenen
BeatmapID:3544693
BeatmapSetID:1707295

[Difficulty]
HPDrainRate:5
CircleSize:4
OverallDifficulty:8
ApproachRate:9
SliderMultiplier:1.4
SliderTickRate:1

[Events]
//Background and Video events
0,0,"9678cc594b48e013ddb2e6ab222433903e50b0d8_s2_n1.jpg",0,0
//Break Periods
2,23404,24657
2,84036,85131
//Storyboard Layer 0 (Background)
//Storyboard Layer 1 (Fail)
//Storyboard Layer 2 (Pass)
//Storyboard Layer 3 (Foreground)
Sprite,Foreground,Centre,"sb\hole.png",350,293 F,0,43415,,0.9 C,0,43415,,0,0,0 S,7,43415,44046,20,1
Sprite,Foreground,Centre,"sb\hole.png",171,414 F,0,44046,,0.9 C,0,44046,,0,0,0 S,34,44046,44420,1,6.5 S,19,44420,44520,6.5,1
Sprite,Foreground,Centre,"sb\hole.png",93,331 F,0,44520,,0.9 C,0,44520,,0,0,0 S,34,44520,44894,1,6.5 S,19,44894,44994,6.5,1
Sprite,Foreground,Centre,"sb\hole.png",242,227 F,0,44994,,0.9 C,0,44994,,0,0,0 S,34,44994,45368,1,6.5 S,19,45368,45468,6.5,1
Sprite,Foreground,Centre,"sb\hole.png",74,127 F,0,45468,,0.9 C,0,45468,,0,0,0 S,34,45468,45842,1,6.5 S,19,45842,45942,6.5,1
Sprite,Foreground,Centre,"sb\hole.png",167,265 F,0,45941,,0.9 C,0,45941,,0,0,0 S,7,45941,46357,1,22
Sprite,Foreground,Centre,"sb\hole.png",467,381 F,0,48468,,0.9 C,0,48468,,0,0,0 S,7,48468,49099,20,1
Sprite,Foreground,Centre,"sb\hole.png",429,75 F,0,49099,,0.9 C,0,49099,,0,0,0 S,34,49099,49473,1,6.5 S,19,49473,49573,6.5,1
Sprite,Foreground,Centre,"sb\hole.png",390,252 F,0,49573,,0.9 C,0,49573,,0,0,0 S,34,49573,49947,1,6.5 S,19,49947,50047,6.5,1
Sprite,Foreground,Centre,"sb\hole.png",288,124 F,0,50046,,0.9 C,0,50046,,0,0,0 S,34,50046,50420,1,6.5 S,19,50420,50520,6.5,1
Sprite,Foreground,Centre,"sb\hole.png",258,237 F,0,50520,,0.9 C,0,50520,,0,0,0 S,34,50520,50894,1,6.5 S,19,50894,50994,6.5,1
Sprite,Foreground,Centre,"sb\hole.png",248,344 F,0,50994,,0.9 C,0,50994,,0,0,0 S,7,50994,51410,1,22
Sprite,Foreground,Centre,"sb\hole.png",251,119 F,0,58573,,0.9 C,0,58573,,0,0,0 S,7,58573,59204,20,1
Sprite,Foreground,Centre,"sb\hole.png",93,331 F,0,59204,,0.9 C,0,59204,,0,0,0 S,34,59204,59578,1,6.5 S,19,59578,59678,6.5,1
Sprite,Foreground,Centre,"sb\hole.png",144,322 F,0,59678,,0.9 C,0,59678,,0,0,0 S,34,59678,60052,1,6.5 S,19,60052,60152,6.5,1
Sprite,Foreground,Centre,"sb\hole.png",195,313 F,0,60152,,0.9 C,0,60152,,0,0,0 S,34,60152,60526,1,6.5 S,19,60526,60626,6.5,1
Sprite,Foreground,Centre,"sb\hole.png",246,304 F,0,60625,,0.9 C,0,60625,,0,0,0 S,34,60625,60999,1,6.5 S,19,60999,61099,6.5,1
Sprite,Foreground,Centre,"sb\hole.png",484,289 F,0,61099,,0.9 C,0,61099,,0,0,0 S,7,61099,61515,1,22
Sprite,Foreground,Centre,"sb\cbv.png",349,198 F,0,86362,,0.5 C,0,86362,,157,158,168 S,19,86362,86662,0.1,0.7 F,0,86762,87062,0.5,0
Sprite,Foreground,Centre,"sb\cbv.png",176,187 F,0,86678,,0.5 C,0,86678,,157,158,168 S,19,86678,86978,0.1,0.7 F,0,87078,87378,0.5,0
Sprite,Foreground,Centre,"sb\cbv.png",101,92 F,0,86836,,0.5 C,0,86836,,157,158,168 S,19,86836,87136,0.1,0.7 F,0,87236,87536,0.5,0
Sprite,Foreground,Centre,"sb\cbv.png",255,261 F,0,87310,,0.5 C,0,87310,,157,158,168 S,19,87310,87610,0.1,0.7 F,0,87710,88010,0.5,0
Sprite,Foreground,Centre,"sb\cbv.png",136,331 F,0,87468,,0.5 C,0,87468,,157,158,168 S,19,87468,87768,0.1,0.7 F,0,87868,88168,0.5,0
Sprite,Foreground,Centre,"sb\cbv.png",219,357 F,0,87783,,0.5 C,0,87783,,112,123,169 S,19,87783,88083,0.1,0.7 F,0,88183,88483,0.5,0
Sprite,Foreground,Centre,"sb\cbv.png",242,366 F,0,87861,,0.5 C,0,87861,,112,123,169 S,19,87861,88161,0.1,0.7 F,0,88261,88561,0.5,0
Sprite,Foreground,Centre,"sb\cbv.png",268,368 F,0,87940,,0.5 C,0,87940,,112,123,169 S,19,87940,88240,0.1,0.7 F,0,88340,88640,0.5,0
Sprite,Foreground,Centre,"sb\cbv.png",294,361 F,0,88019,,0.5 C,0,88019,,112,123,169 S,19,88019,88319,0.1,0.7 F,0,88419,88719,0.5,0
Sprite,Foreground,Centre,"sb\cbv.png",316,347 F,0,88098,,0.5 C,0,88098,,112,123,169 S,19,88098,88398,0.1,0.7 F,0,88498,88798,0.5,0
Sprite,Foreground,Centre,"sb\cbv.png",333,327 F,0,88177,,0.5 C,0,88177,,112,123,169 S,19,88177,88477,0.1,0.7 F,0,88577,88877,0.5,0
Sprite,Foreground,Centre,"sb\cbv.png",353,310 F,0,88256,,0.5 C,0,88256,,81,73,120 S,19,88256,88556,0.1,0.7 F,0,88656,88956,0.5,0
Sprite,Foreground,Centre,"sb\cbv.png",356,336 F,0,88336,,0.5 C,0,88336,,81,73,120 S,19,88336,88636,0.1,0.7 F,0,88736,89036,0.5,0
Sprite,Foreground,Centre,"sb\cbv.png",367,360 F,0,88415,,0.5 C,0,88415,,81,73,120 S,19,88415,88715,0.1,0.7 F,0,88815,89115,0.5,0
Sprite,Foreground,Centre,"sb\cbv.png",385,379 F,0,88494,,0.5 C,0,88494,,81,73,120 S,19,88494,88794,0.1,0.7 F,0,88894,89194,0.5,0
Sprite,Foreground,Centre,"sb\cbv.png",408,392 F,0,88573,,0.5 C,0,88573,,81,73,120 S,19,88573,88873,0.1,0.7 F,0,88973,89273,0.5,0
Sprite,Foreground,Centre,"sb\cbv.png",433,397 F,0,88652,,0.5 C,0,88652,,81,73,120 S,19,88652,88952,0.1,0.7 F,0,89052,89352,0.5,0
Sprite,Foreground,Centre,"sb\cbv.png",459,394 F,0,88730,,0.5 C,0,88730,,81,73,120 S,19,88730,89030,0.1,0.7 F,0,89130,89430,0.5,0
Sprite,Foreground,Centre,"sb\cbv.png",482,382 F,0,88810,,0.5 C,0,88810,,81,73,120 S,19,88810,89110,0.1,0.7 F,0,89210,89510,0.5,0
Sprite,Foreground,Centre,"sb\cbv.png",501,363 F,0,88889,,0.5 C,0,88889,,200,200,204 S,19,88889,89189,0.1,0.7 F,0,89289,89589,0.5,0
Sprite,Foreground,Centre,"sb\cbv.png",573,278 F,0,89204,,0.5 C,0,89204,,200,200,204 S,19,89204,89504,0.1,0.7 F,0,89604,89904,0.5,0
Sprite,Foreground,Centre,"sb\cbv.png",469,234 F,0,89362,,0.5 C,0,89362,,200,200,204 S,19,89362,89662,0.1,0.7 F,0,89762,90062,0.5,0
Sprite,Foreground,Centre,"sb\cbv.png",300,285 F,0,89836,,0.5 C,0,89836,,157,158,168 S,19,89836,90136,0.1,0.7 F,0,90236,90536,0.5,0
Sprite,Foreground,Centre,"sb\cbv.png",237,234 F,0,89994,,0.5 C,0,89994,,157,158,168 S,19,89994,90294,0.1,0.7 F,0,90394,90694,0.5,0
Sprite,Foreground,Centre,"sb\cbv.png",377,331 F,0,90468,,0.5 C,0,90468,,112,123,169 S,19,90468,90768,0.1,0.7 F,0,90868,91168,0.5,0
Sprite,Foreground,Centre,"sb\cbv.png",360,320 F,0,90546,,0.5 C,0,90546,,112,123,169 S,19,90546,90846,0.1,0.7 F,0,90946,91246,0.5,0
Sprite,Foreground,Centre,"sb\cbv.png",341,315 F,0,90625,,0.5 C,0,90625,,112,123,169 S,19,90625,90925,0.1,0.7 F,0,91025,91325,0.5,0
Sprite,Foreground,Centre,"sb\cbv.png",321,316 F,0,90704,,0.5 C,0,90704,,112,123,169 S,19,90704,91004,0.1,0.7 F,0,91104,91404,0.5,0
Sprite,Foreground,Centre,"sb\cbv.png",303,322 F,0,90783,,0.5 C,0,90783,,112,123,169 S,19,90783,91083,0.1,0.7 F,0,91183,91483,0.5,0
Sprite,Foreground,Centre,"sb\cbv.png",287,334 F,0,90862,,0.5 C,0,90862,,112,123,169 S,19,90862,91162,0.1,0.7 F,0,91262,91562,0.5,0
Sprite,Foreground,Centre,"sb\cbv.png",275,349 F,0,90941,,0.5 C,0,90941,,112,123,169 S,19,90941,91241,0.1,0.7 F,0,91341,91641,0.5,0
Sprite,Foreground,Centre,"sb\cbv.png",268,368 F,0,91020,,0.5 C,0,91020,,112,123,169 S,19,91020,91320,0.1,0.7 F,0,91420,91720,0.5,0
Sprite,Foreground,Centre,"sb\cbv.png",267,387 F,0,91099,,0.5 C,0,91099,,81,73,120 S,19,91099,91399,0.1,0.7 F,0,91499,91799,0.5,0
Sprite,Foreground,Centre,"sb\cbv.png",287,394 F,0,91178,,0.5 C,0,91178,,81,73,120 S,19,91178,91478,0.1,0.7 F,0,91578,91878,0.5,0
Sprite,Foreground,Centre,"sb\cbv.png",306,400 F,0,91257,,0.5 C,0,91257,,81,73,120 S,19,91257,91557,0.1,0.7 F,0,91657,91957,0.5,0
Sprite,Foreground,Centre,"sb\cbv.png",325,406 F,0,91336,,0.5 C,0,91336,,81,73,120 S,19,91336,91636,0.1,0.7 F,0,91736,92036,0.5,0
Sprite,Foreground,Centre,"sb\cbv.png",344,412 F,0,91415,,0.5 C,0,91415,,200,200,204 S,19,91415,91715,0.1,0.7 F,0,91815,92115,0.5,0
Sprite,Foreground,Centre,"sb\cbv.png",314,207 F,0,92046,,0.5 C,0,92046,,157,158,168 S,19,92046,92346,0.1,0.7 F,0,92446,92746,0.5,0
Sprite,Foreground,Centre,"sb\cbv.png",399,254 F,0,92283,,0.5 C,0,92283,,112,123,169 S,19,92283,92583,0.1,0.7 F,0,92683,92983,0.5,0
Sprite,Foreground,Centre,"sb\cbv.png",239,324 F,0,92520,,0.5 C,0,92520,,81,73,120 S,19,92520,92820,0.1,0.7 F,0,92920,93220,0.5,0
Sprite,Foreground,Centre,"sb\cbv.png",390,170 F,0,92757,,0.5 C,0,92757,,200,200,204 S,19,92757,93057,0.1,0.7 F,0,93157,93457,0.5,0
Sprite,Foreground,Centre,"sb\cbv.png",162,298 F,0,92994,,0.5 C,0,92994,,157,158,168 S,19,92994,93294,0.1,0.7 F,0,93394,93694,0.5,0
Sprite,Foreground,Centre,"sb\cbv.png",178,376 F,0,93231,,0.5 C,0,93231,,112,123,169 S,19,93231,93531,0.1,0.7 F,0,93631,93931,0.5,0
Sprite,Foreground,Centre,"sb\cbv.png",239,324 F,0,93389,,0.5 C,0,93389,,112,123,169 S,19,93389,93689,0.1,0.7 F,0,93789,94089,0.5,0
Sprite,Foreground,Centre,"sb\cbv.png",162,298 F,0,93625,,0.5 C,0,93625,,112,123,169 S,19,93625,93925,0.1,0.7 F,0,94025,94325,0.5,0
Sprite,Foreground,Centre,"sb\cbv.png",307,256 F,0,93941,,0.5 C,0,93941,,81,73,120 S,19,93941,94241,0.1,0.7 F,0,94341,94641,0.5,0
Sprite,Foreground,Centre,"sb\cbv.png",554,163 F,0,94415,,0.5 C,0,94415,,81,73,120 S,19,94415,94715,0.1,0.7 F,0,94815,95115,0.5,0
Sprite,Foreground,Centre,"sb\cbv.png",307,57 F,0,94731,,0.5 C,0,94731,,81,73,120 S,19,94731,95031,0.1,0.7 F,0,95131,95431,0.5,0
Sprite,Foreground,Centre,"sb\cbv.png",332,61 F,0,94809,,0.5 C,0,94809,,81,73,120 S,19,94809,95109,0.1,0.7 F,0,95209,95509,0.5,0
Sprite,Foreground,Centre,"sb\cbv.png",354,75 F,0,94888,,0.5 C,0,94888,,81,73,120 S,19,94888,95188,0.1,0.7 F,0,95288,95588,0.5,0
Sprite,Foreground,Centre,"sb\cbv.png",369,96 F,0,94967,,0.5 C,0,94967,,81,73,120 S,19,94967,95267,0.1,0.7 F,0,95367,95667,0.5,0
Sprite,Foreground,Centre,"sb\cbv.png",374,122 F,0,95046,,0.5 C,0,95046,,200,200,204 S,19,95046,95346,0.1,0.7 F,0,95446,95746,0.5,0
Sprite,Foreground,Centre,"sb\cbv.png",118,161 F,0,95520,,0.5 C,0,95520,,200,200,204 S,19,95520,95820,0.1,0.7 F,0,95920,96220,0.5,0
Sprite,Foreground,Centre,"sb\cbv.png",118,161 F,0,95599,,0.5 C,0,95599,,200,200,204 S,19,95599,95899,0.1,0.7 F,0,95999,96299,0.5,0
Sprite,Foreground,Centre,"sb\cbv.png",118,161 F,0,95678,,0.5 C,0,95678,,200,200,204 S,19,95678,95978,0.1,0.7 F,0,96078,96378,0.5,0
Sprite,Foreground,Centre,"sb\cbv.png",118,161 F,0,95757,,0.5 C,0,95757,,200,200,204 S,19,95757,96057,0.1,0.7 F,0,96157,96457,0.5,0
Sprite,Foreground,Centre,"sb\cbv.png",118,161 F,0,95836,,0.5 C,0,95836,,200,200,204 S,19,95836,96136,0.1,0.7 F,0,96236,96536,0.5,0
Sprite,Foreground,Centre,"sb\cbv.png",68,329 F,0,96152,,0.5 C,0,96152,,200,200,204 S,19,96152,96452,0.1,0.7 F,0,96552,96852,0.5,0
Sprite,Foreground,Centre,"sb\cbv.png",83,308 F,0,96230,,0.5 C,0,96230,,200,200,204 S,19,96230,96530,0.1,0.7 F,0,96630,96930,0.5,0
Sprite,Foreground,Centre,"sb\cbv.png",106,294 F,0,96309,,0.5 C,0,96309,,200,200,204 S,19,96309,96609,0.1,0.7 F,0,96709,97009,0.5,0
Sprite,Foreground,Centre,"sb\cbv.png",131,291 F,0,96388,,0.5 C,0,96388,,200,200,204 S,19,96388,96688,0.1,0.7 F,0,96788,97088,0.5,0
Sprite,Foreground,Centre,"sb\cbv.png",156,298 F,0,96467,,0.5 C,0,96467,,157,158,168 S,19,96467,96767,0.1,0.7 F,0,96867,97167,0.5,0
Sprite,Foreground,Centre,"sb\cbv.png",208,359 F,0,96625,,0.5 C,0,96625,,157,158,168 S,19,96625,96925,0.1,0.7 F,0,97025,97325,0.5,0
Sprite,Foreground,Centre,"sb\cbv.png",310,429 F,0,96783,,0.5 C,0,96783,,157,158,168 S,19,96783,97083,0.1,0.7 F,0,97183,97483,0.5,0
Sprite,Foreground,Centre,"sb\cbv.png",362,371 F,0,96941,,0.5 C,0,96941,,157,158,168 S,19,96941,97241,0.1,0.7 F,0,97341,97641,0.5,0
Sprite,Foreground,Centre,"sb\cbv.png",463,249 F,0,97415,,0.5 C,0,97415,,157,158,168 S,19,97415,97715,0.1,0.7 F,0,97815,98115,0.5,0
Sprite,Foreground,Centre,"sb\cbv.png",288,267 F,0,97573,,0.5 C,0,97573,,112,123,169 S,19,97573,97873,0.1,0.7 F,0,97973,98273,0.5,0
Sprite,Foreground,Centre,"sb\cbv.png",310,429 F,0,98046,,0.5 C,0,98046,,112,123,169 S,19,98046,98346,0.1,0.7 F,0,98446,98746,0.5,0
Sprite,Foreground,Centre,"sb\cbv.png",284,422 F,0,98124,,0.5 C,0,98124,,112,123,169 S,19,98124,98424,0.1,0.7 F,0,98524,98824,0.5,0
Sprite,Foreground,Centre,"sb\cbv.png",258,417 F,0,98203,,0.5 C,0,98203,,112,123,169 S,19,98203,98503,0.1,0.7 F,0,98603,98903,0.5,0
Sprite,Foreground,Centre,"sb\cbv.png",233,411 F,0,98282,,0.5 C,0,98282,,112,123,169 S,19,98282,98582,0.1,0.7 F,0,98682,98982,0.5,0
Sprite,Foreground,Centre,"sb\cbv.png",207,406 F,0,98362,,0.5 C,0,98362,,112,123,169 S,19,98362,98662,0.1,0.7 F,0,98762,99062,0.5,0
Sprite,Foreground,Centre,"sb\cbv.png",181,289 F,0,98520,,0.5 C,0,98520,,81,73,120 S,19,98520,98820,0.1,0.7 F,0,98920,99220,0.5,0
Sprite,Foreground,Centre,"sb\cbv.png",178,280 F,0,98598,,0.5 C,0,98598,,81,73,120 S,19,98598,98898,0.1,0.7 F,0,98998,99298,0.5,0
Sprite,Foreground,Centre,"sb\cbv.png",176,271 F,0,98677,,0.5 C,0,98677,,81,73,120 S,19,98677,98977,0.1,0.7 F,0,99077,99377,0.5,0
Sprite,Foreground,Centre,"sb\cbv.png",174,263 F,0,98756,,0.5 C,0,98756,,81,73,120 S,19,98756,99056,0.1,0.7 F,0,99156,99456,0.5,0
Sprite,Foreground,Centre,"sb\cbv.png",172,254 F,0,98835,,0.5 C,0,98835,,81,73,120 S,19,98835,99135,0.1,0.7 F,0,99235,99535,0.5,0
Sprite,Foreground,Centre,"sb\cbv.png",170,246 F,0,98914,,0.5 C,0,98914,,81,73,120 S,19,98914,99214,0.1,0.7 F,0,99314,99614,0.5,0
Sprite,Foreground,Centre,"sb\cbv.png",168,237 F,0,98994,,0.5 C,0,98994,,200,200,204 S,19,98994,99294,0.1,0.7 F,0,99394,99694,0.5,0
Sprite,Foreground,Centre,"sb\cbv.png",367,177 F,0,99310,,0.5 C,0,99310,,200,200,204 S,19,99310,99610,0.1,0.7 F,0,99710,100010,0.5,0
Sprite,Foreground,Centre,"sb\cbv.png",251,162 F,0,99468,,0.5 C,0,99468,,200,200,204 S,19,99468,99768,0.1,0.7 F,0,99868,100168,0.5,0
Sprite,Foreground,Centre,"sb\cbv.png",324,358 F,0,99941,,0.5 C,0,99941,,200,200,204 S,19,99941,100241,0.1,0.7 F,0,100341,100641,0.5,0
Sprite,Foreground,Centre,"sb\cbv.png",441,419 F,0,100099,,0.5 C,0,100099,,157,158,168 S,19,100099,100399,0.1,0.7 F,0,100499,100799,0.5,0
Sprite,Foreground,Centre,"sb\cbv.png",440,124 F,0,100573,,0.5 C,0,100573,,157,158,168 S,19,100573,100873,0.1,0.7 F,0,100973,101273,0.5,0
Sprite,Foreground,Centre,"sb\cbv.png",449,209 F,0,100889,,0.5 C,0,100889,,157,158,168 S,19,100889,101189,0.1,0.7 F,0,101289,101589,0.5,0
Sprite,Foreground,Centre,"sb\cbv.png",372,320 F,0,101204,,0.5 C,0,101204,,112,123,169 S,19,101204,101504,0.1,0.7 F,0,101604,101904,0.5,0
Sprite,Foreground,Centre,"sb\cbv.png",304,364 F,0,101362,,0.5 C,0,101362,,112,123,169 S,19,101362,101662,0.1,0.7 F,0,101762,102062,0.5,0
Sprite,Foreground,Centre,"sb\cbv.png",304,364 F,0,101441,,0.5 C,0,101441,,112,123,169 S,19,101441,101741,0.1,0.7 F,0,101841,102141,0.5,0
Sprite,Foreground,Centre,"sb\cbv.png",304,364 F,0,101520,,0.5 C,0,101520,,112,123,169 S,19,101520,101820,0.1,0.7 F,0,101920,102220,0.5,0
Sprite,Foreground,Centre,"sb\cbv.png",118,247 F,0,101994,,0.5 C,0,101994,,112,123,169 S,19,101994,102294,0.1,0.7 F,0,102394,102694,0.5,0
Sprite,Foreground,Centre,"sb\cbv.png",213,342 F,0,102310,,0.5 C,0,102310,,81,73,120 S,19,102310,102610,0.1,0.7 F,0,102710,103010,0.5,0
Sprite,Foreground,Centre,"sb\cbv.png",257,193 F,0,102468,,0.5 C,0,102468,,81,73,120 S,19,102468,102768,0.1,0.7 F,0,102868,103168,0.5,0
Sprite,Foreground,Centre,"sb\cbv.png",110,253 F,0,102625,,0.5 C,0,102625,,81,73,120 S,19,102625,102925,0.1,0.7 F,0,103025,103325,0.5,0
Sprite,Foreground,Centre,"sb\cbv.png",436,163 F,0,103099,,0.5 C,0,103099,,81,73,120 S,19,103099,103399,0.1,0.7 F,0,103499,103799,0.5,0
Sprite,Foreground,Centre,"sb\cbv.png",417,305 F,0,103415,,0.5 C,0,103415,,200,200,204 S,19,103415,103715,0.1,0.7 F,0,103815,104115,0.5,0
Sprite,Foreground,Centre,"sb\cbv.png",314,113 F,0,103573,,0.5 C,0,103573,,200,200,204 S,19,103573,103873,0.1,0.7 F,0,103973,104273,0.5,0
Sprite,Foreground,Centre,"sb\cbv.png",480,135 F,0,103731,,0.5 C,0,103731,,157,158,168 S,19,103731,104031,0.1,0.7 F,0,104131,104431,0.5,0
Sprite,Foreground,Centre,"sb\cbv.png",319,241 F,0,103889,,0.5 C,0,103889,,157,158,168 S,19,103889,104189,0.1,0.7 F,0,104289,104589,0.5,0
//Storyboard Layer 4 (Overlay)
//Storyboard Sound Samples

[TimingPoints]
468,315.789473684211,4,2,1,53,1,0
5520,-83.3333333333333,4,2,1,53,0,0
12389,-83.3333333333333,4,2,1,5,0,0
12468,-71.4285714285714,4,2,1,60,0,0
33310,-133.333333333333,4,2,1,53,0,0
42704,-133.333333333333,4,2,1,5,0,0
42783,-83.3333333333333,4,2,1,66,0,0
43415,-66.6666666666667,4,2,1,66,0,0
63152,-66.6666666666667,4,2,1,52,0,0
63625,-66.6666666666667,4,2,1,77,0,0
71204,-133.333333333333,4,2,1,77,0,0
71836,-66.6666666666667,4,2,1,77,0,0
79889,-133.333333333333,4,2,1,77,0,0
80520,-66.6666666666667,4,2,1,77,0,0
81783,-100,4,2,1,77,0,0
82415,-66.6666666666667,4,2,1,77,0,0
96941,-76.9230769230769,4,2,1,77,0,0
97573,-66.6666666666667,4,2,1,77,0,0
104046,-66.6666666666667,4,2,1,46,0,0

[Colours]
Combo1 : 157,158,168
Combo2 : 112,123,169
Combo3 : 81,73,120
Combo4 : 200,200,204

[HitObjects]
135,182,468,5,2,0:0:0:0:
135,182,625,1,2,0:0:0:0:
135,182,783,1,2,0:0:0:0:
71,234,941,2,0,P|140:223|209:212,1,140,0|2,0:0|0:0,0:0:0:0:
284,238,1415,1,2,0:0:0:0:
292,169,1573,2,0,P|286:209|284:253,1,70,2|0,0:0|0:0,0:0:0:0:
337,298,1889,2,0,P|405:312|472:331,1,140
265,384,2362,2,0,P|262:349|257:314,1,70
257,314,2678,1,0,0:0:0:0:
418,235,2994,5,2,0:0:0:0:
415,224,3073,1,0,0:0:0:0:
412,213,3152,1,2,0:0:0:0:
409,202,3231,1,2,0:0:0:0:
406,191,3310,1,2,0:0:0:0:
323,238,3468,2,0,P|264:211|285:150,1,140,0|2,0:0|0:0,0:0:0:0:
447,103,3941,1,2,0:0:0:0:
377,46,4099,6,0,L|361:120,2,70,2|0|0,0:0|0:0|0:0,0:0:0:0:
285,150,4573,1,0,0:0:0:0:
285,150,4731,1,2,0:0:0:0:
203,101,4889,1,2,0:0:0:0:
112,118,5046,1,2,0:0:0:0:
269,50,5204,1,2,0:0:0:0:
186,182,5362,1,2,0:0:0:0:
23,96,5520,6,0,B|85:129|85:129|91:182|52:217,1,167.999994873047,2|0,0:0|0:0,0:0:0:0:
52,217,5915,1,2,0:0:0:0:
52,217,5994,2,0,L|42:176,2,41.9999987182618,2|0|0,0:0|0:0|0:0,0:0:0:0:
138,278,6310,1,0,0:0:0:0:
46,335,6468,1,0,0:0:0:0:
143,267,6625,2,0,B|185:256|185:256|208:288,1,83.9999974365235
193,294,6862,2,0,L|145:280,1,41.9999987182618,2|2,0:0|0:0,0:0:0:0:
306,326,7099,1,2,0:0:0:0:
326,321,7177,1,2,0:0:0:0:
347,316,7256,1,2,0:0:0:0:
422,347,7415,1,2,0:0:0:0:
505,248,7573,5,2,0:0:0:0:
478,243,7651,1,2,0:0:0:0:
450,238,7730,1,2,0:0:0:0:
423,233,7809,1,2,0:0:0:0:
396,227,7888,1,2,0:0:0:0:
368,220,7967,1,0,0:0:0:0:
341,212,8046,2,0,P|350:171|359:130,1,83.9999974365235,2|0,0:0|0:0,0:0:0:0:
448,164,8362,1,0,0:0:0:0:
263,45,8520,2,0,P|268:86|273:128,1,83.9999974365235,2|0,0:0|0:0,0:0:0:0:
100,251,8836,5,2,0:0:0:0:
220,199,8994,1,0,0:0:0:0:
107,343,9152,2,0,P|33:313|26:233,1,167.999994873047,2|2,0:0|0:0,0:0:0:0:
33,230,9547,1,2,0:0:0:0:
52,237,9626,1,2,0:0:0:0:
60,241,9705,1,2,0:0:0:0:
78,233,9784,1,2,0:0:0:0:
86,229,9863,1,2,0:0:0:0:
105,236,9942,1,2,0:0:0:0:
113,240,10021,1,2,0:0:0:0:
131,232,10100,1,2,0:0:0:0:
139,228,10179,1,2,0:0:0:0:
158,235,10258,1,2,0:0:0:0:
166,239,10337,1,2,0:0:0:0:
184,231,10416,1,2,0:0:0:0:
192,227,10495,1,2,0:0:0:0:
211,234,10574,5,2,3:2:0:0:
200,186,12468,6,0,L|211:234,1,48.9999985046387,8|8,0:1|0:1,0:0:0:0:
171,303,12625,1,8,0:1:0:0:
264,102,12783,1,8,0:1:0:0:
343,293,12941,1,8,0:1:0:0:
275,347,13099,6,0,B|307:278|307:278|298:210|298:210|366:194,1,195.999994018555,0|8,3:0|0:0,0:0:0:0:
171,303,13573,2,0,B|113:288|113:288|59:332|59:332|-10:296,1,195.999994018555,0|0,3:0|0:0,0:0:0:0:
0,301,14204,2,0,B|33:262|33:262|37:308,1,97.9999970092774,2|2,0:0|0:0,0:0:0:0:
167,150,14520,5,2,3:2:0:0:
25,80,14678,1,10,0:0:0:0:
105,26,14836,2,0,L|123:221,1,195.999994018555,0|10,3:0|0:0,0:0:0:0:
205,309,15310,1,2,0:0:0:0:
291,239,15468,1,2,0:0:0:0:
210,64,15625,6,0,L|223:17,1,48.9999985046387,2|0,3:2|0:0,0:0:0:0:
223,17,15783,1,0,0:0:0:0:
276,123,15941,1,8,0:0:0:0:
75,153,16099,1,2,3:2:0:0:
96,141,16177,1,2,0:0:0:0:
120,137,16256,1,2,0:0:0:0:
144,140,16335,1,2,0:0:0:0:
167,150,16414,1,10,0:0:0:0:
167,150,16731,6,0,B|162:223|162:223|200:202,1,97.9999970092774,2|2,0:0|0:0,0:0:0:0:
246,294,17046,1,2,3:2:0:0:
342,229,17204,1,8,0:0:0:0:
392,302,17362,2,0,B|430:332|430:332|421:233,1,146.999995513916,0|0,3:0|0:0,0:0:0:0:
422,212,17678,2,0,L|429:188,8,24.4999992523194
330,94,18152,6,0,B|280:99|280:99|274:51,1,97.9999970092774,0|0,3:0|0:0,0:0:0:0:
366,17,18468,1,8,0:0:0:0:
139,75,18625,5,2,3:2:0:0:
163,72,18703,1,2,0:0:0:0:
187,70,18782,1,2,0:0:0:0:
191,93,18861,1,2,0:0:0:0:
194,117,18940,1,10,0:0:0:0:
78,213,19257,6,0,L|67:165,1,48.9999985046387,2|0,0:0|0:0,0:0:0:0:
67,165,19415,1,2,0:0:0:0:
155,244,19573,1,2,3:2:0:0:
36,306,19731,1,8,0:0:0:0:
173,235,19889,2,0,B|267:232|267:232|280:239|280:239|366:231,1,195.999994018555,0|10,3:0|0:0,0:0:0:0:
366,231,20362,2,0,B|323:202|323:202|283:224,1,97.9999970092774,2|2,0:0|0:0,0:0:0:0:
316,314,20678,6,0,L|329:118,1,195.999994018555,2|8,3:2|0:0,0:0:0:0:
191,308,21152,2,0,L|204:112,1,195.999994018555,0|8,3:0|0:0,0:0:0:0:
203,112,21783,2,0,L|207:63,1,48.9999985046387
198,28,21941,5,0,0:0:0:0:
127,82,22099,1,0,3:0:0:0:
50,47,22257,1,8,0:0:0:0:
11,167,22415,6,0,P|101:172|111:262,1,195.999994018555,0|10,3:0|0:0,0:0:0:0:
106,262,22810,1,2,0:0:0:0:
101,261,22889,1,2,0:0:0:0:
96,260,22968,1,2,0:0:0:0:
91,259,23046,1,2,0:0:0:0:
86,258,23125,1,2,0:0:0:0:
81,257,23204,1,2,3:2:0:0:
81,257,25257,6,0,L|129:252,1,48.9999985046387,2|2,3:2|3:2,0:0:0:0:
244,281,25415,1,10,0:0:0:0:
244,281,25731,6,0,L|147:263,1,97.9999970092774,0|0,3:0|0:0,0:0:0:0:
179,357,26046,1,8,0:0:0:0:
214,194,26204,1,2,3:2:0:0:
216,181,26282,1,2,0:2:0:0:
218,169,26361,1,2,0:2:0:0:
220,157,26440,1,2,0:2:0:0:
222,145,26519,1,10,0:2:0:0:
224,133,26598,1,2,0:0:0:0:
226,121,26677,1,2,0:0:0:0:
228,109,26756,1,2,0:0:0:0:
230,97,26836,2,0,L|242:194,1,97.9999970092774,2|2,0:0|0:0,0:0:0:0:
150,40,27152,5,2,3:2:0:0:
314,121,27310,1,8,0:0:0:0:
277,1,27468,2,0,L|242:193,1,195.999994018555,2|8,3:2|0:0,0:0:0:0:
353,336,27941,1,0,0:0:0:0:
398,268,28099,2,0,L|385:220,1,48.9999985046387,2|0,3:2|0:0,0:0:0:0:
238,295,28257,6,0,L|225:342,1,48.9999985046387,2|0,3:2|0:0,0:0:0:0:
233,357,28415,1,0,0:0:0:0:
313,243,28573,1,8,0:0:0:0:
149,243,28731,1,0,3:0:0:0:
124,239,28809,1,2,0:0:0:0:
100,236,28888,1,2,0:0:0:0:
83,254,28967,1,2,0:0:0:0:
66,271,29046,2,0,L|77:318,2,48.9999985046387,2|0|0,3:2|0:0|0:0,0:0:0:0:
146,160,29362,2,0,L|163:63,1,97.9999970092774
163,63,29678,5,0,3:0:0:0:
66,144,29836,1,8,0:0:0:0:
234,197,29994,2,0,B|297:186|297:186|333:192|333:192|364:172|364:172|421:162,1,195.999994018555,2|2,3:2|3:2,0:0:0:0:
267,85,30468,2,0,B|315:102|315:102|348:69,1,97.9999970092774,2|0,0:0|0:0,0:0:0:0:
427,266,30783,6,0,P|339:235|269:296,1,195.999994018555,0|8,3:0|0:0,0:0:0:0:
355,369,31257,2,0,B|314:342|314:342|245:348|170:318,1,195.999994018555,2|10,3:2|0:2,0:0:0:0:
170,318,31968,6,0,L|125:338,1,48.9999985046387,0|2,0:0|0:0,0:0:0:0:
52,299,32204,1,2,3:2:0:0:
161,203,32362,1,8,0:0:0:0:
61,382,32520,2,0,B|93:331|93:331|68:197,1,195.999994018555,2|2,3:2|3:2,0:0:0:0:
61,190,32915,1,2,3:2:0:0:
54,182,32994,1,10,0:0:0:0:
362,128,33310,1,2,3:2:0:0:
351,203,33468,5,2,3:2:0:0:
62,12,33783,1,2,3:2:0:0:
73,87,33941,5,2,3:2:0:0:
450,12,34257,1,2,3:2:0:0:
439,87,34415,5,2,3:2:0:0:
150,128,34730,1,2,3:2:0:0:
161,203,34888,5,2,3:2:0:0:
463,255,35836,1,2,3:2:0:0:
389,230,35994,5,2,3:2:0:0:
304,78,36310,1,2,3:2:0:0:
230,103,36468,5,2,3:2:0:0:
193,224,36783,1,2,3:2:0:0:
119,199,36941,5,2,3:2:0:0:
83,115,37257,1,2,3:2:0:0:
9,140,37415,5,2,3:2:0:0:
173,312,38362,1,2,3:2:0:0:
242,353,38520,5,2,3:2:0:0:
401,182,38836,1,2,3:2:0:0:
341,230,38994,5,2,3:2:0:0:
78,130,39310,1,2,3:2:0:0:
136,188,39468,5,2,3:2:0:0:
328,50,39783,1,2,3:2:0:0:
274,113,39941,5,2,3:2:0:0:
245,281,40889,1,2,0:0:0:0:
241,269,40968,1,2,0:0:0:0:
241,269,41678,5,2,0:0:0:0:
318,297,41836,1,2,0:0:0:0:
301,372,41994,2,0,P|288:268|285:163,1,210.000008010865,2|0,0:0|0:0,0:0:0:0:
441,78,42783,6,0,L|399:86,1,41.9999987182618,8|0,0:1|0:0,0:0:0:0:
413,181,42941,2,0,L|371:189,1,41.9999987182618,8|0,0:1|0:0,0:0:0:0:
185,143,43099,6,0,L|143:134,1,41.9999987182618,8|0,0:1|0:0,0:0:0:0:
154,38,43257,2,0,L|112:29,1,41.9999987182618,8|0,0:1|0:0,0:0:0:0:
286,237,43415,6,0,B|271:190|271:190|187:239|187:239|333:322,1,315.000012016297,2|0,3:2|0:0,0:0:0:0:
107,358,44046,6,0,L|113:305,1,52.5000020027161,10|0,0:0|0:0,0:0:0:0:
107,358,44362,1,0,3:0:0:0:
29,275,44520,6,0,L|18:223,1,52.5000020027161,10|0,0:2|0:0,0:0:0:0:
29,275,44836,1,0,3:0:0:0:
178,171,44994,6,0,L|188:119,1,52.5000020027161,10|0,0:0|0:0,0:0:0:0:
178,171,45310,1,0,3:0:0:0:
10,71,45468,6,0,L|0:19,1,52.5000020027161,10|0,0:0|0:0,0:0:0:0:
10,71,45784,1,0,0:0:0:0:
103,209,45941,6,0,B|242:193|242:193|225:261,1,210.000008010865,2|8,3:2|0:0,0:0:0:0:
224,290,46336,1,0,0:0:0:0:
224,290,46415,2,0,L|173:275,1,52.5000020027161,2|2,3:2|1:2,0:0:0:0:
328,350,46573,1,2,1:2:0:0:
324,310,46651,1,2,1:2:0:0:
323,273,46730,1,2,1:2:0:0:
362,269,46809,1,2,1:2:0:0:
401,264,46889,2,0,L|406:316,1,52.5000020027161,2|0,1:2|1:0,0:0:0:0:
355,181,47046,6,0,B|322:77|322:77|398:34|398:34|376:96,1,262.500010013581,2|0,3:2|0:0,0:0:0:0:
386,106,47520,1,8,0:0:0:0:
221,176,47678,2,0,B|149:158|149:158|76:186|76:186|102:238,1,210.000008010865,2|0,3:2|0:0,0:0:0:0:
182,295,48152,2,0,B|230:266|230:266|183:249,1,105.000004005432,8|0,0:0|0:0,0:0:0:0:
403,325,48468,6,0,B|427:374|427:374|373:372|373:372|429:176,1,315.000012016297,2|0,3:2|0:0,0:0:0:0:
365,19,49099,6,0,L|313:28,1,52.5000020027161,10|0,0:0|0:0,0:0:0:0:
224,68,49415,1,0,3:0:0:0:
326,196,49573,6,0,L|274:205,1,52.5000020027161,10|0,0:0|0:0,0:0:0:0:
194,181,49889,1,0,3:0:0:0:
224,68,50046,6,0,L|172:77,1,52.5000020027161,10|0,0:0|0:0,0:0:0:0:
105,118,50362,1,0,3:0:0:0:
194,181,50520,6,0,L|142:190,1,52.5000020027161,10|0,0:0|0:0,0:0:0:0:
66,185,50836,1,0,0:0:0:0:
184,288,50994,6,0,B|202:338|202:338|98:325,1,157.500006008148,2|0,3:2|0:0,0:0:0:0:
87,306,51310,2,0,L|101:256,3,52.5000020027161,2|0|2|2,0:0|0:0|1:2|1:2,0:0:0:0:
246,235,51625,1,10,1:2:0:0:
284,242,51703,1,0,1:2:0:0:
323,250,51782,1,2,1:2:0:0:
361,257,51861,1,2,1:2:0:0:
400,265,51940,1,10,1:2:0:0:
347,351,52099,2,0,B|312:281|312:281|249:329,1,157.500006008148,2|0,3:2|0:0,0:0:0:0:
299,358,52415,5,2,1:2:0:0:
331,198,52573,2,0,L|322:249,1,52.5000020027161,2|0,1:2|0:0,0:0:0:0:
213,337,52731,2,0,B|151:369|151:369|23:310,1,210.000008010865,2|8,3:2|0:0,0:0:0:0:
85,243,53204,2,0,B|135:224|135:224|151:273,1,105.000004005432,2|0,3:2|0:0,0:0:0:0:
92,131,53520,6,0,L|105:80,2,52.5000020027161,2|0|0,3:2|0:0|0:0,0:0:0:0:
196,152,53836,2,0,L|209:101,1,52.5000020027161,10|0,0:0|0:0,0:0:0:0:
196,75,53994,1,2,3:2:0:0:
293,191,54152,2,0,L|396:175,1,105.000004005432,2|2,0:0|0:0,0:0:0:0:
378,313,54468,2,0,L|390:262,1,52.5000020027161,8|0,0:0|0:0,0:0:0:0:
490,223,54625,6,0,B|452:233|452:233|333:182|333:182|282:193,1,210.000008010865,2|0,3:2|0:0,0:0:0:0:
396,111,55099,1,8,0:0:0:0:
301,281,55257,2,0,B|314:250|314:250|296:221|296:221|310:198|310:198|289:150|299:84,1,210.000008010865,2|0,3:2|0:0,0:0:0:0:
243,27,55731,2,0,B|178:11|178:11|191:46,1,105.000004005432,8|0,0:0|0:0,0:0:0:0:
106,160,56046,6,0,B|57:127|57:127|36:277,1,210.000008010865,2|2,3:2|0:0,0:0:0:0:
45,281,56441,1,0,0:0:0:0:
54,286,56520,1,2,1:2:0:0:
62,290,56599,1,2,1:2:0:0:
71,295,56678,2,0,L|121:279,1,52.5000020027161,10|0,1:2|0:0,0:0:0:0:
198,338,56836,2,0,L|248:353,1,52.5000020027161,2|2,3:2|1:2,0:0:0:0:
73,269,56994,2,0,L|123:253,1,52.5000020027161,10|0,1:2|0:0,0:0:0:0:
264,358,57152,6,0,B|368:325|368:325|404:235|404:235|342:256,1,262.500010013581,2|0,3:2|0:0,0:0:0:0:
328,262,57625,2,0,L|337:313,1,52.5000020027161,10|0,0:0|0:0,0:0:0:0:
232,237,57783,2,0,B|260:126|260:126|274:114|274:114|289:38,1,210.000008010865,2|8,3:2|0:0,0:0:0:0:
350,152,58257,2,0,B|394:183|394:183|444:178,1,105.000004005432,2|0,3:2|0:0,0:0:0:0:
187,63,58573,6,0,B|129:80|80:45|80:45|110:129|65:174|65:174|37:143|9:145,1,315.000012016297,2|2,3:2|0:0,0:0:0:0:
29,275,59204,6,0,L|80:266,1,52.5000020027161,10|0,0:0|0:0,0:0:0:0:
172,367,59520,1,0,3:0:0:0:
80,266,59678,6,0,L|131:257,1,52.5000020027161,10|0,0:0|0:0,0:0:0:0:
210,338,59994,1,0,3:0:0:0:
131,257,60152,6,0,L|182:248,1,52.5000020027161,10|0,0:0|0:0,0:0:0:0:
244,317,60468,1,0,3:0:0:0:
182,248,60625,6,0,L|233:239,1,52.5000020027161,10|0,0:0|0:0,0:0:0:0:
273,302,60941,1,0,0:0:0:0:
420,233,61099,6,0,B|398:165|398:165|453:133|453:133|428:62,1,210.000008010865,2|8,3:2|0:0,0:0:0:0:
328,59,61573,1,2,3:2:0:0:
297,76,61651,1,2,1:2:0:0:
267,94,61730,1,2,1:2:0:0:
236,105,61809,1,2,1:2:0:0:
203,93,61888,1,2,1:2:0:0:
171,81,61967,1,2,1:2:0:0:
138,69,62046,1,2,1:2:0:0:
107,80,62125,1,2,1:2:0:0:
76,91,62204,1,2,1:2:0:0:
138,69,63310,5,2,0:0:0:0:
99,66,63388,1,2,0:0:0:0:
64,84,63467,1,2,0:0:0:0:
45,118,63546,1,2,0:0:0:0:
46,157,63625,2,0,B|119:170|119:170|132:182|132:182|196:193,1,157.500006008148,4|0,3:2|0:0,0:0:0:0:
224,179,63941,1,8,0:0:0:0:
136,322,64099,2,0,P|89:303|67:257,1,105.000004005432,0|0,3:0|0:0,0:0:0:0:
298,236,64415,5,10,0:0:0:0:
280,269,64493,1,0,0:0:0:0:
281,308,64572,1,2,0:0:0:0:
303,340,64651,1,0,0:0:0:0:
338,356,64731,2,0,P|427:321|405:228,1,210.000008010865,2|2,0:0|3:2,0:0:0:0:
355,148,65204,1,10,0:0:0:0:
500,197,65362,2,0,P|442:195|342:134,1,157.500006008148,2|0,3:2|0:0,0:0:0:0:
346,121,65678,1,10,0:0:0:0:
243,47,65836,2,0,P|193:61|167:105,1,105.000004005432,2|2,0:0|0:0,0:0:0:0:
274,276,66152,5,2,3:2:0:0:
231,191,66310,1,2,0:0:0:0:
359,257,66468,1,10,0:0:0:0:
212,344,66625,2,0,B|91:338|122:396|8:375,1,210.000008010865,2|10,3:2|0:0,0:0:0:0:
156,201,67099,1,2,0:0:0:0:
0,243,67257,6,0,P|48:263|100:267,1,105.000004005432,2|0,0:0|0:0,0:0:0:0:
148,17,67573,1,2,3:2:0:0:
121,14,67651,1,0,0:0:0:0:
96,20,67730,1,10,0:0:0:0:
74,34,67809,1,0,0:0:0:0:
57,54,67888,1,2,3:2:0:0:
48,78,67967,1,0,0:0:0:0:
46,104,68047,5,2,0:2:0:0:
68,96,68125,1,2,0:2:0:0:
90,92,68204,1,10,0:2:0:0:
112,89,68283,1,2,0:2:0:0:
135,88,68362,1,2,0:2:0:0:
157,90,68441,1,2,0:2:0:0:
179,93,68520,1,2,0:2:0:0:
201,99,68599,1,2,0:2:0:0:
222,107,68678,6,0,P|209:157|206:210,1,105.000004005432,2|2,3:2|0:0,0:0:0:0:
343,313,68994,1,10,0:0:0:0:
169,303,69152,2,0,P|265:270|308:177,1,210.000008010865,2|10,3:2|0:0,0:0:0:0:
407,91,69625,1,2,0:0:0:0:
474,141,69783,6,0,P|411:128|271:76,1,210.000008010865,2|0,0:0|3:0,0:0:0:0:
133,84,70257,1,10,0:2:0:0:
198,177,70415,1,2,3:2:0:0:
198,177,70494,1,2,0:2:0:0:
198,177,70573,2,0,L|206:125,1,52.5000020027161,2|2,0:2|0:2,0:0:0:0:
28,132,70731,1,10,0:2:0:0:
54,137,70809,1,2,0:2:0:0:
77,150,70888,1,2,0:2:0:0:
95,169,70967,1,2,0:2:0:0:
105,193,71046,1,2,0:2:0:0:
107,219,71125,1,2,0:2:0:0:
100,244,71204,6,0,B|60:233|60:233|21:236|21:236|0:225,1,105.000004005432,2|10,0:2|0:0,0:0:0:0:
211,344,71836,5,2,3:2:0:0:
352,276,72073,5,2,3:2:0:0:
342,124,72310,5,2,3:2:0:0:
493,177,72546,5,2,3:2:0:0:
350,301,72783,5,2,3:2:0:0:
218,199,73020,5,2,3:2:0:0:
323,203,73178,2,0,L|374:212,2,52.5000020027161,2|0|0,3:2|0:0|0:0,0:0:0:0:
241,291,73415,2,0,B|166:269|166:269|156:257|156:257|95:238,1,157.500006008148,10|0,0:0|0:0,0:0:0:0:
132,340,73731,6,0,P|222:298|219:200,1,210.000008010865,2|8,3:2|0:0,0:0:0:0:
95,238,74204,2,0,L|44:251,1,52.5000020027161,0|0,3:0|0:0,0:0:0:0:
0,141,74362,1,0,0:0:0:0:
12,144,74440,1,0,0:0:0:0:
25,147,74519,1,10,0:0:0:0:
38,150,74598,1,0,0:0:0:0:
51,153,74677,1,2,0:0:0:0:
131,109,74836,6,0,P|117:59|139:12,1,105.000004005432,2|0,0:0|0:0,0:0:0:0:
228,44,75152,2,0,L|222:96,1,52.5000020027161,2|0,3:2|0:0,0:0:0:0:
297,197,75310,1,8,0:2:0:0:
322,195,75388,1,0,0:2:0:0:
345,182,75467,1,0,3:2:0:0:
358,160,75546,1,0,0:2:0:0:
360,134,75625,5,0,0:2:0:0:
334,135,75703,1,0,0:2:0:0:
311,148,75782,1,8,0:2:0:0:
298,170,75861,1,0,0:2:0:0:
297,197,75942,5,0,0:2:0:0:
323,202,76020,1,0,0:2:0:0:
349,208,76099,1,0,0:2:0:0:
374,216,76178,1,0,0:2:0:0:
398,226,76257,5,2,0:2:0:0:
442,294,76415,1,2,0:0:0:0:
509,257,76573,1,10,0:0:0:0:
371,384,76731,2,0,P|345:312|274:286,1,157.500006008148,2|0,3:2|0:0,0:0:0:0:
229,365,77046,2,0,P|270:337|273:286,1,105.000004005432,8|2,0:0|0:0,0:0:0:0:
204,212,77362,6,0,P|127:229|49:243,1,157.500006008148,2|0,0:0|0:0,0:0:0:0:
27,233,77678,1,0,3:0:0:0:
133,366,77837,1,10,0:2:0:0:
136,353,77915,1,2,0:2:0:0:
139,340,77994,1,2,3:2:0:0:
142,327,78073,1,2,0:2:0:0:
145,314,78152,2,0,L|132:262,3,52.5000020027161,2|2|10|2,0:2|0:2|0:2|0:2,0:0:0:0:
81,156,78468,2,0,L|93:104,3,52.5000020027161,2|2|2|2,0:2|0:2|0:2|0:2,0:0:0:0:
214,116,78783,6,0,P|261:138|312:151,1,105.000004005432,2|2,3:2|0:0,0:0:0:0:
402,53,79099,1,10,0:0:0:0:
502,82,79257,2,0,P|417:88|303:160,1,210.000008010865,2|8,3:2|0:0,0:0:0:0:
489,235,79731,1,2,0:0:0:0:
386,295,79889,6,0,P|396:243|399:191,1,105.000004005432,2|0,0:0|3:0,0:0:0:0:
399,191,80362,1,10,0:0:0:0:
485,312,80520,5,2,3:2:0:0:
282,249,80678,1,2,0:0:0:0:
262,377,80836,1,10,0:0:0:0:
369,317,80994,1,2,0:0:0:0:
235,171,81152,5,2,0:0:0:0:
235,171,81231,1,0,0:0:0:0:
235,171,81310,2,0,P|134:166|79:249,1,210.000008010865,2|8,3:2|0:0,0:0:0:0:
79,249,81783,2,0,P|80:183|21:155,1,140,0|10,3:0|0:0,0:0:0:0:
170,266,82257,1,2,0:0:0:0:
0,294,82415,6,0,P|102:282|180:348,1,210.000008010865,2|0,0:0|3:0,0:0:0:0:
343,222,82889,2,0,P|299:250|275:295,1,105.000004005432,8|0,0:0|3:0,0:0:0:0:
456,343,83204,6,0,L|448:291,1,52.5000020027161,8|0,0:1|0:0,0:0:0:0:
425,265,83362,2,0,L|432:213,1,52.5000020027161,8|0,0:1|0:0,0:0:0:0:
455,193,83520,1,8,0:1:0:0:
453,182,83599,1,8,0:1:0:0:
451,171,83678,1,8,0:1:0:0:
449,160,83757,1,8,0:1:0:0:
448,149,83836,1,8,0:1:0:0:
448,149,85731,6,0,L|455:97,1,52.5000020027161,8|0,0:1|0:0,0:0:0:0:
336,28,85889,1,8,0:0:0:0:
336,28,85968,1,8,0:0:0:0:
336,28,86046,2,0,L|343:80,3,52.5000020027161,8|8|8|8,0:1|0:1|0:1|0:1,0:0:0:0:
285,142,86362,6,0,P|210:121|131:114,1,157.500006008148,8|0,0:1|0:0,0:0:0:0:
112,131,86678,1,10,0:0:0:0:
37,36,86836,2,0,B|102:56|102:56|72:194,1,210.000008010865,2|10,3:2|0:0,0:0:0:0:
191,205,87310,1,2,0:0:0:0:
72,275,87468,2,0,B|105:235|105:235|71:194,1,105.000004005432,2|0,0:0|0:0,0:0:0:0:
155,301,87783,5,0,3:0:0:0:
178,310,87861,1,0,0:0:0:0:
204,312,87940,1,10,0:2:0:0:
230,305,88019,1,2,0:2:0:0:
252,291,88098,1,2,3:2:0:0:
269,271,88177,1,2,0:2:0:0:
289,254,88256,5,2,0:2:0:0:
292,280,88336,1,2,0:2:0:0:
303,304,88415,1,10,0:2:0:0:
321,323,88494,1,2,0:2:0:0:
344,336,88573,1,2,0:2:0:0:
369,341,88652,1,2,0:2:0:0:
395,338,88730,1,2,0:2:0:0:
418,326,88810,1,2,0:2:0:0:
437,307,88889,6,0,L|416:204,1,105.000004005432,2|2,3:2|0:0,0:0:0:0:
509,222,89204,1,10,0:0:0:0:
405,178,89362,2,0,L|365:385,1,210.000008010865,2|10,3:2|0:0,0:0:0:0:
236,229,89836,5,2,0:0:0:0:
173,178,89994,2,0,P|95:241|114:340,1,210.000008010865,2|0,0:0|3:0,0:0:0:0:
313,275,90468,5,10,0:2:0:0:
296,264,90546,1,2,0:2:0:0:
277,259,90625,1,2,3:2:0:0:
257,260,90704,1,2,0:2:0:0:
239,266,90783,1,2,0:2:0:0:
223,278,90862,1,2,0:2:0:0:
211,293,90941,1,10,0:2:0:0:
204,312,91020,1,2,0:2:0:0:
203,331,91099,5,2,0:2:0:0:
223,338,91178,1,2,0:2:0:0:
242,344,91257,1,2,0:2:0:0:
261,350,91336,1,2,0:2:0:0:
280,356,91415,6,0,B|271:254|271:254|260:242|260:242|250:151,1,210.000008010865,2|10,3:2|0:0,0:0:0:0:
250,151,92046,5,2,3:2:0:0:
335,198,92283,5,2,3:2:0:0:
175,268,92520,5,2,3:2:0:0:
326,114,92757,5,2,3:2:0:0:
98,242,92994,5,2,3:2:0:0:
114,320,93231,5,2,3:2:0:0:
175,268,93389,2,0,L|226:279,2,52.5000020027161,2|0|0,3:2|0:0|0:0,0:0:0:0:
98,242,93625,2,0,L|115:138,1,105.000004005432,10|2,0:0|0:0,0:0:0:0:
243,200,93941,6,0,B|366:189|325:235|449:221,1,210.000008010865,2|10,3:2|0:0,0:0:0:0:
490,107,94415,2,0,P|442:128|390:125,1,105.000004005432,2|0,3:2|0:0,0:0:0:0:
243,1,94731,1,10,0:0:0:0:
268,5,94809,1,0,0:0:0:0:
290,19,94888,1,2,0:0:0:0:
305,40,94967,1,0,0:0:0:0:
310,66,95046,6,0,P|208:43|103:41,1,210.000008010865,2|0,0:0|3:0,0:0:0:0:
54,105,95520,1,10,0:2:0:0:
54,105,95599,1,2,0:2:0:0:
54,105,95678,1,2,3:2:0:0:
54,105,95757,1,2,0:2:0:0:
54,105,95836,2,0,L|66:155,3,52.5000020027161,2|2|10|2,0:2|0:2|0:2|0:2,0:0:0:0:
4,273,96152,1,2,0:2:0:0:
19,252,96230,1,2,0:2:0:0:
42,238,96309,1,2,0:2:0:0:
67,235,96388,1,2,0:2:0:0:
92,242,96467,5,2,3:2:0:0:
144,303,96625,1,2,0:0:0:0:
246,373,96783,1,10,0:0:0:0:
298,315,96941,2,0,P|306:224|301:133,1,181.999991668702,2|10,3:2|0:0,0:0:0:0:
399,193,97415,1,2,0:0:0:0:
224,211,97573,6,0,P|323:199|379:282,1,210.000008010865,2|0,0:0|3:0,0:0:0:0:
246,373,98046,1,10,0:2:0:0:
220,366,98124,1,2,0:2:0:0:
194,361,98203,1,2,3:2:0:0:
169,355,98282,1,2,0:2:0:0:
143,350,98362,2,0,L|158:299,1,52.5000020027161,2|2,0:2|0:2,0:0:0:0:
117,233,98520,5,10,0:2:0:0:
114,224,98598,1,2,0:2:0:0:
112,215,98677,1,2,0:2:0:0:
110,207,98756,1,2,0:2:0:0:
108,198,98835,1,2,0:2:0:0:
106,190,98914,1,2,0:2:0:0:
104,181,98994,6,0,P|153:197|205:208,1,105.000004005432,2|2,3:2|0:0,0:0:0:0:
303,121,99310,1,10,0:0:0:0:
187,106,99468,2,0,P|260:119|289:253,1,210.000008010865,2|10,3:2|0:0,0:0:0:0:
260,302,99941,1,2,0:0:0:0:
377,363,100099,6,0,P|374:258|385:153,1,210.000008010865,2|0,0:0|3:0,0:0:0:0:
376,68,100573,2,0,P|325:75|302:120,1,105.000004005432,8|2,0:0|3:2,0:0:0:0:
385,153,100889,2,0,P|436:162|487:174,1,105.000004005432,2|10,0:0|0:0,0:0:0:0:
308,264,101204,5,2,0:0:0:0:
240,308,101362,1,2,0:0:0:0:
240,308,101441,1,0,0:0:0:0:
240,308,101520,2,0,B|99:290|160:350|34:328,1,210.000008010865,2|8,3:2|0:0,0:0:0:0:
54,191,101994,2,0,P|128:197|160:265,1,157.500006008148,0|0,3:0|0:0,0:0:0:0:
149,286,102310,5,10,0:0:0:0:
193,137,102468,1,2,0:0:0:0:
46,197,102625,2,0,P|150:195|255:185,1,210.000008010865,2|0,0:0|3:0,0:0:0:0:
372,107,103099,2,0,P|422:122|473:134,1,105.000004005432,8|0,0:0|3:0,0:0:0:0:
353,249,103415,6,0,L|347:196,1,52.5000020027161,8|0,0:1|0:0,0:0:0:0:
250,57,103573,2,0,P|275:56|298:68,1,52.5000020027161,8|0,0:1|0:0,0:0:0:0:
416,79,103731,6,0,L|371:107,1,52.5000020027161,8|0,1:0|0:0,0:0:0:0:
255,185,103889,2,0,P|238:164|229:140,1,52.5000020027161,8|0,0:1|0:0,0:0:0:0:
438,214,104046,5,2,0:0:0:0:
