osu file format v14

[General]
AudioFilename: audio.mp3
AudioLeadIn: 0
PreviewTime: 63558
Countdown: 0
SampleSet: Soft
StackLeniency: 0.3
Mode: 0
LetterboxInBreaks: 0
EpilepsyWarning: 1
WidescreenStoryboard: 1

[Editor]
DistanceSpacing: 1
BeatDivisor: 4
GridSize: 16
TimelineZoom: 1.599999

[Metadata]
Title:Hestia
TitleUnicode:Hestia
Artist:Street
ArtistUnicode:Street
Creator:GYGY
Version:Zekk's Normal
Source:Shooter's Festival 2019
Tags:featured artist fa electronic instrumental artcore sfes2019 drumstep dnb perennial 2021 nm4 gf grand finals drum and bass melodic K-Shoot MANIAチームイベント k shoot zekk bongo 0ppinosu mir shoenen
BeatmapID:3513426
BeatmapSetID:1707295

[Difficulty]
HPDrainRate:3
CircleSize:3.6
OverallDifficulty:4
ApproachRate:6
SliderMultiplier:1
SliderTickRate:1

[Events]
//Background and Video events
0,0,"9678cc594b48e013ddb2e6ab222433903e50b0d8_s2_n1.jpg",0,0
//Break Periods
2,23404,24207
2,40889,41733
//Storyboard Layer 0 (Background)
//Storyboard Layer 1 (Fail)
//Storyboard Layer 2 (Pass)
//Storyboard Layer 3 (Foreground)
Sprite,Foreground,Centre,"sb\hole.png",401,364 F,0,43415,,0.9 C,0,43415,,0,0,0 S,7,43415,44046,20,1
Sprite,Foreground,Centre,"sb\hole.png",289,248 F,0,44046,,0.9 C,0,44046,,0,0,0 S,34,44046,44420,1,6.5 S,19,44420,44520,6.5,1
Sprite,Foreground,Centre,"sb\hole.png",212,183 F,0,44520,,0.9 C,0,44520,,0,0,0 S,34,44520,44894,1,6.5 S,19,44894,44994,6.5,1
Sprite,Foreground,Centre,"sb\hole.png",109,254 F,0,44994,,0.9 C,0,44994,,0,0,0 S,34,44994,45368,1,6.5 S,19,45368,45468,6.5,1
Sprite,Foreground,Centre,"sb\hole.png",157,341 F,0,45468,,0.9 C,0,45468,,0,0,0 S,34,45468,45842,1,6.5 S,19,45842,45942,6.5,1
Sprite,Foreground,Centre,"sb\hole.png",296,390 F,0,45941,,0.9 C,0,45941,,0,0,0 S,7,45941,46357,1,22
Sprite,Foreground,Centre,"sb\hole.png",176,157 F,0,48468,,0.9 C,0,48468,,0,0,0 S,7,48468,49099,20,1
Sprite,Foreground,Centre,"sb\hole.png",151,340 F,0,49099,,0.9 C,0,49099,,0,0,0 S,34,49099,49473,1,6.5 S,19,49473,49573,6.5,1
Sprite,Foreground,Centre,"sb\hole.png",232,406 F,0,49573,,0.9 C,0,49573,,0,0,0 S,34,49573,49947,1,6.5 S,19,49947,50047,6.5,1
Sprite,Foreground,Centre,"sb\hole.png",377,371 F,0,50046,,0.9 C,0,50046,,0,0,0 S,34,50046,50420,1,6.5 S,19,50420,50520,6.5,1
Sprite,Foreground,Centre,"sb\hole.png",448,301 F,0,50520,,0.9 C,0,50520,,0,0,0 S,34,50520,50894,1,6.5 S,19,50894,50994,6.5,1
Sprite,Foreground,Centre,"sb\hole.png",378,205 F,0,50994,,0.9 C,0,50994,,0,0,0 S,7,50994,51410,1,22
Sprite,Foreground,Centre,"sb\hole.png",563,148 F,0,58573,,0.9 C,0,58573,,0,0,0 S,7,58573,59204,20,1
Sprite,Foreground,Centre,"sb\hole.png",415,87 F,0,59204,,0.9 C,0,59204,,0,0,0 S,34,59204,59578,1,6.5 S,19,59578,59678,6.5,1
Sprite,Foreground,Centre,"sb\hole.png",330,137 F,0,59678,,0.9 C,0,59678,,0,0,0 S,34,59678,60052,1,6.5 S,19,60052,60152,6.5,1
Sprite,Foreground,Centre,"sb\hole.png",187,95 F,0,60152,,0.9 C,0,60152,,0,0,0 S,34,60152,60526,1,6.5 S,19,60526,60626,6.5,1
Sprite,Foreground,Centre,"sb\hole.png",143,187 F,0,60625,,0.9 C,0,60625,,0,0,0 S,34,60625,60999,1,6.5 S,19,60999,61099,6.5,1
Sprite,Foreground,Centre,"sb\hole.png",203,299 F,0,61099,,0.9 C,0,61099,,0,0,0 S,7,61099,61515,1,22
Sprite,Foreground,Centre,"sb\cbv.png",417,306 F,0,86362,,0.5 C,0,86362,,200,200,204 S,19,86362,86662,0.1,0.7 F,0,86762,87062,0.5,0
Sprite,Foreground,Centre,"sb\cbv.png",292,376 F,0,86836,,0.5 C,0,86836,,200,200,204 S,19,86836,87136,0.1,0.7 F,0,87236,87536,0.5,0
Sprite,Foreground,Centre,"sb\cbv.png",207,322 F,0,87152,,0.5 C,0,87152,,200,200,204 S,19,87152,87452,0.1,0.7 F,0,87552,87852,0.5,0
Sprite,Foreground,Centre,"sb\cbv.png",262,246 F,0,87468,,0.5 C,0,87468,,200,200,204 S,19,87468,87768,0.1,0.7 F,0,87868,88168,0.5,0
Sprite,Foreground,Centre,"sb\cbv.png",179,146 F,0,87941,,0.5 C,0,87941,,200,200,204 S,19,87941,88241,0.1,0.7 F,0,88341,88641,0.5,0
Sprite,Foreground,Centre,"sb\cbv.png",107,202 F,0,88257,,0.5 C,0,88257,,200,200,204 S,19,88257,88557,0.1,0.7 F,0,88657,88957,0.5,0
Sprite,Foreground,Centre,"sb\cbv.png",85,289 F,0,88573,,0.5 C,0,88573,,200,200,204 S,19,88573,88873,0.1,0.7 F,0,88973,89273,0.5,0
Sprite,Foreground,Centre,"sb\cbv.png",168,344 F,0,88889,,0.5 C,0,88889,,157,158,168 S,19,88889,89189,0.1,0.7 F,0,89289,89589,0.5,0
Sprite,Foreground,Centre,"sb\cbv.png",303,350 F,0,89362,,0.5 C,0,89362,,157,158,168 S,19,89362,89662,0.1,0.7 F,0,89762,90062,0.5,0
Sprite,Foreground,Centre,"sb\cbv.png",395,388 F,0,89678,,0.5 C,0,89678,,157,158,168 S,19,89678,89978,0.1,0.7 F,0,90078,90378,0.5,0
Sprite,Foreground,Centre,"sb\cbv.png",395,388 F,0,89836,,0.5 C,0,89836,,157,158,168 S,19,89836,90136,0.1,0.7 F,0,90236,90536,0.5,0
Sprite,Foreground,Centre,"sb\cbv.png",395,388 F,0,89994,,0.5 C,0,89994,,157,158,168 S,19,89994,90294,0.1,0.7 F,0,90394,90694,0.5,0
Sprite,Foreground,Centre,"sb\cbv.png",529,328 F,0,90468,,0.5 C,0,90468,,157,158,168 S,19,90468,90768,0.1,0.7 F,0,90868,91168,0.5,0
Sprite,Foreground,Centre,"sb\cbv.png",529,328 F,0,90625,,0.5 C,0,90625,,157,158,168 S,19,90625,90925,0.1,0.7 F,0,91025,91325,0.5,0
Sprite,Foreground,Centre,"sb\cbv.png",460,255 F,0,90941,,0.5 C,0,90941,,157,158,168 S,19,90941,91241,0.1,0.7 F,0,91341,91641,0.5,0
Sprite,Foreground,Centre,"sb\cbv.png",366,282 F,0,91257,,0.5 C,0,91257,,157,158,168 S,19,91257,91557,0.1,0.7 F,0,91657,91957,0.5,0
Sprite,Foreground,Centre,"sb\cbv.png",366,282 F,0,91415,,0.5 C,0,91415,,112,123,169 S,19,91415,91715,0.1,0.7 F,0,91815,92115,0.5,0
Sprite,Foreground,Centre,"sb\cbv.png",317,162 F,0,92046,,0.5 C,0,92046,,112,123,169 S,19,92046,92346,0.1,0.7 F,0,92446,92746,0.5,0
Sprite,Foreground,Centre,"sb\cbv.png",413,67 F,0,92520,,0.5 C,0,92520,,112,123,169 S,19,92520,92820,0.1,0.7 F,0,92920,93220,0.5,0
Sprite,Foreground,Centre,"sb\cbv.png",519,153 F,0,92994,,0.5 C,0,92994,,112,123,169 S,19,92994,93294,0.1,0.7 F,0,93394,93694,0.5,0
Sprite,Foreground,Centre,"sb\cbv.png",457,253 F,0,93389,,0.5 C,0,93389,,112,123,169 S,19,93389,93689,0.1,0.7 F,0,93789,94089,0.5,0
Sprite,Foreground,Centre,"sb\cbv.png",287,254 F,0,93941,,0.5 C,0,93941,,81,73,120 S,19,93941,94241,0.1,0.7 F,0,94341,94641,0.5,0
Sprite,Foreground,Centre,"sb\cbv.png",182,340 F,0,94415,,0.5 C,0,94415,,81,73,120 S,19,94415,94715,0.1,0.7 F,0,94815,95115,0.5,0
Sprite,Foreground,Centre,"sb\cbv.png",93,266 F,0,94889,,0.5 C,0,94889,,81,73,120 S,19,94889,95189,0.1,0.7 F,0,95289,95589,0.5,0
Sprite,Foreground,Centre,"sb\cbv.png",93,266 F,0,95046,,0.5 C,0,95046,,81,73,120 S,19,95046,95346,0.1,0.7 F,0,95446,95746,0.5,0
Sprite,Foreground,Centre,"sb\cbv.png",157,194 F,0,95520,,0.5 C,0,95520,,81,73,120 S,19,95520,95820,0.1,0.7 F,0,95920,96220,0.5,0
Sprite,Foreground,Centre,"sb\cbv.png",251,160 F,0,95836,,0.5 C,0,95836,,81,73,120 S,19,95836,96136,0.1,0.7 F,0,96236,96536,0.5,0
Sprite,Foreground,Centre,"sb\cbv.png",338,228 F,0,96152,,0.5 C,0,96152,,81,73,120 S,19,96152,96452,0.1,0.7 F,0,96552,96852,0.5,0
Sprite,Foreground,Centre,"sb\cbv.png",338,228 F,0,96310,,0.5 C,0,96310,,81,73,120 S,19,96310,96610,0.1,0.7 F,0,96710,97010,0.5,0
Sprite,Foreground,Centre,"sb\cbv.png",338,228 F,0,96468,,0.5 C,0,96468,,200,200,204 S,19,96468,96768,0.1,0.7 F,0,96868,97168,0.5,0
Sprite,Foreground,Centre,"sb\cbv.png",482,188 F,0,96941,,0.5 C,0,96941,,200,200,204 S,19,96941,97241,0.1,0.7 F,0,97341,97641,0.5,0
Sprite,Foreground,Centre,"sb\cbv.png",443,95 F,0,97257,,0.5 C,0,97257,,200,200,204 S,19,97257,97557,0.1,0.7 F,0,97657,97957,0.5,0
Sprite,Foreground,Centre,"sb\cbv.png",348,128 F,0,97573,,0.5 C,0,97573,,200,200,204 S,19,97573,97873,0.1,0.7 F,0,97973,98273,0.5,0
Sprite,Foreground,Centre,"sb\cbv.png",244,61 F,0,98046,,0.5 C,0,98046,,200,200,204 S,19,98046,98346,0.1,0.7 F,0,98446,98746,0.5,0
Sprite,Foreground,Centre,"sb\cbv.png",244,61 F,0,98204,,0.5 C,0,98204,,200,200,204 S,19,98204,98504,0.1,0.7 F,0,98604,98904,0.5,0
Sprite,Foreground,Centre,"sb\cbv.png",170,128 F,0,98520,,0.5 C,0,98520,,200,200,204 S,19,98520,98820,0.1,0.7 F,0,98920,99220,0.5,0
Sprite,Foreground,Centre,"sb\cbv.png",170,128 F,0,98678,,0.5 C,0,98678,,200,200,204 S,19,98678,98978,0.1,0.7 F,0,99078,99378,0.5,0
Sprite,Foreground,Centre,"sb\cbv.png",97,184 F,0,98994,,0.5 C,0,98994,,157,158,168 S,19,98994,99294,0.1,0.7 F,0,99394,99694,0.5,0
Sprite,Foreground,Centre,"sb\cbv.png",155,294 F,0,99468,,0.5 C,0,99468,,157,158,168 S,19,99468,99768,0.1,0.7 F,0,99868,100168,0.5,0
Sprite,Foreground,Centre,"sb\cbv.png",243,248 F,0,99783,,0.5 C,0,99783,,157,158,168 S,19,99783,100083,0.1,0.7 F,0,100183,100483,0.5,0
Sprite,Foreground,Centre,"sb\cbv.png",327,301 F,0,100099,,0.5 C,0,100099,,157,158,168 S,19,100099,100399,0.1,0.7 F,0,100499,100799,0.5,0
Sprite,Foreground,Centre,"sb\cbv.png",468,348 F,0,100573,,0.5 C,0,100573,,157,158,168 S,19,100573,100873,0.1,0.7 F,0,100973,101273,0.5,0
Sprite,Foreground,Centre,"sb\cbv.png",407,427 F,0,100889,,0.5 C,0,100889,,157,158,168 S,19,100889,101189,0.1,0.7 F,0,101289,101589,0.5,0
Sprite,Foreground,Centre,"sb\cbv.png",314,426 F,0,101204,,0.5 C,0,101204,,157,158,168 S,19,101204,101504,0.1,0.7 F,0,101604,101904,0.5,0
Sprite,Foreground,Centre,"sb\cbv.png",314,426 F,0,101362,,0.5 C,0,101362,,112,123,169 S,19,101362,101662,0.1,0.7 F,0,101762,102062,0.5,0
Sprite,Foreground,Centre,"sb\cbv.png",197,365 F,0,101836,,0.5 C,0,101836,,112,123,169 S,19,101836,102136,0.1,0.7 F,0,102236,102536,0.5,0
Sprite,Foreground,Centre,"sb\cbv.png",197,365 F,0,101994,,0.5 C,0,101994,,112,123,169 S,19,101994,102294,0.1,0.7 F,0,102394,102694,0.5,0
Sprite,Foreground,Centre,"sb\cbv.png",263,291 F,0,102310,,0.5 C,0,102310,,112,123,169 S,19,102310,102610,0.1,0.7 F,0,102710,103010,0.5,0
Sprite,Foreground,Centre,"sb\cbv.png",263,291 F,0,102468,,0.5 C,0,102468,,112,123,169 S,19,102468,102768,0.1,0.7 F,0,102868,103168,0.5,0
Sprite,Foreground,Centre,"sb\cbv.png",263,291 F,0,102625,,0.5 C,0,102625,,112,123,169 S,19,102625,102925,0.1,0.7 F,0,103025,103325,0.5,0
Sprite,Foreground,Centre,"sb\cbv.png",323,99 F,0,103415,,0.5 C,0,103415,,81,73,120 S,19,103415,103715,0.1,0.7 F,0,103815,104115,0.5,0
Sprite,Foreground,Centre,"sb\cbv.png",323,99 F,0,103573,,0.5 C,0,103573,,81,73,120 S,19,103573,103873,0.1,0.7 F,0,103973,104273,0.5,0
Sprite,Foreground,Centre,"sb\cbv.png",323,99 F,0,103731,,0.5 C,0,103731,,81,73,120 S,19,103731,104031,0.1,0.7 F,0,104131,104431,0.5,0
//Storyboard Layer 4 (Overlay)
//Storyboard Sound Samples

[TimingPoints]
468,315.789473684211,4,2,1,53,1,0
12389,-100,4,2,1,5,0,0
12468,-100,4,2,1,60,0,0
33310,-100,4,2,1,53,0,0
42704,-100,4,2,1,5,0,0
42783,-100,4,2,1,66,0,0
42862,-100,4,2,1,5,0,0
42941,-100,4,2,1,66,0,0
43020,-100,4,2,1,5,0,0
43099,-100,4,2,1,66,0,0
43178,-100,4,2,1,5,0,0
43257,-100,4,2,1,66,0,0
43336,-100,4,2,1,5,0,0
43415,-100,4,2,1,66,0,0
63152,-100,4,2,1,52,0,0
63625,-100,4,2,1,77,0,0
83283,-100,4,2,1,5,0,0
83362,-100,4,2,1,77,0,0
83441,-100,4,2,1,5,0,0
83520,-100,4,2,1,77,0,0
83836,-100,4,2,1,77,0,0
103494,-100,4,2,1,5,0,0
103573,-100,4,2,1,77,0,0
103652,-100,4,2,1,5,0,0
103731,-100,4,2,1,77,0,0
103810,-100,4,2,1,5,0,0
103889,-100,4,2,1,77,0,0
103968,-100,4,2,1,5,0,0
104046,-100,4,2,1,46,0,0

[Colours]
Combo1 : 157,158,168
Combo2 : 112,123,169
Combo3 : 81,73,120
Combo4 : 200,200,204

[HitObjects]
107,321,12468,6,0,L|44:333,2,50,8|8|8,0:1|0:1|0:1,0:0:0:0:
145,289,12941,1,8,0:1:0:0:
145,289,13099,2,0,P|181:318|249:309,1,100,0|8,3:0|0:0,0:0:0:0:
277,293,13573,1,0,3:0:0:0:
358,351,13889,1,8,0:0:0:0:
445,303,14204,6,0,B|458:254|458:254|427:192,1,100,2|2,0:0|3:2,0:0:0:0:
404,177,14678,1,10,0:0:0:0:
404,177,14836,1,0,3:0:0:0:
337,102,15152,2,0,L|329:33,2,50,10|2|2,0:0|0:0|0:0,0:0:0:0:
298,133,15625,6,0,P|259:150|199:136,1,100,2|8,3:2|0:0,0:0:0:0:
159,162,16099,1,2,3:2:0:0:
87,92,16415,1,10,0:0:0:0:
167,31,16731,2,0,P|216:26|285:13,1,100,2|2,0:0|3:2,0:0:0:0:
315,24,17204,1,8,0:0:0:0:
315,24,17362,1,0,3:0:0:0:
384,103,17678,1,0,0:0:0:0:
384,103,17836,2,0,L|369:165,1,50
331,181,18152,6,0,P|290:203|225:187,1,100,0|8,3:0|0:0,0:0:0:0:
193,174,18625,1,2,3:2:0:0:
116,238,18941,1,10,0:0:0:0:
173,319,19257,2,0,L|287:336,1,100,2|2,0:0|3:2,0:0:0:0:
316,357,19731,1,8,0:0:0:0:
316,357,19889,1,0,3:0:0:0:
398,301,20204,1,10,0:0:0:0:
398,301,20362,2,0,L|412:229,1,50,2|2,0:0|0:0,0:0:0:0:
443,217,20678,6,0,P|464:184|434:103,1,100,2|8,3:2|0:0,0:0:0:0:
414,97,21152,1,0,3:0:0:0:
331,153,21468,1,8,0:0:0:0:
244,102,21783,1,0,0:0:0:0:
244,102,21941,2,0,P|197:112|123:122,1,100,0|8,0:0|0:0,0:0:0:0:
96,109,22415,1,0,3:0:0:0:
36,189,22731,1,10,0:0:0:0:
36,189,22889,2,0,L|49:250,1,50,2|2,0:0|0:0,0:0:0:0:
62,285,23204,1,2,3:2:0:0:
377,257,25257,6,0,L|446:269,2,50,2|10|0,3:2|0:0|0:0,0:0:0:0:
340,222,25731,2,0,P|355:166|360:110,1,100,0|8,3:0|0:0,0:0:0:0:
358,74,26204,1,2,3:2:0:0:
267,31,26520,2,0,B|225:52|225:52|159:39,1,100,10|2,0:2|0:0,0:0:0:0:
84,89,27152,2,0,L|99:155,1,50,2|8,3:2|0:0,0:0:0:0:
120,181,27468,6,0,P|168:167|246:158,1,100,2|8,3:2|0:0,0:0:0:0:
264,141,27941,1,0,0:0:0:0:
354,183,28257,2,0,P|369:225|351:290,1,100,2|8,3:2|0:0,0:0:0:0:
317,307,28731,1,0,3:0:0:0:
236,365,29046,1,2,3:2:0:0:
160,299,29362,2,0,P|102:286|41:262,1,100,0|0,0:0|3:0,0:0:0:0:
13,275,29836,1,8,0:0:0:0:
13,275,29994,1,2,3:2:0:0:
53,183,30310,1,2,3:2:0:0:
53,183,30468,2,0,L|38:105,1,50,2|0,0:0|0:0,0:0:0:0:
77,96,30783,6,0,P|121:122|189:111,1,100,0|8,3:0|0:0,0:0:0:0:
209,149,31257,1,2,3:2:0:0:
269,69,31573,1,10,0:2:0:0:
358,114,31889,2,0,P|369:163|377:232,1,100,2|2,0:0|3:2,0:0:0:0:
349,255,32362,1,8,0:0:0:0:
349,255,32520,1,2,3:2:0:0:
252,227,32836,2,0,P|210:250|132:230,1,100,2|0,3:2|0:0,0:0:0:0:
115,222,33310,5,2,3:2:0:0:
115,222,33468,2,0,L|96:110,1,100,2|2,3:2|3:2,0:0:0:0:
91,73,33941,1,2,3:2:0:0:
185,39,34257,1,2,3:2:0:0:
185,39,34415,2,0,P|227:60|311:25,1,100,2|2,3:2|3:2,0:0:0:0:
323,31,34889,1,2,3:2:0:0:
473,290,35836,5,2,3:2:0:0:
473,290,35994,2,0,L|372:308,1,100,2|2,3:2|3:2,0:0:0:0:
335,275,36468,1,2,3:2:0:0:
364,179,36783,1,2,3:2:0:0:
364,179,36941,2,0,B|380:130|380:130|347:71,1,100,2|2,3:2|3:2,0:0:0:0:
308,72,37415,1,2,3:2:0:0:
53,230,38362,5,2,3:2:0:0:
53,230,38520,2,0,L|175:243,1,100,2|2,3:2|3:2,0:0:0:0:
198,261,38994,1,2,3:2:0:0:
301,258,39310,1,2,3:2:0:0:
301,258,39468,2,0,P|316:311|293:362,1,100,2|2,3:2|3:2,0:0:0:0:
255,371,39941,1,2,3:2:0:0:
381,282,42783,6,0,L|453:293,2,50,8|8|8,0:1|0:1|0:1,0:0:0:0:
337,308,43257,1,8,0:1:0:0:
337,308,43415,2,0,P|273:310|243:211,1,150,2|0,3:2|0:0,0:0:0:0:
225,192,44046,1,10,0:0:0:0:
148,127,44362,1,0,3:0:0:0:
148,127,44520,2,0,P|100:120|57:173,1,100,10|0,0:2|3:0,0:0:0:0:
45,198,44994,1,10,0:0:0:0:
93,285,45310,1,0,3:0:0:0:
93,285,45468,2,0,P|139:293|227:319,1,100,10|0,0:0|0:0,0:0:0:0:
232,334,45941,6,0,B|284:344|284:344|342:310,1,100,2|8,3:2|0:0,0:0:0:0:
370,298,46415,1,2,3:2:0:0:
427,159,46889,1,2,1:2:0:0:
427,159,47046,2,0,P|377:153|268:130,1,150,2|8,3:2|0:0,0:0:0:0:
229,138,47678,2,0,P|240:89|171:23,1,150,2|8,3:2|0:0,0:0:0:0:
112,101,48468,6,0,B|80:186|154:160|110:274,1,150,2|0,3:2|0:0,0:0:0:0:
87,284,49099,1,10,0:0:0:0:
168,350,49415,1,0,3:0:0:0:
168,350,49573,2,0,P|214:333|285:323,1,100,10|0,0:0|3:0,0:0:0:0:
313,315,50046,1,10,0:0:0:0:
384,245,50362,1,0,3:0:0:0:
384,245,50520,2,0,P|391:199|342:143,1,100,10|0,0:0|0:0,0:0:0:0:
314,149,50994,6,0,P|249:169|196:181,1,100,2|2,3:2|0:0,0:0:0:0:
150,254,51625,2,0,L|68:237,1,50,10|2,1:2|1:2,0:0:0:0:
56,234,51941,1,10,1:2:0:0:
56,234,52099,1,2,3:2:0:0:
16,89,52573,5,2,1:2:0:0:
16,89,52731,2,0,P|66:83|134:61,1,100,2|8,3:2|0:0,0:0:0:0:
162,58,53204,1,2,3:2:0:0:
255,21,53520,6,0,B|300:44|300:44|375:34,1,100,2|10,3:2|0:0,0:0:0:0:
399,37,53994,1,2,3:2:0:0:
481,162,54468,1,8,0:0:0:0:
481,162,54625,2,0,B|488:209|488:209|472:239|472:239|480:266|480:266|460:325,1,150,2|8,3:2|0:0,0:0:0:0:
419,318,55257,2,0,B|368:297|368:297|281:286,1,100,2|0,3:2|0:0,0:0:0:0:
274,306,55731,1,8,0:0:0:0:
176,328,56046,6,0,P|93:327|59:258,1,150,2|2,3:2|1:2,0:0:0:0:
83,231,56678,2,0,L|94:155,1,50,10|2,1:2|3:2,0:0:0:0:
101,142,56994,1,10,1:2:0:0:
101,142,57152,2,0,B|154:172|154:172|181:173|181:173|286:184,1,150,2|10,3:2|0:0,0:0:0:0:
293,164,57783,2,0,B|335:186|335:186|418:183,1,100,2|8,3:2|0:0,0:0:0:0:
435,169,58257,1,2,3:2:0:0:
499,92,58573,6,0,B|491:44|491:44|449:19|449:19|418:18|418:18|390:9,1,150,0|2,0:0|0:0,0:0:0:0:
351,31,59204,1,10,0:0:0:0:
266,81,59520,1,0,3:0:0:0:
266,81,59678,2,0,B|211:76|211:76|158:45,1,100,10|0,0:0|3:0,0:0:0:0:
123,39,60152,1,10,0:0:0:0:
79,131,60468,1,0,3:0:0:0:
79,131,60625,2,0,B|100:168|100:168|91:203|91:203|94:238,1,100,10|0,0:0|0:0,0:0:0:0:
139,243,61099,5,2,3:2:0:0:
227,195,61415,1,8,0:0:0:0:
227,195,61573,2,0,B|272:215|272:215|324:216,1,100,2|2,3:2|1:2,0:0:0:0:
371,204,62046,1,2,1:2:0:0:
371,204,62204,1,2,1:2:0:0:
277,364,63625,6,0,P|271:307|238:237,1,100,4|8,3:2|0:0,0:0:0:0:
223,229,64099,1,0,3:0:0:0:
126,256,64415,2,0,L|33:233,1,50,10|2,0:0|0:0,0:0:0:0:
45,205,64731,2,0,P|31:166|87:105,1,100,2|2,0:0|3:2,0:0:0:0:
104,103,65204,1,10,0:0:0:0:
104,103,65362,1,2,0:0:0:0:
196,60,65678,1,10,0:0:0:0:
196,60,65836,2,0,L|220:-17,1,50,2|2,0:0|0:0,0:0:0:0:
260,2,66152,6,0,B|306:25|306:25|368:22,1,100,2|10,3:2|0:0,0:0:0:0:
401,40,66625,1,2,3:2:0:0:
480,100,66941,1,10,0:0:0:0:
436,189,67257,2,0,P|418:232|401:304,1,100,2|2,0:0|3:2,0:0:0:0:
375,325,67731,1,10,0:0:0:0:
375,325,67889,1,0,0:0:0:0:
283,300,68204,1,8,0:0:0:0:
283,300,68362,2,0,L|216:319,1,50,2|2,0:2|0:2,0:0:0:0:
187,331,68678,6,0,P|159:302|175:235,1,100,2|10,3:2|0:0,0:0:0:0:
198,208,69152,1,2,3:2:0:0:
189,116,69468,1,10,0:0:0:0:
189,116,69625,1,2,0:0:0:0:
189,116,69783,2,0,P|181:69|154:6,1,100,2|0,0:0|3:0,0:0:0:0:
111,17,70257,1,10,0:2:0:0:
13,41,70573,1,2,0:2:0:0:
7,138,70889,1,2,0:2:0:0:
88,195,71204,6,0,P|103:247|115:327,1,100,0|10,0:0|0:0,0:0:0:0:
188,356,71836,2,0,P|154:371|100:369,2,75,2|2|2,3:2|3:2|3:2,0:0:0:0:
250,315,72546,2,0,P|280:315|320:348,1,75,2|2,3:2|3:2,0:0:0:0:
391,366,73020,1,2,3:2:0:0:
391,366,73178,2,0,P|422:352|482:334,1,75,2|10,3:2|0:0,0:0:0:0:
450,239,73731,6,0,B|473:195|473:195|444:126,1,100,2|8,3:2|0:0,0:0:0:0:
411,121,74204,2,0,P|353:141|282:155,1,100,0|10,3:0|0:0,0:0:0:0:
276,129,74678,1,2,0:0:0:0:
276,129,74836,1,2,0:0:0:0:
196,188,75152,1,2,3:2:0:0:
196,188,75310,2,0,L|214:248,1,50,8|0,0:2|3:2,0:0:0:0:
179,274,75625,2,0,P|140:279|81:241,1,100,0|0,0:2|0:2,0:0:0:0:
44,160,76257,6,0,P|50:117|79:52,1,100,2|10,0:2|0:0,0:0:0:0:
107,30,76731,1,2,3:2:0:0:
186,89,77046,1,8,0:0:0:0:
275,44,77362,2,0,P|332:33|391:7,1,100,2|0,0:0|3:0,0:0:0:0:
416,39,77836,1,10,0:2:0:0:
468,124,78152,1,2,0:2:0:0:
403,200,78468,2,0,L|331:178,1,50,2|2,0:2|0:2,0:0:0:0:
307,199,78783,6,0,P|287:235|296:304,1,100,2|10,3:2|0:0,0:0:0:0:
328,324,79257,1,2,3:2:0:0:
234,360,79573,2,0,L|168:343,1,50,8|2,0:0|0:0,0:0:0:0:
136,357,79889,2,0,P|76:338|17:330,1,100,2|0,0:0|3:0,0:0:0:0:
26,283,80362,1,10,0:0:0:0:
98,213,80678,2,0,L|116:156,1,50,2|10,0:0|0:0,0:0:0:0:
97,117,80994,1,2,0:0:0:0:
97,117,81152,2,0,P|117:69|194:65,1,100,2|0,0:0|0:0,0:0:0:0:
205,73,81625,5,8,0:0:0:0:
205,73,81783,1,0,3:0:0:0:
295,30,82099,1,10,0:0:0:0:
359,106,82415,2,0,P|344:156|326:227,1,100,2|0,0:0|3:0,0:0:0:0:
304,244,82889,1,8,0:0:0:0:
215,197,83204,5,8,0:1:0:0:
215,197,83362,1,8,0:1:0:0:
215,197,83520,2,0,L|139:179,1,50,8|8,0:1|0:1,0:0:0:0:
116,175,83836,1,8,0:1:0:0:
400,378,85731,6,0,L|412:313,1,50,8|8,0:1|0:0,0:0:0:0:
444,294,86046,1,8,0:1:0:0:
353,250,86362,6,0,P|308:268|236:283,1,100,8|10,0:1|0:0,0:0:0:0:
228,320,86836,1,2,3:2:0:0:
143,266,87152,2,0,L|159:209,1,50,10|2,0:0|0:0,0:0:0:0:
198,190,87468,2,0,P|196:145|149:94,1,100,2|0,0:0|3:0,0:0:0:0:
115,90,87941,1,10,0:2:0:0:
43,146,88257,2,0,L|61:231,1,50,2|10,0:2|0:2,0:0:0:0:
21,233,88573,1,2,0:2:0:0:
104,288,88889,6,0,P|153:273|229:260,1,100,2|10,3:2|0:0,0:0:0:0:
239,294,89362,1,2,3:2:0:0:
331,332,89678,1,10,0:0:0:0:
331,332,89836,1,2,0:0:0:0:
331,332,89994,2,0,P|374:317|453:302,1,100,2|0,0:0|3:0,0:0:0:0:
465,272,90468,1,8,0:0:0:0:
465,272,90625,1,2,3:2:0:0:
396,199,90941,2,0,L|339:216,1,50,10|2,0:2|0:2,0:0:0:0:
302,226,91257,1,2,0:2:0:0:
302,226,91415,6,0,P|243:226|208:173,1,100,2|10,3:2|0:0,0:0:0:0:
253,106,92046,2,0,P|270:72|280:22,1,75,2|2,3:2|3:2,0:0:0:0:
349,11,92520,2,0,P|384:23|421:30,1,75,2|2,3:2|3:2,0:0:0:0:
455,97,92994,2,0,P|442:132|435:169,1,75,2|2,3:2|3:2,0:0:0:0:
393,197,93389,2,0,P|357:184|321:176,1,75,2|10,3:2|0:0,0:0:0:0:
223,198,93941,6,0,P|200:254|148:268,1,100,2|10,3:2|0:0,0:0:0:0:
118,284,94415,2,0,P|66:264|-7:255,1,100,2|10,3:2|0:0,0:0:0:0:
29,210,94889,1,2,0:0:0:0:
29,210,95046,2,0,B|22:157|22:157|70:85,1,100,2|0,0:0|3:0,0:0:0:0:
93,138,95520,1,10,0:2:0:0:
187,104,95836,1,2,0:2:0:0:
274,172,96152,1,2,0:2:0:0:
274,172,96310,1,2,0:2:0:0:
274,172,96468,6,0,P|322:157|390:142,1,100,2|10,3:2|0:0,0:0:0:0:
418,132,96941,1,2,3:2:0:0:
379,39,97257,1,10,0:0:0:0:
284,72,97573,2,0,P|231:75|194:46,1,100,2|0,0:0|3:0,0:0:0:0:
180,5,98046,1,10,0:2:0:0:
180,5,98204,1,2,3:2:0:0:
106,72,98520,1,10,0:2:0:0:
106,72,98678,2,0,L|31:90,1,50,2|2,0:2|0:2,0:0:0:0:
33,128,98994,6,0,B|21:180|21:180|58:243,1,100,2|10,3:2|0:0,0:0:0:0:
91,238,99468,1,2,3:2:0:0:
179,192,99783,1,10,0:0:0:0:
263,245,100099,2,0,P|309:255|390:282,1,100,2|0,0:0|3:0,0:0:0:0:
404,292,100573,1,8,0:0:0:0:
343,371,100889,2,0,L|285:352,1,50,2|10,0:0|0:0,0:0:0:0:
250,370,101204,1,2,0:0:0:0:
250,370,101362,6,0,P|205:373|142:318,1,100,2|0,0:0|0:0,0:0:0:0:
133,309,101836,1,8,0:0:0:0:
133,309,101994,1,0,3:0:0:0:
199,235,102310,1,10,0:0:0:0:
199,235,102468,1,2,0:0:0:0:
199,235,102625,2,0,P|191:170|153:62,1,150,2|8,0:0|0:0,0:0:0:0:
259,43,103415,5,8,0:1:0:0:
259,43,103573,1,8,0:1:0:0:
259,43,103731,2,0,L|340:59,1,50,8|8,1:0|0:1,0:0:0:0:
355,68,104046,1,2,0:0:0:0:
