osu file format v14

[General]
AudioFilename: audio.mp3
AudioLeadIn: 0
PreviewTime: 63558
Countdown: 0
SampleSet: Soft
StackLeniency: 0.5
Mode: 0
LetterboxInBreaks: 0
EpilepsyWarning: 1
WidescreenStoryboard: 1

[Editor]
Bookmarks: 104058
DistanceSpacing: 1.2
BeatDivisor: 4
GridSize: 32
TimelineZoom: 2.599999

[Metadata]
Title:Hestia
TitleUnicode:Hestia
Artist:Street
ArtistUnicode:Street
Creator:GYGY
Version:Hyper
Source:Shooter's Festival 2019
Tags:featured artist fa electronic instrumental artcore sfes2019 drumstep dnb perennial 2021 nm4 gf grand finals drum and bass melodic K-Shoot MANIAチームイベント k shoot zekk bongo 0ppinosu mir shoenen
BeatmapID:3594160
BeatmapSetID:1707295

[Difficulty]
HPDrainRate:5
CircleSize:4
OverallDifficulty:7.5
ApproachRate:8.5
SliderMultiplier:1.4
SliderTickRate:1

[Events]
//Background and Video events
0,0,"9678cc594b48e013ddb2e6ab222433903e50b0d8_s2_n1.jpg",0,0
//Break Periods
2,84036,85020
//Storyboard Layer 0 (Background)
//Storyboard Layer 1 (Fail)
//Storyboard Layer 2 (Pass)
//Storyboard Layer 3 (Foreground)
Sprite,Foreground,Centre,"sb\hole.png",65,170 F,0,43415,,0.9 C,0,43415,,0,0,0 S,7,43415,44046,20,1
Sprite,Foreground,Centre,"sb\hole.png",118,440 F,0,44046,,0.9 C,0,44046,,0,0,0 S,34,44046,44420,1,6.5 S,19,44420,44520,6.5,1
Sprite,Foreground,Centre,"sb\hole.png",280,348 F,0,44520,,0.9 C,0,44520,,0,0,0 S,34,44520,44894,1,6.5 S,19,44894,44994,6.5,1
Sprite,Foreground,Centre,"sb\hole.png",365,428 F,0,44994,,0.9 C,0,44994,,0,0,0 S,34,44994,45368,1,6.5 S,19,45368,45468,6.5,1
Sprite,Foreground,Centre,"sb\hole.png",553,259 F,0,45468,,0.9 C,0,45468,,0,0,0 S,34,45468,45842,1,6.5 S,19,45842,45942,6.5,1
Sprite,Foreground,Centre,"sb\hole.png",532,187 F,0,45941,,0.9 C,0,45941,,0,0,0 S,7,45941,46357,1,22
Sprite,Foreground,Centre,"sb\hole.png",329,187 F,0,48468,,0.9 C,0,48468,,0,0,0 S,7,48468,49099,20,1
Sprite,Foreground,Centre,"sb\hole.png",437,225 F,0,49099,,0.9 C,0,49099,,0,0,0 S,34,49099,49473,1,6.5 S,19,49473,49573,6.5,1
Sprite,Foreground,Centre,"sb\hole.png",378,341 F,0,49573,,0.9 C,0,49573,,0,0,0 S,34,49573,49947,1,6.5 S,19,49947,50047,6.5,1
Sprite,Foreground,Centre,"sb\hole.png",261,307 F,0,50046,,0.9 C,0,50046,,0,0,0 S,34,50046,50420,1,6.5 S,19,50420,50520,6.5,1
Sprite,Foreground,Centre,"sb\hole.png",256,192 F,0,50520,,0.9 C,0,50520,,0,0,0 S,34,50520,50894,1,6.5 S,19,50894,50994,6.5,1
Sprite,Foreground,Centre,"sb\hole.png",350,250 F,0,50994,,0.9 C,0,50994,,0,0,0 S,7,50994,51410,1,22
Sprite,Foreground,Centre,"sb\hole.png",440,310 F,0,58573,,0.9 C,0,58573,,0,0,0 S,7,58573,59204,20,1
Sprite,Foreground,Centre,"sb\hole.png",491,315 F,0,59204,,0.9 C,0,59204,,0,0,0 S,34,59204,59578,1,6.5 S,19,59578,59678,6.5,1
Sprite,Foreground,Centre,"sb\hole.png",262,270 F,0,59678,,0.9 C,0,59678,,0,0,0 S,34,59678,60052,1,6.5 S,19,60052,60152,6.5,1
Sprite,Foreground,Centre,"sb\hole.png",186,300 F,0,60152,,0.9 C,0,60152,,0,0,0 S,34,60152,60526,1,6.5 S,19,60526,60626,6.5,1
Sprite,Foreground,Centre,"sb\hole.png",250,354 F,0,60625,,0.9 C,0,60625,,0,0,0 S,34,60625,60999,1,6.5 S,19,60999,61099,6.5,1
Sprite,Foreground,Centre,"sb\hole.png",79,415 F,0,61099,,0.9 C,0,61099,,0,0,0 S,7,61099,61515,1,22
Sprite,Foreground,Centre,"sb\cbv.png",329,181 F,0,86362,,0.5 C,0,86362,,200,200,204 S,19,86362,86662,0.1,0.7 F,0,86762,87062,0.5,0
Sprite,Foreground,Centre,"sb\cbv.png",451,325 F,0,86836,,0.5 C,0,86836,,200,200,204 S,19,86836,87136,0.1,0.7 F,0,87236,87536,0.5,0
Sprite,Foreground,Centre,"sb\cbv.png",537,216 F,0,87152,,0.5 C,0,87152,,200,200,204 S,19,87152,87452,0.1,0.7 F,0,87552,87852,0.5,0
Sprite,Foreground,Centre,"sb\cbv.png",537,216 F,0,87310,,0.5 C,0,87310,,200,200,204 S,19,87310,87610,0.1,0.7 F,0,87710,88010,0.5,0
Sprite,Foreground,Centre,"sb\cbv.png",392,265 F,0,87468,,0.5 C,0,87468,,200,200,204 S,19,87468,87768,0.1,0.7 F,0,87868,88168,0.5,0
Sprite,Foreground,Centre,"sb\cbv.png",424,413 F,0,87625,,0.5 C,0,87625,,157,158,168 S,19,87625,87925,0.1,0.7 F,0,88025,88325,0.5,0
Sprite,Foreground,Centre,"sb\cbv.png",268,321 F,0,87941,,0.5 C,0,87941,,157,158,168 S,19,87941,88241,0.1,0.7 F,0,88341,88641,0.5,0
Sprite,Foreground,Centre,"sb\cbv.png",245,305 F,0,88020,,0.5 C,0,88020,,157,158,168 S,19,88020,88320,0.1,0.7 F,0,88420,88720,0.5,0
Sprite,Foreground,Centre,"sb\cbv.png",218,297 F,0,88099,,0.5 C,0,88099,,157,158,168 S,19,88099,88399,0.1,0.7 F,0,88499,88799,0.5,0
Sprite,Foreground,Centre,"sb\cbv.png",190,296 F,0,88178,,0.5 C,0,88178,,157,158,168 S,19,88178,88478,0.1,0.7 F,0,88578,88878,0.5,0
Sprite,Foreground,Centre,"sb\cbv.png",163,304 F,0,88257,,0.5 C,0,88257,,157,158,168 S,19,88257,88557,0.1,0.7 F,0,88657,88957,0.5,0
Sprite,Foreground,Centre,"sb\cbv.png",143,322 F,0,88336,,0.5 C,0,88336,,157,158,168 S,19,88336,88636,0.1,0.7 F,0,88736,89036,0.5,0
Sprite,Foreground,Centre,"sb\cbv.png",132,347 F,0,88415,,0.5 C,0,88415,,157,158,168 S,19,88415,88715,0.1,0.7 F,0,88815,89115,0.5,0
Sprite,Foreground,Centre,"sb\cbv.png",212,424 F,0,88731,,0.5 C,0,88731,,157,158,168 S,19,88731,89031,0.1,0.7 F,0,89131,89431,0.5,0
Sprite,Foreground,Centre,"sb\cbv.png",84,234 F,0,88889,,0.5 C,0,88889,,112,123,169 S,19,88889,89189,0.1,0.7 F,0,89289,89589,0.5,0
Sprite,Foreground,Centre,"sb\cbv.png",163,101 F,0,89362,,0.5 C,0,89362,,112,123,169 S,19,89362,89662,0.1,0.7 F,0,89762,90062,0.5,0
Sprite,Foreground,Centre,"sb\cbv.png",171,223 F,0,89678,,0.5 C,0,89678,,112,123,169 S,19,89678,89978,0.1,0.7 F,0,90078,90378,0.5,0
Sprite,Foreground,Centre,"sb\cbv.png",280,252 F,0,89836,,0.5 C,0,89836,,112,123,169 S,19,89836,90136,0.1,0.7 F,0,90236,90536,0.5,0
Sprite,Foreground,Centre,"sb\cbv.png",325,135 F,0,89994,,0.5 C,0,89994,,81,73,120 S,19,89994,90294,0.1,0.7 F,0,90394,90694,0.5,0
Sprite,Foreground,Centre,"sb\cbv.png",576,241 F,0,90468,,0.5 C,0,90468,,81,73,120 S,19,90468,90768,0.1,0.7 F,0,90868,91168,0.5,0
Sprite,Foreground,Centre,"sb\cbv.png",573,269 F,0,90546,,0.5 C,0,90546,,81,73,120 S,19,90546,90846,0.1,0.7 F,0,90946,91246,0.5,0
Sprite,Foreground,Centre,"sb\cbv.png",560,295 F,0,90625,,0.5 C,0,90625,,81,73,120 S,19,90625,90925,0.1,0.7 F,0,91025,91325,0.5,0
Sprite,Foreground,Centre,"sb\cbv.png",535,311 F,0,90704,,0.5 C,0,90704,,81,73,120 S,19,90704,91004,0.1,0.7 F,0,91104,91404,0.5,0
Sprite,Foreground,Centre,"sb\cbv.png",505,315 F,0,90783,,0.5 C,0,90783,,81,73,120 S,19,90783,91083,0.1,0.7 F,0,91183,91483,0.5,0
Sprite,Foreground,Centre,"sb\cbv.png",476,307 F,0,90862,,0.5 C,0,90862,,81,73,120 S,19,90862,91162,0.1,0.7 F,0,91262,91562,0.5,0
Sprite,Foreground,Centre,"sb\cbv.png",456,284 F,0,90941,,0.5 C,0,90941,,81,73,120 S,19,90941,91241,0.1,0.7 F,0,91341,91641,0.5,0
Sprite,Foreground,Centre,"sb\cbv.png",374,173 F,0,91257,,0.5 C,0,91257,,81,73,120 S,19,91257,91557,0.1,0.7 F,0,91657,91957,0.5,0
Sprite,Foreground,Centre,"sb\cbv.png",309,332 F,0,91415,,0.5 C,0,91415,,200,200,204 S,19,91415,91715,0.1,0.7 F,0,91815,92115,0.5,0
Sprite,Foreground,Centre,"sb\cbv.png",490,208 F,0,92046,,0.5 C,0,92046,,157,158,168 S,19,92046,92346,0.1,0.7 F,0,92446,92746,0.5,0
Sprite,Foreground,Centre,"sb\cbv.png",519,386 F,0,92283,,0.5 C,0,92283,,112,123,169 S,19,92283,92583,0.1,0.7 F,0,92683,92983,0.5,0
Sprite,Foreground,Centre,"sb\cbv.png",376,217 F,0,92520,,0.5 C,0,92520,,81,73,120 S,19,92520,92820,0.1,0.7 F,0,92920,93220,0.5,0
Sprite,Foreground,Centre,"sb\cbv.png",402,377 F,0,92757,,0.5 C,0,92757,,200,200,204 S,19,92757,93057,0.1,0.7 F,0,93157,93457,0.5,0
Sprite,Foreground,Centre,"sb\cbv.png",268,355 F,0,92994,,0.5 C,0,92994,,157,158,168 S,19,92994,93294,0.1,0.7 F,0,93394,93694,0.5,0
Sprite,Foreground,Centre,"sb\cbv.png",259,226 F,0,93231,,0.5 C,0,93231,,112,123,169 S,19,93231,93531,0.1,0.7 F,0,93631,93931,0.5,0
Sprite,Foreground,Centre,"sb\cbv.png",194,388 F,0,93389,,0.5 C,0,93389,,112,123,169 S,19,93389,93689,0.1,0.7 F,0,93789,94089,0.5,0
Sprite,Foreground,Centre,"sb\cbv.png",76,278 F,0,93625,,0.5 C,0,93625,,81,73,120 S,19,93625,93925,0.1,0.7 F,0,94025,94325,0.5,0
Sprite,Foreground,Centre,"sb\cbv.png",275,100 F,0,93941,,0.5 C,0,93941,,200,200,204 S,19,93941,94241,0.1,0.7 F,0,94341,94641,0.5,0
Sprite,Foreground,Centre,"sb\cbv.png",121,155 F,0,94415,,0.5 C,0,94415,,200,200,204 S,19,94415,94715,0.1,0.7 F,0,94815,95115,0.5,0
Sprite,Foreground,Centre,"sb\cbv.png",364,57 F,0,94731,,0.5 C,0,94731,,200,200,204 S,19,94731,95031,0.1,0.7 F,0,95131,95431,0.5,0
Sprite,Foreground,Centre,"sb\cbv.png",544,104 F,0,94889,,0.5 C,0,94889,,200,200,204 S,19,94889,95189,0.1,0.7 F,0,95289,95589,0.5,0
Sprite,Foreground,Centre,"sb\cbv.png",528,113 F,0,94968,,0.5 C,0,94968,,200,200,204 S,19,94968,95268,0.1,0.7 F,0,95368,95668,0.5,0
Sprite,Foreground,Centre,"sb\cbv.png",504,116 F,0,95046,,0.5 C,0,95046,,157,158,168 S,19,95046,95346,0.1,0.7 F,0,95446,95746,0.5,0
Sprite,Foreground,Centre,"sb\cbv.png",517,377 F,0,95520,,0.5 C,0,95520,,157,158,168 S,19,95520,95820,0.1,0.7 F,0,95920,96220,0.5,0
Sprite,Foreground,Centre,"sb\cbv.png",497,391 F,0,95599,,0.5 C,0,95599,,157,158,168 S,19,95599,95899,0.1,0.7 F,0,95999,96299,0.5,0
Sprite,Foreground,Centre,"sb\cbv.png",473,398 F,0,95678,,0.5 C,0,95678,,157,158,168 S,19,95678,95978,0.1,0.7 F,0,96078,96378,0.5,0
Sprite,Foreground,Centre,"sb\cbv.png",448,396 F,0,95757,,0.5 C,0,95757,,157,158,168 S,19,95757,96057,0.1,0.7 F,0,96157,96457,0.5,0
Sprite,Foreground,Centre,"sb\cbv.png",425,386 F,0,95836,,0.5 C,0,95836,,157,158,168 S,19,95836,96136,0.1,0.7 F,0,96236,96536,0.5,0
Sprite,Foreground,Centre,"sb\cbv.png",407,368 F,0,95915,,0.5 C,0,95915,,157,158,168 S,19,95915,96215,0.1,0.7 F,0,96315,96615,0.5,0
Sprite,Foreground,Centre,"sb\cbv.png",397,345 F,0,95994,,0.5 C,0,95994,,157,158,168 S,19,95994,96294,0.1,0.7 F,0,96394,96694,0.5,0
Sprite,Foreground,Centre,"sb\cbv.png",320,392 F,0,96310,,0.5 C,0,96310,,157,158,168 S,19,96310,96610,0.1,0.7 F,0,96710,97010,0.5,0
Sprite,Foreground,Centre,"sb\cbv.png",223,361 F,0,96468,,0.5 C,0,96468,,112,123,169 S,19,96468,96768,0.1,0.7 F,0,96868,97168,0.5,0
Sprite,Foreground,Centre,"sb\cbv.png",124,283 F,0,96941,,0.5 C,0,96941,,112,123,169 S,19,96941,97241,0.1,0.7 F,0,97341,97641,0.5,0
Sprite,Foreground,Centre,"sb\cbv.png",194,198 F,0,97099,,0.5 C,0,97099,,112,123,169 S,19,97099,97399,0.1,0.7 F,0,97499,97799,0.5,0
Sprite,Foreground,Centre,"sb\cbv.png",201,179 F,0,97178,,0.5 C,0,97178,,112,123,169 S,19,97178,97478,0.1,0.7 F,0,97578,97878,0.5,0
Sprite,Foreground,Centre,"sb\cbv.png",203,159 F,0,97257,,0.5 C,0,97257,,112,123,169 S,19,97257,97557,0.1,0.7 F,0,97657,97957,0.5,0
Sprite,Foreground,Centre,"sb\cbv.png",71,231 F,0,97573,,0.5 C,0,97573,,81,73,120 S,19,97573,97873,0.1,0.7 F,0,97973,98273,0.5,0
Sprite,Foreground,Centre,"sb\cbv.png",359,281 F,0,98046,,0.5 C,0,98046,,81,73,120 S,19,98046,98346,0.1,0.7 F,0,98446,98746,0.5,0
Sprite,Foreground,Centre,"sb\cbv.png",370,265 F,0,98125,,0.5 C,0,98125,,81,73,120 S,19,98125,98425,0.1,0.7 F,0,98525,98825,0.5,0
Sprite,Foreground,Centre,"sb\cbv.png",378,247 F,0,98204,,0.5 C,0,98204,,81,73,120 S,19,98204,98504,0.1,0.7 F,0,98604,98904,0.5,0
Sprite,Foreground,Centre,"sb\cbv.png",380,227 F,0,98283,,0.5 C,0,98283,,81,73,120 S,19,98283,98583,0.1,0.7 F,0,98683,98983,0.5,0
Sprite,Foreground,Centre,"sb\cbv.png",375,207 F,0,98362,,0.5 C,0,98362,,81,73,120 S,19,98362,98662,0.1,0.7 F,0,98762,99062,0.5,0
Sprite,Foreground,Centre,"sb\cbv.png",365,189 F,0,98441,,0.5 C,0,98441,,81,73,120 S,19,98441,98741,0.1,0.7 F,0,98841,99141,0.5,0
Sprite,Foreground,Centre,"sb\cbv.png",349,177 F,0,98520,,0.5 C,0,98520,,81,73,120 S,19,98520,98820,0.1,0.7 F,0,98920,99220,0.5,0
Sprite,Foreground,Centre,"sb\cbv.png",403,113 F,0,98836,,0.5 C,0,98836,,81,73,120 S,19,98836,99136,0.1,0.7 F,0,99236,99536,0.5,0
Sprite,Foreground,Centre,"sb\cbv.png",491,193 F,0,98994,,0.5 C,0,98994,,200,200,204 S,19,98994,99294,0.1,0.7 F,0,99394,99694,0.5,0
Sprite,Foreground,Centre,"sb\cbv.png",493,107 F,0,99468,,0.5 C,0,99468,,200,200,204 S,19,99468,99768,0.1,0.7 F,0,99868,100168,0.5,0
Sprite,Foreground,Centre,"sb\cbv.png",570,323 F,0,99783,,0.5 C,0,99783,,200,200,204 S,19,99783,100083,0.1,0.7 F,0,100183,100483,0.5,0
Sprite,Foreground,Centre,"sb\cbv.png",470,303 F,0,99941,,0.5 C,0,99941,,200,200,204 S,19,99941,100241,0.1,0.7 F,0,100341,100641,0.5,0
Sprite,Foreground,Centre,"sb\cbv.png",387,407 F,0,100099,,0.5 C,0,100099,,157,158,168 S,19,100099,100399,0.1,0.7 F,0,100499,100799,0.5,0
Sprite,Foreground,Centre,"sb\cbv.png",392,320 F,0,100573,,0.5 C,0,100573,,157,158,168 S,19,100573,100873,0.1,0.7 F,0,100973,101273,0.5,0
Sprite,Foreground,Centre,"sb\cbv.png",335,232 F,0,100731,,0.5 C,0,100731,,157,158,168 S,19,100731,101031,0.1,0.7 F,0,101131,101431,0.5,0
Sprite,Foreground,Centre,"sb\cbv.png",392,177 F,0,100889,,0.5 C,0,100889,,157,158,168 S,19,100889,101189,0.1,0.7 F,0,101289,101589,0.5,0
Sprite,Foreground,Centre,"sb\cbv.png",514,200 F,0,101046,,0.5 C,0,101046,,157,158,168 S,19,101046,101346,0.1,0.7 F,0,101446,101746,0.5,0
Sprite,Foreground,Centre,"sb\cbv.png",486,110 F,0,101204,,0.5 C,0,101204,,157,158,168 S,19,101204,101504,0.1,0.7 F,0,101604,101904,0.5,0
Sprite,Foreground,Centre,"sb\cbv.png",416,246 F,0,101362,,0.5 C,0,101362,,157,158,168 S,19,101362,101662,0.1,0.7 F,0,101762,102062,0.5,0
Sprite,Foreground,Centre,"sb\cbv.png",313,154 F,0,101520,,0.5 C,0,101520,,112,123,169 S,19,101520,101820,0.1,0.7 F,0,101920,102220,0.5,0
Sprite,Foreground,Centre,"sb\cbv.png",69,102 F,0,101994,,0.5 C,0,101994,,112,123,169 S,19,101994,102294,0.1,0.7 F,0,102394,102694,0.5,0
Sprite,Foreground,Centre,"sb\cbv.png",160,292 F,0,102310,,0.5 C,0,102310,,112,123,169 S,19,102310,102610,0.1,0.7 F,0,102710,103010,0.5,0
Sprite,Foreground,Centre,"sb\cbv.png",120,379 F,0,102468,,0.5 C,0,102468,,112,123,169 S,19,102468,102768,0.1,0.7 F,0,102868,103168,0.5,0
Sprite,Foreground,Centre,"sb\cbv.png",241,330 F,0,102625,,0.5 C,0,102625,,81,73,120 S,19,102625,102925,0.1,0.7 F,0,103025,103325,0.5,0
Sprite,Foreground,Centre,"sb\cbv.png",178,292 F,0,103099,,0.5 C,0,103099,,81,73,120 S,19,103099,103399,0.1,0.7 F,0,103499,103799,0.5,0
Sprite,Foreground,Centre,"sb\cbv.png",420,320 F,0,103415,,0.5 C,0,103415,,200,200,204 S,19,103415,103715,0.1,0.7 F,0,103815,104115,0.5,0
Sprite,Foreground,Centre,"sb\cbv.png",474,206 F,0,103573,,0.5 C,0,103573,,200,200,204 S,19,103573,103873,0.1,0.7 F,0,103973,104273,0.5,0
Sprite,Foreground,Centre,"sb\cbv.png",379,97 F,0,103731,,0.5 C,0,103731,,200,200,204 S,19,103731,104031,0.1,0.7 F,0,104131,104431,0.5,0
Sprite,Foreground,Centre,"sb\cbv.png",325,211 F,0,103889,,0.5 C,0,103889,,200,200,204 S,19,103889,104189,0.1,0.7 F,0,104289,104589,0.5,0
//Storyboard Layer 4 (Overlay)
//Storyboard Sound Samples

[TimingPoints]
468,315.789473684211,4,2,1,53,1,0
468,-142.857142857143,4,2,1,53,0,0
2204,-90.9090909090909,4,2,1,53,0,0
2678,-142.857142857143,4,2,1,53,0,0
4731,-111.111111111111,4,2,1,53,0,0
8046,-100,4,2,1,53,0,0
8836,-83.3333333333333,4,2,1,53,0,0
10573,-95.2380952380952,4,2,1,53,0,0
12389,-95.2380952380952,4,2,1,5,0,0
12468,-95.2380952380952,4,2,1,60,0,0
12783,-62.5,4,2,1,60,0,0
13099,-100,4,2,1,60,0,0
18152,-83.3333333333333,4,2,1,60,0,0
18783,-100,4,2,1,60,0,0
20678,-83.3333333333333,4,2,1,60,0,0
21152,-100,4,2,1,60,0,0
23204,-125,4,2,1,60,0,0
24468,-100,4,2,1,60,0,0
24783,-125,4,2,1,60,0,0
25415,-83.3333333333333,4,2,1,60,0,0
27468,-100,4,2,1,60,0,0
30783,-83.3333333333333,4,2,1,60,0,0
31257,-100,4,2,1,60,0,0
32520,-76.9230769230769,4,2,1,60,0,0
33310,-76.9230769230769,4,2,1,53,0,0
35204,-142.857142857143,4,2,1,53,0,0
41994,-111.111111111111,4,2,1,53,0,0
42783,-76.9230769230769,4,2,1,66,0,0
43415,-83.3333333333333,4,2,1,66,0,0
44046,-142.857142857143,4,2,1,66,0,0
44520,-100,4,2,1,66,0,0
44994,-76.9230769230769,4,2,1,66,0,0
45468,-66.6666666666667,4,2,1,66,0,0
45941,-76.9230769230769,4,2,1,66,0,0
47046,-71.4285714285714,4,2,1,66,0,0
48468,-90.9090909090909,4,2,1,66,0,0
49099,-66.6666666666667,4,2,1,66,0,0
49573,-76.9230769230769,4,2,1,66,0,0
50046,-100,4,2,1,66,0,0
50520,-142.857142857143,4,2,1,66,0,0
50994,-71.4285714285714,4,2,1,66,0,0
52099,-100,4,2,1,66,0,0
52731,-76.9230769230769,4,2,1,66,0,0
53204,-111.111111111111,4,2,1,66,0,0
53520,-66.6666666666667,4,2,1,66,0,0
53994,-90.9090909090909,4,2,1,66,0,0
55257,-100,4,2,1,66,0,0
55731,-71.4285714285714,4,2,1,66,0,0
57152,-90.9090909090909,4,2,1,66,0,0
59204,-66.6666666666667,4,2,1,66,0,0
59678,-76.9230769230769,4,2,1,66,0,0
60152,-100,4,2,1,66,0,0
60625,-142.857142857143,4,2,1,66,0,0
61099,-76.923076923077,4,2,1,66,0,0
62204,-125,4,2,1,66,0,0
63152,-125,4,2,1,52,0,0
63310,-90.9090909090909,4,2,1,52,0,0
63625,-76.9230769230769,4,2,1,77,0,0
71204,-90.9090909090909,4,2,1,77,0,0
73731,-76.9230769230769,4,2,1,77,0,0
86362,-71.4285714285714,4,2,1,77,0,1
91415,-90.9090909090909,4,2,1,77,0,1
93941,-71.4285714285714,4,2,1,77,0,0
104046,-71.4285714285714,4,2,1,46,0,0

[Colours]
Combo1 : 157,158,168
Combo2 : 112,123,169
Combo3 : 81,73,120
Combo4 : 200,200,204

[HitObjects]
47,87,468,6,0,L|35:19,2,48.9999985046387,2|2|2,0:0|0:0|0:0,0:0:0:0:
231,235,1257,2,0,L|219:303,2,48.9999985046387,2|2|2,0:0|0:0|0:0,0:0:0:0:
158,175,1731,5,0,0:0:0:0:
158,175,1810,1,0,0:0:0:0:
158,175,1889,1,0,0:0:0:0:
90,238,2046,1,0,0:0:0:0:
136,314,2204,2,0,B|100:319|100:319|93:316|93:316|34:325,2,77.0000023498536
257,366,2678,2,0,L|333:378,1,73.4999977569581
350,374,2994,6,0,L|352:331,1,24.4999992523194,2|0,0:0|0:0,0:0:0:0:
351,324,3152,2,0,L|353:299,1,24.4999992523194,2|2,0:0|0:0,0:0:0:0:
360,223,3310,1,2,0:0:0:0:
370,221,3783,6,0,L|427:228,2,48.9999985046387,2|2|2,0:0|0:0|0:0,0:0:0:0:
225,10,4731,6,0,L|229:95,1,62.9999980773926,2|2,0:0|0:0,0:0:0:0:
221,163,5046,1,2,0:0:0:0:
305,83,5204,1,2,0:0:0:0:
464,128,5362,1,2,0:0:0:0:
501,53,5520,6,0,P|434:49|380:107,1,125.999996154785,2|0,0:0|0:0,0:0:0:0:
379,112,5915,1,2,0:0:0:0:
379,112,5994,2,0,B|376:197|450:212|450:212|511:226|541:313|464:361,1,314.999990386963,2|0,0:0|0:0,0:0:0:0:
455,351,6862,2,0,P|410:328|383:329,1,62.9999980773926,2|0,0:0|0:0,0:0:0:0:
384,341,7099,2,0,L|377:377,4,31.4999990386963,2|2|2|2|2,0:0|0:0|0:0|0:0|0:0,0:0:0:0:
283,271,7573,1,2,0:0:0:0:
262,262,7652,1,2,0:0:0:0:
239,263,7731,1,2,0:0:0:0:
219,272,7810,1,2,0:0:0:0:
207,291,7889,1,2,0:0:0:0:
200,312,7968,1,0,0:0:0:0:
201,333,8046,6,0,L|109:321,1,70,2|0,0:0|0:0,0:0:0:0:
3,309,8362,1,2,0:0:0:0:
3,309,8520,2,0,P|5:289|90:261,1,105,2|0,0:0|0:0,0:0:0:0:
101,256,8836,2,0,L|97:89,1,167.999994873047,2|2,0:0|0:0,0:0:0:0:
6,29,9310,2,0,L|9:78,3,41.9999987182618,2|2|2|2,0:0|0:0|0:0|0:0,0:0:0:0:
160,41,9625,2,0,L|163:-8,3,41.9999987182618,2|2|2|2,0:0|0:0|0:0|0:0,0:0:0:0:
215,118,9941,1,2,0:0:0:0:
225,111,10020,1,2,0:0:0:0:
237,107,10099,1,2,0:0:0:0:
249,105,10178,1,2,0:0:0:0:
261,105,10257,1,2,0:0:0:0:
273,108,10336,1,2,0:0:0:0:
283,114,10415,1,2,0:0:0:0:
291,123,10494,1,2,0:0:0:0:
295,133,10573,6,0,B|309:201|397:222|441:180|441:180|495:125|474:40|399:52|381:97|381:97|352:167|380:219|408:219|435:303|388:346|388:346|337:382|270:327|311:261,1,808.499975326539,2|0,3:2|0:0,0:0:0:0:
185,271,12468,1,8,0:1:0:0:
182,296,12546,1,8,0:1:0:0:
205,286,12625,1,8,0:1:0:0:
203,191,12783,2,0,P|230:197|253:212,1,56,8|0,0:1|0:0,0:0:0:0:
182,377,12941,2,0,P|154:370|131:355,1,56,8|0,0:1|0:0,0:0:0:0:
0,292,13099,6,0,P|-5:336|51:348,1,105,0|0,3:0|0:0,0:0:0:0:
85,276,13415,1,8,0:0:0:0:
118,181,13573,2,0,P|48:164|14:233,1,140,0|8,3:0|0:0,0:0:0:0:
109,14,14204,6,0,P|71:5|27:11,1,70,2|2,0:0|0:0,0:0:0:0:
0,77,14520,1,2,3:2:0:0:
62,139,14678,1,10,0:0:0:0:
178,94,14836,2,0,B|233:85|233:85|264:99|264:99|330:85,1,140,0|10,3:0|0:0,0:0:0:0:
381,53,15310,1,2,0:0:0:0:
276,17,15468,1,2,0:0:0:0:
220,167,15625,6,0,L|234:256,1,70,2|0,3:2|0:0,0:0:0:0:
166,295,15941,1,8,0:0:0:0:
224,362,16099,1,2,3:2:0:0:
224,362,16178,1,2,0:0:0:0:
224,362,16257,2,0,L|272:357,1,35,2|2,0:0|0:0,0:0:0:0:
301,277,16415,1,10,0:0:0:0:
507,366,16731,6,0,P|464:335|435:331,1,70,2|2,0:0|0:0,0:0:0:0:
357,360,17046,1,2,3:2:0:0:
311,269,17204,1,8,0:0:0:0:
437,175,17362,2,0,P|451:229|408:267,1,105,0|0,3:0|0:0,0:0:0:0:
404,265,17678,6,0,L|386:258,10,17.5
340,198,18152,6,0,B|316:172|280:181|284:200|241:208|201:164,1,125.999996154785,0|0,3:0|0:0,0:0:0:0:
210,161,18468,1,8,0:0:0:0:
266,94,18625,1,2,3:2:0:0:
266,94,18704,1,2,0:0:0:0:
266,94,18783,2,0,P|263:69|251:46,1,35,2|2,0:0|0:0,0:0:0:0:
204,11,18941,1,10,0:0:0:0:
0,99,19257,6,0,P|37:85|94:97,1,70,2|2,0:0|0:0,0:0:0:0:
133,141,19573,1,2,3:2:0:0:
85,212,19731,1,8,0:0:0:0:
3,179,19889,2,0,B|-15:210|-15:210|8:333,1,140,0|10,3:0|0:0,0:0:0:0:
125,374,20362,2,0,P|162:338|223:351,1,105,2|0,0:0|0:0,0:0:0:0:
237,376,20678,6,0,B|201:361|201:361|216:203,1,167.999994873047,2|8,3:2|0:0,0:0:0:0:
290,162,21152,2,0,B|298:178|295:195|295:195|266:139|194:139,1,140,0|8,3:0|0:0,0:0:0:0:
175,0,21783,2,0,P|164:44|194:82,1,70
261,74,22099,1,0,3:0:0:0:
326,3,22257,1,8,0:0:0:0:
435,49,22415,2,0,B|434:99|434:99|429:103|429:103|429:169,1,105,0|0,3:0|0:0,0:0:0:0:
439,167,22731,2,0,L|446:221,1,35,10|2,0:0|0:0,0:0:0:0:
508,325,22889,2,0,L|515:271,3,35,2|2|2|2,0:0|0:0|0:0|0:0,0:0:0:0:
493,351,23204,6,0,B|435:279|373:311|372:324|372:341|297:383|181:305|243:167|348:167|392:250,1,420,2|0,3:2|0:0,0:0:0:0:
366,244,24468,6,0,P|321:191|333:151,1,105,2|0,0:0|0:0,0:0:0:0:
344,145,24783,6,0,P|363:104|274:73,1,168,2|2,0:0|3:2,0:0:0:0:
255,115,25336,5,2,3:2:0:0:
255,115,25415,2,0,B|196:108|196:108|192:104|192:104|130:95,1,125.999996154785,10|0,0:0|0:0,0:0:0:0:
96,21,25731,2,0,P|55:58|101:174,1,167.999994873047,0|8,3:0|0:0,0:0:0:0:
175,192,26204,1,2,3:2:0:0:
173,208,26283,1,2,0:2:0:0:
171,224,26362,1,2,0:2:0:0:
169,240,26441,1,2,0:2:0:0:
167,256,26520,2,0,L|176:307,3,41.9999987182618,10|2|2|2,0:2|0:0|0:0|0:0,0:0:0:0:
79,363,26836,6,0,P|44:350|41:287,1,83.9999974365235,2|2,0:0|0:0,0:0:0:0:
90,260,27152,1,2,3:2:0:0:
162,373,27310,1,8,0:0:0:0:
241,333,27468,2,0,B|307:339|307:339|316:345|316:345|397:350,1,140,2|8,3:2|0:0,0:0:0:0:
470,302,27941,1,0,0:0:0:0:
430,220,28099,1,2,3:2:0:0:
434,203,28178,1,0,0:0:0:0:
447,191,28257,6,0,P|494:169|494:89,1,140,2|8,3:2|0:0,0:0:0:0:
425,32,28731,1,0,3:0:0:0:
411,33,28810,1,2,0:0:0:0:
397,34,28889,1,2,0:0:0:0:
383,35,28968,1,2,0:0:0:0:
369,36,29046,1,2,3:2:0:0:
198,4,29362,6,0,P|184:43|197:81,1,70
263,122,29678,1,0,3:0:0:0:
192,208,29836,1,8,0:0:0:0:
106,161,29994,2,0,P|25:167|10:212,1,105,2|0,3:2|0:0,0:0:0:0:
11,202,30310,1,2,3:2:0:0:
71,289,30468,2,0,P|152:295|167:340,1,105,2|0,0:0|0:0,0:0:0:0:
156,344,30783,6,0,B|235:338|235:338|249:329|249:329|349:320,1,167.999994873047,0|8,3:0|0:0,0:0:0:0:
454,271,31257,2,0,P|461:328|389:353,1,140,2|10,3:2|0:2,0:0:0:0:
349,208,31889,2,0,P|336:170|356:123,1,70,2|2,0:0|0:0,0:0:0:0:
413,106,32204,1,2,3:2:0:0:
359,8,32362,1,8,0:0:0:0:
282,64,32520,2,0,P|374:61|464:75,1,181.999991668702,2|2,3:2|3:2,0:0:0:0:
482,92,32915,1,2,3:2:0:0:
485,103,32994,1,10,0:0:0:0:
374,239,33310,5,2,3:2:0:0:
383,194,33468,1,2,3:2:0:0:
380,253,33783,5,2,3:2:0:0:
464,269,33941,1,2,3:2:0:0:
366,259,34257,5,2,3:2:0:0:
348,359,34415,1,2,3:2:0:0:
360,245,34731,5,2,3:2:0:0:
233,222,34889,1,2,3:2:0:0:
8,343,35204,6,0,P|70:355|95:276,1,146.999995513916,2|0,0:0|0:0,0:0:0:0:
40,231,35836,5,2,3:2:0:0:
63,104,35994,1,2,3:2:0:0:
177,116,36310,5,2,3:2:0:0:
77,98,36468,1,2,3:2:0:0:
87,0,36784,5,2,3:2:0:0:
71,84,36942,1,2,3:2:0:0:
12,81,37257,5,2,3:2:0:0:
57,90,37415,1,2,3:2:0:0:
283,16,37731,6,0,L|279:53,3,24.4999992523194,2|0|0|0,0:0|0:0|0:0|0:0,0:0:0:0:
364,47,38046,2,0,L|360:84,3,24.4999992523194,2|2|2|2,0:0|0:0|0:0|0:0,0:0:0:0:
444,76,38362,5,2,3:2:0:0:
509,117,38520,1,2,3:2:0:0:
447,64,38836,5,2,3:2:0:0:
450,172,38994,1,2,3:2:0:0:
450,54,39310,5,2,3:2:0:0:
371,170,39468,1,2,3:2:0:0:
452,45,39783,5,2,3:2:0:0:
309,121,39941,1,2,3:2:0:0:
481,327,40257,6,0,P|501:270|409:273,1,171.499994766236,2|0,0:0|0:0,0:0:0:0:
411,271,40889,2,0,P|407:297|413:315,1,24.4999992523194,2|2,0:0|0:0,0:0:0:0:
425,373,41678,5,2,0:0:0:0:
425,373,41836,1,2,0:0:0:0:
308,320,41994,6,0,B|237:285|249:187|336:197|343:249,1,188.999994232178
185,62,42783,6,0,L|184:116,1,45.4999979171754,8|0,0:1|0:0,0:0:0:0:
165,68,42941,2,0,L|164:122,1,45.4999979171754,8|0,0:1|0:0,0:0:0:0:
82,226,43099,6,0,L|81:172,1,45.4999979171754,8|0,0:1|0:0,0:0:0:0:
62,220,43257,2,0,L|61:166,1,45.4999979171754,8|0,0:1|0:0,0:0:0:0:
1,114,43415,6,0,B|46:196|135:164|102:128|194:98|242:180,1,251.999992309571,2|0,3:2|0:0,0:0:0:0:
54,384,44046,6,0,P|56:352|110:360,1,97.9999970092774,10|0,0:0|3:0,0:0:0:0:
216,292,44520,2,0,P|196:226|144:268,1,140,10|0,0:2|3:0,0:0:0:0:
301,372,44994,2,0,P|317:308|412:350,1,181.999991668702,10|0,0:0|3:0,0:0:0:0:
489,203,45468,2,0,P|420:231|450:108,1,262.500010013581,10|0,0:0|0:0,0:0:0:0:
468,131,45941,6,0,B|415:146|415:146|385:136|385:136|316:145,1,136.499993751526,2|0,3:2|0:0,0:0:0:0:
325,157,46257,1,8,0:0:0:0:
190,129,46415,1,2,3:2:0:0:
186,115,46494,1,2,1:2:0:0:
186,101,46573,1,2,1:2:0:0:
189,87,46652,1,2,1:2:0:0:
196,75,46731,2,0,P|221:59|251:55,1,45.4999979171754,2|2,1:2|1:2,0:0:0:0:
265,131,46889,2,0,P|291:145|309:168,1,45.4999979171754,2|0,1:2|1:0,0:0:0:0:
297,246,47046,6,0,B|212:217|212:217|174:324|174:324|244:353,1,244.999992523194,2|0,3:2|0:0,0:0:0:0:
242,356,47520,2,0,L|265:284,1,48.9999985046387,8|0,0:0|0:0,0:0:0:0:
101,223,47678,6,0,B|141:206|141:206|102:100|102:100|18:128,1,244.999992523194,2|0,3:2|0:0,0:0:0:0:
1,153,48152,2,0,L|37:268,1,97.9999970092774,8|0,0:0|0:0,0:0:0:0:
265,131,48468,2,0,B|220:118|188:128|188:128|247:91|308:96|369:153,1,269.500008224488,2|0,3:2|0:0,0:0:0:0:
373,169,49099,6,0,P|403:187|393:89,1,210.000008010865,10|0,0:0|3:0,0:0:0:0:
314,285,49573,2,0,P|317:319|385:260,1,181.999991668702,10|0,0:0|3:0,0:0:0:0:
197,251,50046,2,0,P|171:274|244:288,1,140,10|0,0:0|3:0,0:0:0:0:
192,136,50520,2,0,P|157:134|174:182,1,97.9999970092774,10|0,0:0|0:0,0:0:0:0:
286,194,50994,6,0,P|385:168|463:249,1,195.999994018555,2|2,3:2|0:0,0:0:0:0:
487,349,51468,1,2,1:2:0:0:
487,349,51546,1,2,1:2:0:0:
487,349,51625,2,0,L|419:356,1,48.9999985046387,10|0,1:2|1:2,0:0:0:0:
362,288,51783,1,2,1:2:0:0:
362,288,51861,1,2,1:2:0:0:
362,288,51940,2,0,L|294:281,1,48.9999985046387,10|0,1:2|0:0,0:0:0:0:
165,378,52099,6,0,B|137:332|137:332|73:344|73:344,1,105,2|0,3:2|0:0,0:0:0:0:
74,350,52415,2,0,L|63:326,4,17.5,2|2|2|2|2,1:2|0:2|1:2|0:2|1:2,0:0:0:0:
0,196,52731,2,0,P|46:177|98:254,1,136.499993751526,2|0,3:2|0:0,0:0:0:0:
96,255,53046,1,8,0:0:0:0:
156,158,53204,2,0,P|189:126|234:134,1,94.499997116089,2|0,3:2|0:0,0:0:0:0:
240,152,53520,6,0,B|332:161|332:161|346:170|346:170|455:181,1,210.000008010865,2|10,3:2|0:0,0:0:0:0:
426,89,53994,2,0,P|445:45|492:24,2,77.0000023498536,2|2|2,3:2|0:0|0:0,0:0:0:0:
499,122,54468,1,8,0:0:0:0:
510,301,54625,6,0,B|470:262|416:273|416:273|410:324|346:340,1,192.500005874634,2|0,3:2|0:0,0:0:0:0:
334,340,55099,1,8,0:0:0:0:
230,303,55257,2,0,P|247:221|323:243,1,175,2|0,3:2|0:0,0:0:0:0:
340,264,55731,2,0,P|263:261|176:284,1,146.999995513916,8|0,0:0|0:0,0:0:0:0:
161,299,56046,6,0,P|88:321|81:222,1,195.999994018555,2|2,3:2|0:0,0:0:0:0:
155,181,56520,1,2,1:2:0:0:
155,181,56599,1,2,1:2:0:0:
155,181,56678,2,0,L|150:119,1,48.9999985046387,10|0,1:2|0:0,0:0:0:0:
68,85,56836,1,2,3:2:0:0:
68,85,56915,1,2,1:2:0:0:
68,85,56994,2,0,L|73:23,1,48.9999985046387,10|0,1:2|0:0,0:0:0:0:
168,6,57152,6,0,B|223:17|220:74|220:74|263:35|312:59,1,192.500005874634,2|0,3:2|0:0,0:0:0:0:
321,74,57625,1,10,0:0:0:0:
460,0,57783,2,0,P|498:43|477:110,1,115.50000352478,2|0,3:2|0:0,0:0:0:0:
472,109,58099,1,8,0:0:0:0:
386,144,58257,2,0,P|348:187|369:254,1,115.50000352478,2|0,3:2|0:0,0:0:0:0:
376,254,58573,6,0,P|392:254|410:248,14,19.2500005874634,2|0|0|0|2|2|2|2|2|2|2|2|2|2|2,3:2|0:0|0:0|0:0|0:0|0:0|0:0|0:0|0:0|0:0|0:0|0:0|0:0|0:0|0:0,0:0:0:0:
427,259,59204,6,0,B|411:370|411:370|289:354,1,210.000008010865,10|0,0:0|3:0,0:0:0:0:
198,214,59678,2,0,B|285:195|285:195|308:284,1,181.999991668702,10|0,0:0|3:0,0:0:0:0:
122,244,60152,2,0,B|86:186|86:186|164:128,1,140,10|0,0:0|3:0,0:0:0:0:
186,298,60625,2,0,B|168:345|168:345|113:331,1,97.9999970092774,10|0,0:0|0:0,0:0:0:0:
15,359,61099,6,0,L|7:202,1,136.499993751526,2|0,3:2|0:0,0:0:0:0:
18,207,61415,1,8,0:0:0:0:
1,67,61573,1,2,3:2:0:0:
11,58,61652,1,2,1:2:0:0:
23,52,61731,1,2,1:2:0:0:
36,49,61810,1,2,1:2:0:0:
49,49,61889,2,0,P|80:53|103:68,1,45.4999979171754,2|2,1:2|1:2,0:0:0:0:
144,122,62046,2,0,P|175:117|198:103,1,45.4999979171754,2|2,1:2|1:2,0:0:0:0:
226,42,62204,6,0,P|270:22|278:142,1,224,2|2,1:2|0:0,0:0:0:0:
58,355,63152,5,2,0:0:0:0:
109,293,63310,2,0,L|102:239,1,38.5000011749268,2|2,0:0|0:0,0:0:0:0:
199,342,63468,2,0,L|194:397,1,38.5000011749268,2|2,0:0|0:0,0:0:0:0:
288,290,63625,6,0,P|388:304|405:345,1,136.499993751526,4|0,3:2|0:0,0:0:0:0:
394,357,63941,1,8,0:0:0:0:
487,295,64099,2,0,L|491:189,1,90.9999958343508,0|0,3:0|0:0,0:0:0:0:
455,118,64415,1,10,0:0:0:0:
441,118,64494,1,0,0:0:0:0:
427,120,64573,1,2,0:0:0:0:
414,125,64652,1,0,0:0:0:0:
403,134,64731,6,0,B|371:168|312:152|319:142|325:128|272:91|216:138,1,181.999991668702,2|2,0:0|3:2,0:0:0:0:
265,207,65204,1,10,0:0:0:0:
359,69,65362,2,0,P|326:23|262:20,1,90.9999958343508,2|0,3:2|0:0,0:0:0:0:
82,16,65678,2,0,L|91:71,3,45.4999979171754,10|0|2|2,0:0|0:0|0:0|0:0,0:0:0:0:
163,89,65994,2,0,L|154:144,1,45.4999979171754,2|2,0:0|0:0,0:0:0:0:
87,213,66152,6,0,B|45:206|45:206|39:201|39:201|-5:193,2,90.9999958343508,2|2|10,3:2|0:0|0:0,0:0:0:0:
146,273,66625,1,2,3:2:0:0:
144,286,66704,1,0,0:0:0:0:
142,299,66783,1,0,0:0:0:0:
140,312,66862,1,0,0:0:0:0:
137,325,66941,2,0,B|180:319|180:319|185:321|185:321|240:315,1,90.9999958343508,10|2,0:0|0:0,0:0:0:0:
385,287,67257,6,0,P|381:360|288:363,1,181.999991668702,2|2,0:0|3:2,0:0:0:0:
316,238,67731,1,10,0:0:0:0:
317,224,67810,1,0,0:0:0:0:
324,212,67889,1,2,3:2:0:0:
333,203,67968,1,0,0:0:0:0:
344,195,68046,1,2,0:2:0:0:
356,190,68125,1,2,0:2:0:0:
369,189,68204,2,0,P|396:194|421:209,3,45.4999979171754,10|2|2|2,0:2|0:2|0:2|0:2,0:0:0:0:
464,263,68520,2,0,P|491:257|516:242,1,45.4999979171754,2|2,0:2|0:2,0:0:0:0:
503,81,68678,6,0,L|485:175,2,90.9999958343508,2|2|10,3:2|0:0|0:0,0:0:0:0:
448,3,69152,2,0,P|394:17|381:91,1,136.499993751526,2|0,3:2|0:0,0:0:0:0:
404,108,69468,1,10,0:0:0:0:
255,163,69625,1,2,0:0:0:0:
185,37,69783,6,0,P|269:19|274:110,1,181.999991668702,2|0,0:0|3:0,0:0:0:0:
171,201,70257,2,0,L|179:256,3,45.4999979171754,10|2|2|2,0:2|0:2|3:2|0:2,0:0:0:0:
87,157,70573,2,0,L|95:102,1,45.4999979171754,2|2,0:2|0:2,0:0:0:0:
7,41,70731,1,10,0:2:0:0:
8,54,70810,1,2,0:2:0:0:
9,67,70889,1,2,0:2:0:0:
10,80,70968,1,2,0:2:0:0:
11,93,71046,1,2,0:2:0:0:
12,106,71125,1,2,0:2:0:0:
13,119,71204,6,0,B|79:132|79:132|101:123|101:123|195:137,1,154.000004699707,0|10,0:0|0:0,0:0:0:0:
192,353,71836,5,2,3:2:0:0:
27,296,72073,5,2,3:2:0:0:
158,181,72310,5,2,3:2:0:0:
100,350,72546,5,2,3:2:0:0:
265,301,72783,5,2,3:2:0:0:
450,243,73020,5,2,3:2:0:0:
179,327,73178,1,2,3:2:0:0:
457,383,73415,2,0,P|443:329|387:322,1,115.50000352478,10|0,0:0|0:0,0:0:0:0:
365,333,73731,6,0,L|359:142,1,181.999991668702,2|8,3:2|0:0,0:0:0:0:
380,65,74204,1,0,3:0:0:0:
369,56,74283,1,0,0:0:0:0:
357,49,74362,1,0,0:0:0:0:
344,44,74441,1,0,0:0:0:0:
330,42,74520,2,0,P|301:43|266:54,1,45.4999979171754,10|0,0:0|0:0,0:0:0:0:
184,28,74678,2,0,P|162:47|142:78,1,45.4999979171754,2|0,0:0|0:0,0:0:0:0:
200,201,74836,6,0,P|271:196|227:119,1,181.999991668702,2|2,0:0|3:2,0:0:0:0:
85,151,75310,1,8,0:2:0:0:
71,149,75389,1,0,0:2:0:0:
57,145,75468,1,0,3:2:0:0:
44,138,75546,1,0,0:2:0:0:
35,127,75625,1,0,0:2:0:0:
29,114,75704,1,0,0:2:0:0:
29,100,75783,2,0,P|36:74|78:41,3,45.4999979171754,8|0|0|0,0:2|0:2|0:2|0:2,0:0:0:0:
141,81,76099,2,0,P|153:99|159:121,1,45.4999979171754,0|0,0:2|0:2,0:0:0:0:
120,223,76257,6,0,L|111:344,2,90.9999958343508,2|2|10,0:2|0:0|0:0,0:0:0:0:
197,194,76731,1,2,3:2:0:0:
255,305,76889,1,0,0:0:0:0:
268,300,76968,1,0,0:0:0:0:
280,296,77046,2,0,L|342:306,1,45.4999979171754,8|0,0:0|0:0,0:0:0:0:
372,363,77204,2,0,L|434:353,1,45.4999979171754,2|0,0:0|0:0,0:0:0:0:
490,294,77362,6,0,P|492:220|374:233,1,181.999991668702,2|0,0:0|3:0,0:0:0:0:
323,151,77836,1,10,0:2:0:0:
318,138,77915,1,2,0:2:0:0:
317,124,77994,1,2,3:2:0:0:
320,110,78073,1,2,0:2:0:0:
328,99,78152,1,2,0:2:0:0:
338,90,78231,1,2,0:2:0:0:
350,85,78310,2,0,P|379:85|406:93,3,45.4999979171754,10|2|2|2,0:2|0:2|0:2|0:2,0:0:0:0:
303,16,78625,2,0,P|273:16|247:24,1,45.4999979171754,2|2,0:2|0:2,0:0:0:0:
165,95,78783,6,0,P|116:76|112:23,2,90.9999958343508,2|2|10,3:2|0:0|0:0,0:0:0:0:
240,92,79257,1,2,3:2:0:0:
163,217,79573,1,8,0:0:0:0:
80,173,79731,1,2,0:0:0:0:
6,249,79889,6,0,B|74:229|74:229|100:199|100:199|198:166,1,181.999991668702,2|0,0:0|3:0,0:0:0:0:
294,270,80362,1,10,0:0:0:0:
227,364,80520,1,2,3:2:0:0:
155,330,80678,1,2,0:0:0:0:
213,262,80836,1,10,0:0:0:0:
305,349,80994,1,2,0:0:0:0:
421,287,81152,1,2,0:0:0:0:
296,159,81310,6,0,P|277:224|371:220,1,181.999991668702,2|8,3:2|0:0,0:0:0:0:
387,143,81783,1,0,3:0:0:0:
386,129,81862,1,0,0:0:0:0:
384,115,81941,1,0,0:0:0:0:
383,101,82020,1,0,0:0:0:0:
382,87,82099,2,0,L|310:76,1,45.4999979171754,10|0,0:0|0:0,0:0:0:0:
255,19,82257,1,2,0:0:0:0:
189,90,82415,6,0,P|206:157|114:151,1,181.999991668702,2|0,0:0|3:0,0:0:0:0:
52,72,82889,2,0,P|6:114|-2:159,1,90.9999958343508,8|0,0:0|3:0,0:0:0:0:
9,287,83204,1,8,0:1:0:0:
133,252,83362,1,8,0:1:0:0:
171,354,83520,1,8,0:1:0:0:
142,368,83599,1,8,0:1:0:0:
110,365,83678,1,8,0:1:0:0:
87,341,83757,1,8,0:1:0:0:
82,309,83836,1,8,0:1:0:0:
500,32,85731,5,8,0:1:0:0:
464,103,85889,2,0,L|399:94,1,45.4999979171754,8|8,0:0|0:0,0:0:0:0:
302,50,86046,1,8,0:1:0:0:
283,63,86125,1,8,0:1:0:0:
270,81,86204,1,8,0:1:0:0:
264,103,86283,1,8,0:1:0:0:
265,125,86362,6,0,P|313:122|369:147,2,97.9999970092774,8|2|10,0:1|0:0|0:0,0:0:0:0:
387,269,86836,2,0,P|435:275|482:260,1,97.9999970092774,2|2,3:2|0:0,0:0:0:0:
473,160,87152,1,10,0:0:0:0:
473,160,87310,1,2,0:0:0:0:
328,209,87468,1,2,0:0:0:0:
360,357,87625,6,0,L|244:340,1,97.9999970092774,0|0,0:0|3:0,0:0:0:0:
204,265,87941,1,10,0:2:0:0:
181,249,88020,1,2,0:2:0:0:
154,241,88099,1,2,3:2:0:0:
126,240,88178,1,2,0:2:0:0:
99,248,88257,1,2,0:2:0:0:
79,266,88336,1,2,0:2:0:0:
68,291,88415,2,0,P|66:329|79:360,3,48.9999985046387,10|2|2|2,0:2|0:2|0:2|0:2,0:0:0:0:
148,368,88731,2,0,P|150:345|144:314,1,48.9999985046387,2|2,0:2|0:2,0:0:0:0:
20,178,88889,6,0,P|15:130|32:62,2,97.9999970092774,2|2|10,3:2|0:0|0:0,0:0:0:0:
99,45,89362,2,0,P|169:47|146:130,1,146.999995513916,2|0,3:2|0:0,0:0:0:0:
107,167,89678,1,10,0:0:0:0:
216,196,89836,1,2,0:0:0:0:
261,79,89994,6,0,B|342:65|342:65|375:84|375:84|456:70,1,195.999994018555,2|0,0:0|3:0,0:0:0:0:
512,185,90468,1,10,0:2:0:0:
509,213,90546,1,2,0:2:0:0:
496,239,90625,1,2,3:2:0:0:
471,255,90704,1,2,0:2:0:0:
441,259,90783,1,2,0:2:0:0:
412,251,90862,1,2,0:2:0:0:
392,228,90941,2,0,P|387:197|394:172,3,48.9999985046387,10|2|2|2,0:2|0:2|0:2|0:2,0:0:0:0:
310,117,91257,2,0,P|313:141|308:164,1,48.9999985046387,2|2,0:2|0:2,0:0:0:0:
245,276,91415,6,0,B|265:356|265:356|341:341,1,154.000004699707,2|10,3:2|0:0,0:0:0:0:
426,152,92046,5,2,3:2:0:0:
455,330,92283,5,2,3:2:0:0:
312,161,92520,5,2,3:2:0:0:
338,321,92757,5,2,3:2:0:0:
204,299,92994,5,2,3:2:0:0:
195,170,93231,5,2,3:2:0:0:
130,332,93389,1,2,3:2:0:0:
12,222,93625,6,0,L|121:233,1,77.0000023498536,10|2,0:0|0:0,0:0:0:0:
211,44,93941,6,0,B|197:172|197:172|90:160,1,195.999994018555,2|10,3:2|0:0,0:0:0:0:
57,99,94415,1,2,3:2:0:0:
300,1,94731,2,0,L|368:16,1,48.9999985046387,10|0,0:0|0:0,0:0:0:0:
480,48,94889,1,2,0:0:0:0:
464,57,94968,1,0,0:0:0:0:
440,60,95046,6,0,B|407:53|407:53|427:222,1,195.999994018555,2|0,0:0|3:0,0:0:0:0:
453,321,95520,1,10,0:2:0:0:
433,335,95599,1,2,0:2:0:0:
409,342,95678,1,2,3:2:0:0:
384,340,95757,1,2,0:2:0:0:
361,330,95836,1,2,0:2:0:0:
343,312,95915,1,2,0:2:0:0:
333,289,95994,2,0,P|334:254|345:225,3,48.9999985046387,10|2|2|2,0:2|0:2|0:2|0:2,0:0:0:0:
256,336,96310,2,0,P|257:370|268:400,1,48.9999985046387,2|2,0:2|0:2,0:0:0:0:
159,305,96468,6,0,L|61:314,2,97.9999970092774,2|2|10,3:2|0:0|0:0,0:0:0:0:
60,227,96941,1,2,3:2:0:0:
130,142,97099,1,2,0:0:0:0:
137,123,97178,1,0,0:0:0:0:
139,103,97257,2,0,P|99:58|26:59,1,97.9999970092774,10|2,0:0|0:0,0:0:0:0:
7,175,97573,6,0,B|46:210|94:192|94:185|94:177|140:156|220:191,1,195.999994018555,2|0,0:0|3:0,0:0:0:0:
295,225,98046,1,10,0:2:0:0:
306,209,98125,1,2,0:2:0:0:
314,191,98204,1,2,3:2:0:0:
316,171,98283,1,2,0:2:0:0:
311,151,98362,1,2,0:2:0:0:
301,133,98441,1,2,0:2:0:0:
285,121,98520,2,0,L|270:185,3,48.9999985046387,10|2|2|2,0:2|0:2|0:2|0:2,0:0:0:0:
339,57,98836,2,0,L|324:-7,1,48.9999985046387,2|2,0:2|0:2,0:0:0:0:
427,137,98994,6,0,P|482:130|510:88,2,97.9999970092774,2|2|10,3:2|0:0|0:0,0:0:0:0:
429,51,99468,1,2,3:2:0:0:
506,267,99783,1,10,0:0:0:0:
406,247,99941,1,2,0:0:0:0:
323,351,100099,6,0,P|227:338|251:248,1,195.999994018555,2|0,0:0|3:0,0:0:0:0:
328,264,100573,1,8,0:0:0:0:
271,176,100731,1,2,3:2:0:0:
328,121,100889,1,2,0:0:0:0:
450,144,101046,1,10,0:0:0:0:
422,54,101204,1,2,0:0:0:0:
352,190,101362,1,2,0:0:0:0:
249,98,101520,6,0,B|163:114|163:114|150:126|150:126|29:151,1,195.999994018555,2|8,3:2|0:0,0:0:0:0:
5,46,101994,1,0,3:0:0:0:
96,236,102310,1,10,0:0:0:0:
56,323,102468,1,2,0:0:0:0:
177,274,102625,6,0,P|254:283|203:361,1,195.999994018555,2|0,0:0|3:0,0:0:0:0:
114,236,103099,2,0,P|194:187|226:190,1,97.9999970092774,8|0,0:0|3:0,0:0:0:0:
356,264,103415,5,8,0:1:0:0:
410,150,103573,1,8,0:1:0:0:
315,41,103731,1,8,1:0:0:0:
261,155,103889,1,8,0:1:0:0:
404,137,104046,5,2,0:0:0:0:
