osu file format v14

[General]
AudioFilename: audio.mp3
AudioLeadIn: 0
PreviewTime: 63558
Countdown: 0
SampleSet: Soft
StackLeniency: 0.3
Mode: 0
LetterboxInBreaks: 0
EpilepsyWarning: 1
WidescreenStoryboard: 1

[Editor]
DistanceSpacing: 0.1
BeatDivisor: 4
GridSize: 16
TimelineZoom: 5.299997

[Metadata]
Title:Hestia
TitleUnicode:Hestia
Artist:Street
ArtistUnicode:Street
Creator:GYGY
Version:Hard
Source:Shooter's Festival 2019
Tags:featured artist fa electronic instrumental artcore sfes2019 drumstep dnb perennial 2021 nm4 gf grand finals drum and bass melodic K-Shoot MANIAチームイベント k shoot zekk bongo 0ppinosu mir shoenen
BeatmapID:3547064
BeatmapSetID:1707295

[Difficulty]
HPDrainRate:4
CircleSize:3.6
OverallDifficulty:6
ApproachRate:8
SliderMultiplier:1.3
SliderTickRate:1

[Events]
//Background and Video events
0,0,"9678cc594b48e013ddb2e6ab222433903e50b0d8_s2_n1.jpg",0,0
//Break Periods
2,84036,84862
//Storyboard Layer 0 (Background)
//Storyboard Layer 1 (Fail)
//Storyboard Layer 2 (Pass)
//Storyboard Layer 3 (Foreground)
Sprite,Foreground,Centre,"sb\hole.png",430,371 F,0,43415,,0.9 C,0,43415,,0,0,0 S,7,43415,44046,20,1
Sprite,Foreground,Centre,"sb\hole.png",510,147 F,0,44046,,0.9 C,0,44046,,0,0,0 S,34,44046,44420,1,6.5 S,19,44420,44520,6.5,1
Sprite,Foreground,Centre,"sb\hole.png",375,124 F,0,44520,,0.9 C,0,44520,,0,0,0 S,34,44520,44894,1,6.5 S,19,44894,44994,6.5,1
Sprite,Foreground,Centre,"sb\hole.png",221,77 F,0,44994,,0.9 C,0,44994,,0,0,0 S,34,44994,45368,1,6.5 S,19,45368,45468,6.5,1
Sprite,Foreground,Centre,"sb\hole.png",201,184 F,0,45468,,0.9 C,0,45468,,0,0,0 S,34,45468,45842,1,6.5 S,19,45842,45942,6.5,1
Sprite,Foreground,Centre,"sb\hole.png",96,304 F,0,45941,,0.9 C,0,45941,,0,0,0 S,7,45941,46357,1,22
Sprite,Foreground,Centre,"sb\hole.png",423,299 F,0,48468,,0.9 C,0,48468,,0,0,0 S,7,48468,49099,20,1
Sprite,Foreground,Centre,"sb\hole.png",165,267 F,0,49099,,0.9 C,0,49099,,0,0,0 S,34,49099,49473,1,6.5 S,19,49473,49573,6.5,1
Sprite,Foreground,Centre,"sb\hole.png",254,72 F,0,49573,,0.9 C,0,49573,,0,0,0 S,34,49573,49947,1,6.5 S,19,49947,50047,6.5,1
Sprite,Foreground,Centre,"sb\hole.png",345,234 F,0,50046,,0.9 C,0,50046,,0,0,0 S,34,50046,50420,1,6.5 S,19,50420,50520,6.5,1
Sprite,Foreground,Centre,"sb\hole.png",440,90 F,0,50520,,0.9 C,0,50520,,0,0,0 S,34,50520,50894,1,6.5 S,19,50894,50994,6.5,1
Sprite,Foreground,Centre,"sb\hole.png",514,235 F,0,50994,,0.9 C,0,50994,,0,0,0 S,7,50994,51410,1,22
Sprite,Foreground,Centre,"sb\hole.png",288,332 F,0,58573,,0.9 C,0,58573,,0,0,0 S,7,58573,59204,20,1
Sprite,Foreground,Centre,"sb\hole.png",215,257 F,0,59204,,0.9 C,0,59204,,0,0,0 S,34,59204,59578,1,6.5 S,19,59578,59678,6.5,1
Sprite,Foreground,Centre,"sb\hole.png",315,147 F,0,59678,,0.9 C,0,59678,,0,0,0 S,34,59678,60052,1,6.5 S,19,60052,60152,6.5,1
Sprite,Foreground,Centre,"sb\hole.png",457,181 F,0,60152,,0.9 C,0,60152,,0,0,0 S,34,60152,60526,1,6.5 S,19,60526,60626,6.5,1
Sprite,Foreground,Centre,"sb\hole.png",488,322 F,0,60625,,0.9 C,0,60625,,0,0,0 S,34,60625,60999,1,6.5 S,19,60999,61099,6.5,1
Sprite,Foreground,Centre,"sb\hole.png",387,395 F,0,61099,,0.9 C,0,61099,,0,0,0 S,7,61099,61515,1,22
Sprite,Foreground,Centre,"sb\cbv.png",419,117 F,0,86362,,0.5 C,0,86362,,81,73,120 S,19,86362,86662,0.1,0.7 F,0,86762,87062,0.5,0
Sprite,Foreground,Centre,"sb\cbv.png",288,156 F,0,86678,,0.5 C,0,86678,,81,73,120 S,19,86678,86978,0.1,0.7 F,0,87078,87378,0.5,0
Sprite,Foreground,Centre,"sb\cbv.png",355,226 F,0,87152,,0.5 C,0,87152,,81,73,120 S,19,87152,87452,0.1,0.7 F,0,87552,87852,0.5,0
Sprite,Foreground,Centre,"sb\cbv.png",355,226 F,0,87310,,0.5 C,0,87310,,81,73,120 S,19,87310,87610,0.1,0.7 F,0,87710,88010,0.5,0
Sprite,Foreground,Centre,"sb\cbv.png",280,288 F,0,87468,,0.5 C,0,87468,,200,200,204 S,19,87468,87768,0.1,0.7 F,0,87868,88168,0.5,0
Sprite,Foreground,Centre,"sb\cbv.png",370,369 F,0,87941,,0.5 C,0,87941,,200,200,204 S,19,87941,88241,0.1,0.7 F,0,88341,88641,0.5,0
Sprite,Foreground,Centre,"sb\cbv.png",431,392 F,0,88257,,0.5 C,0,88257,,200,200,204 S,19,88257,88557,0.1,0.7 F,0,88657,88957,0.5,0
Sprite,Foreground,Centre,"sb\cbv.png",483,407 F,0,88573,,0.5 C,0,88573,,200,200,204 S,19,88573,88873,0.1,0.7 F,0,88973,89273,0.5,0
Sprite,Foreground,Centre,"sb\cbv.png",487,392 F,0,88652,,0.5 C,0,88652,,200,200,204 S,19,88652,88952,0.1,0.7 F,0,89052,89352,0.5,0
Sprite,Foreground,Centre,"sb\cbv.png",491,377 F,0,88731,,0.5 C,0,88731,,200,200,204 S,19,88731,89031,0.1,0.7 F,0,89131,89431,0.5,0
Sprite,Foreground,Centre,"sb\cbv.png",495,362 F,0,88810,,0.5 C,0,88810,,200,200,204 S,19,88810,89110,0.1,0.7 F,0,89210,89510,0.5,0
Sprite,Foreground,Centre,"sb\cbv.png",499,347 F,0,88889,,0.5 C,0,88889,,157,158,168 S,19,88889,89189,0.1,0.7 F,0,89289,89589,0.5,0
Sprite,Foreground,Centre,"sb\cbv.png",436,276 F,0,89362,,0.5 C,0,89362,,157,158,168 S,19,89362,89662,0.1,0.7 F,0,89762,90062,0.5,0
Sprite,Foreground,Centre,"sb\cbv.png",555,187 F,0,89678,,0.5 C,0,89678,,157,158,168 S,19,89678,89978,0.1,0.7 F,0,90078,90378,0.5,0
Sprite,Foreground,Centre,"sb\cbv.png",555,187 F,0,89836,,0.5 C,0,89836,,157,158,168 S,19,89836,90136,0.1,0.7 F,0,90236,90536,0.5,0
Sprite,Foreground,Centre,"sb\cbv.png",506,113 F,0,89994,,0.5 C,0,89994,,112,123,169 S,19,89994,90294,0.1,0.7 F,0,90394,90694,0.5,0
Sprite,Foreground,Centre,"sb\cbv.png",310,196 F,0,90468,,0.5 C,0,90468,,112,123,169 S,19,90468,90768,0.1,0.7 F,0,90868,91168,0.5,0
Sprite,Foreground,Centre,"sb\cbv.png",240,183 F,0,90783,,0.5 C,0,90783,,112,123,169 S,19,90783,91083,0.1,0.7 F,0,91183,91483,0.5,0
Sprite,Foreground,Centre,"sb\cbv.png",184,189 F,0,91099,,0.5 C,0,91099,,112,123,169 S,19,91099,91399,0.1,0.7 F,0,91499,91799,0.5,0
Sprite,Foreground,Centre,"sb\cbv.png",169,183 F,0,91178,,0.5 C,0,91178,,112,123,169 S,19,91178,91478,0.1,0.7 F,0,91578,91878,0.5,0
Sprite,Foreground,Centre,"sb\cbv.png",154,177 F,0,91257,,0.5 C,0,91257,,112,123,169 S,19,91257,91557,0.1,0.7 F,0,91657,91957,0.5,0
Sprite,Foreground,Centre,"sb\cbv.png",139,171 F,0,91336,,0.5 C,0,91336,,112,123,169 S,19,91336,91636,0.1,0.7 F,0,91736,92036,0.5,0
Sprite,Foreground,Centre,"sb\cbv.png",124,164 F,0,91415,,0.5 C,0,91415,,81,73,120 S,19,91415,91715,0.1,0.7 F,0,91815,92115,0.5,0
Sprite,Foreground,Centre,"sb\cbv.png",70,433 F,0,92046,,0.5 C,0,92046,,200,200,204 S,19,92046,92346,0.1,0.7 F,0,92446,92746,0.5,0
Sprite,Foreground,Centre,"sb\cbv.png",168,369 F,0,92283,,0.5 C,0,92283,,157,158,168 S,19,92283,92583,0.1,0.7 F,0,92683,92983,0.5,0
Sprite,Foreground,Centre,"sb\cbv.png",269,427 F,0,92520,,0.5 C,0,92520,,112,123,169 S,19,92520,92820,0.1,0.7 F,0,92920,93220,0.5,0
Sprite,Foreground,Centre,"sb\cbv.png",360,354 F,0,92757,,0.5 C,0,92757,,81,73,120 S,19,92757,93057,0.1,0.7 F,0,93157,93457,0.5,0
Sprite,Foreground,Centre,"sb\cbv.png",459,415 F,0,92994,,0.5 C,0,92994,,200,200,204 S,19,92994,93294,0.1,0.7 F,0,93394,93694,0.5,0
Sprite,Foreground,Centre,"sb\cbv.png",541,332 F,0,93231,,0.5 C,0,93231,,157,158,168 S,19,93231,93531,0.1,0.7 F,0,93631,93931,0.5,0
Sprite,Foreground,Centre,"sb\cbv.png",541,332 F,0,93389,,0.5 C,0,93389,,157,158,168 S,19,93389,93689,0.1,0.7 F,0,93789,94089,0.5,0
Sprite,Foreground,Centre,"sb\cbv.png",452,154 F,0,93783,,0.5 C,0,93783,,157,158,168 S,19,93783,94083,0.1,0.7 F,0,94183,94483,0.5,0
Sprite,Foreground,Centre,"sb\cbv.png",379,217 F,0,93941,,0.5 C,0,93941,,112,123,169 S,19,93941,94241,0.1,0.7 F,0,94341,94641,0.5,0
Sprite,Foreground,Centre,"sb\cbv.png",245,85 F,0,94415,,0.5 C,0,94415,,112,123,169 S,19,94415,94715,0.1,0.7 F,0,94815,95115,0.5,0
Sprite,Foreground,Centre,"sb\cbv.png",153,166 F,0,94731,,0.5 C,0,94731,,112,123,169 S,19,94731,95031,0.1,0.7 F,0,95131,95431,0.5,0
Sprite,Foreground,Centre,"sb\cbv.png",153,166 F,0,94889,,0.5 C,0,94889,,112,123,169 S,19,94889,95189,0.1,0.7 F,0,95289,95589,0.5,0
Sprite,Foreground,Centre,"sb\cbv.png",72,120 F,0,95046,,0.5 C,0,95046,,112,123,169 S,19,95046,95346,0.1,0.7 F,0,95446,95746,0.5,0
Sprite,Foreground,Centre,"sb\cbv.png",227,225 F,0,95520,,0.5 C,0,95520,,112,123,169 S,19,95520,95820,0.1,0.7 F,0,95920,96220,0.5,0
Sprite,Foreground,Centre,"sb\cbv.png",235,277 F,0,95836,,0.5 C,0,95836,,112,123,169 S,19,95836,96136,0.1,0.7 F,0,96236,96536,0.5,0
Sprite,Foreground,Centre,"sb\cbv.png",263,326 F,0,96152,,0.5 C,0,96152,,112,123,169 S,19,96152,96452,0.1,0.7 F,0,96552,96852,0.5,0
Sprite,Foreground,Centre,"sb\cbv.png",278,322 F,0,96231,,0.5 C,0,96231,,112,123,169 S,19,96231,96531,0.1,0.7 F,0,96631,96931,0.5,0
Sprite,Foreground,Centre,"sb\cbv.png",293,318 F,0,96310,,0.5 C,0,96310,,112,123,169 S,19,96310,96610,0.1,0.7 F,0,96710,97010,0.5,0
Sprite,Foreground,Centre,"sb\cbv.png",308,314 F,0,96389,,0.5 C,0,96389,,112,123,169 S,19,96389,96689,0.1,0.7 F,0,96789,97089,0.5,0
Sprite,Foreground,Centre,"sb\cbv.png",323,310 F,0,96468,,0.5 C,0,96468,,81,73,120 S,19,96468,96768,0.1,0.7 F,0,96868,97168,0.5,0
Sprite,Foreground,Centre,"sb\cbv.png",302,222 F,0,96941,,0.5 C,0,96941,,81,73,120 S,19,96941,97241,0.1,0.7 F,0,97341,97641,0.5,0
Sprite,Foreground,Centre,"sb\cbv.png",400,124 F,0,97257,,0.5 C,0,97257,,81,73,120 S,19,97257,97557,0.1,0.7 F,0,97657,97957,0.5,0
Sprite,Foreground,Centre,"sb\cbv.png",400,124 F,0,97415,,0.5 C,0,97415,,81,73,120 S,19,97415,97715,0.1,0.7 F,0,97815,98115,0.5,0
Sprite,Foreground,Centre,"sb\cbv.png",497,140 F,0,97573,,0.5 C,0,97573,,200,200,204 S,19,97573,97873,0.1,0.7 F,0,97973,98273,0.5,0
Sprite,Foreground,Centre,"sb\cbv.png",576,362 F,0,98046,,0.5 C,0,98046,,200,200,204 S,19,98046,98346,0.1,0.7 F,0,98446,98746,0.5,0
Sprite,Foreground,Centre,"sb\cbv.png",515,369 F,0,98362,,0.5 C,0,98362,,200,200,204 S,19,98362,98662,0.1,0.7 F,0,98762,99062,0.5,0
Sprite,Foreground,Centre,"sb\cbv.png",455,359 F,0,98678,,0.5 C,0,98678,,200,200,204 S,19,98678,98978,0.1,0.7 F,0,99078,99378,0.5,0
Sprite,Foreground,Centre,"sb\cbv.png",439,360 F,0,98757,,0.5 C,0,98757,,200,200,204 S,19,98757,99057,0.1,0.7 F,0,99157,99457,0.5,0
Sprite,Foreground,Centre,"sb\cbv.png",423,361 F,0,98836,,0.5 C,0,98836,,200,200,204 S,19,98836,99136,0.1,0.7 F,0,99236,99536,0.5,0
Sprite,Foreground,Centre,"sb\cbv.png",407,362 F,0,98915,,0.5 C,0,98915,,200,200,204 S,19,98915,99215,0.1,0.7 F,0,99315,99615,0.5,0
Sprite,Foreground,Centre,"sb\cbv.png",391,363 F,0,98994,,0.5 C,0,98994,,157,158,168 S,19,98994,99294,0.1,0.7 F,0,99394,99694,0.5,0
Sprite,Foreground,Centre,"sb\cbv.png",342,286 F,0,99468,,0.5 C,0,99468,,157,158,168 S,19,99468,99768,0.1,0.7 F,0,99868,100168,0.5,0
Sprite,Foreground,Centre,"sb\cbv.png",255,387 F,0,99783,,0.5 C,0,99783,,157,158,168 S,19,99783,100083,0.1,0.7 F,0,100183,100483,0.5,0
Sprite,Foreground,Centre,"sb\cbv.png",255,387 F,0,99941,,0.5 C,0,99941,,157,158,168 S,19,99941,100241,0.1,0.7 F,0,100341,100641,0.5,0
Sprite,Foreground,Centre,"sb\cbv.png",176,340 F,0,100099,,0.5 C,0,100099,,112,123,169 S,19,100099,100399,0.1,0.7 F,0,100499,100799,0.5,0
Sprite,Foreground,Centre,"sb\cbv.png",108,127 F,0,100573,,0.5 C,0,100573,,112,123,169 S,19,100573,100873,0.1,0.7 F,0,100973,101273,0.5,0
Sprite,Foreground,Centre,"sb\cbv.png",185,62 F,0,100731,,0.5 C,0,100731,,112,123,169 S,19,100731,101031,0.1,0.7 F,0,101131,101431,0.5,0
Sprite,Foreground,Centre,"sb\cbv.png",320,148 F,0,101046,,0.5 C,0,101046,,112,123,169 S,19,101046,101346,0.1,0.7 F,0,101446,101746,0.5,0
Sprite,Foreground,Centre,"sb\cbv.png",468,68 F,0,101362,,0.5 C,0,101362,,112,123,169 S,19,101362,101662,0.1,0.7 F,0,101762,102062,0.5,0
Sprite,Foreground,Centre,"sb\cbv.png",550,123 F,0,101520,,0.5 C,0,101520,,81,73,120 S,19,101520,101820,0.1,0.7 F,0,101920,102220,0.5,0
Sprite,Foreground,Centre,"sb\cbv.png",395,216 F,0,101994,,0.5 C,0,101994,,81,73,120 S,19,101994,102294,0.1,0.7 F,0,102394,102694,0.5,0
Sprite,Foreground,Centre,"sb\cbv.png",439,337 F,0,102310,,0.5 C,0,102310,,81,73,120 S,19,102310,102610,0.1,0.7 F,0,102710,103010,0.5,0
Sprite,Foreground,Centre,"sb\cbv.png",439,337 F,0,102468,,0.5 C,0,102468,,81,73,120 S,19,102468,102768,0.1,0.7 F,0,102868,103168,0.5,0
Sprite,Foreground,Centre,"sb\cbv.png",398,419 F,0,102625,,0.5 C,0,102625,,200,200,204 S,19,102625,102925,0.1,0.7 F,0,103025,103325,0.5,0
Sprite,Foreground,Centre,"sb\cbv.png",190,340 F,0,103099,,0.5 C,0,103099,,200,200,204 S,19,103099,103399,0.1,0.7 F,0,103499,103799,0.5,0
Sprite,Foreground,Centre,"sb\cbv.png",269,200 F,0,103415,,0.5 C,0,103415,,200,200,204 S,19,103415,103715,0.1,0.7 F,0,103815,104115,0.5,0
Sprite,Foreground,Centre,"sb\cbv.png",269,200 F,0,103573,,0.5 C,0,103573,,200,200,204 S,19,103573,103873,0.1,0.7 F,0,103973,104273,0.5,0
Sprite,Foreground,Centre,"sb\cbv.png",238,108 F,0,103731,,0.5 C,0,103731,,200,200,204 S,19,103731,104031,0.1,0.7 F,0,104131,104431,0.5,0
Sprite,Foreground,Centre,"sb\cbv.png",238,108 F,0,103889,,0.5 C,0,103889,,200,200,204 S,19,103889,104189,0.1,0.7 F,0,104289,104589,0.5,0
//Storyboard Layer 4 (Overlay)
//Storyboard Sound Samples

[TimingPoints]
468,315.789473684211,4,2,1,53,1,0
468,-142.857142857143,4,2,1,53,0,0
12389,-142.857142857143,4,2,1,5,0,0
12468,-142.857142857143,4,2,1,60,0,0
12625,-111.111111111111,4,2,1,60,0,0
33310,-111.111111111111,4,2,1,53,0,0
42704,-111.111111111111,4,2,1,5,0,0
42783,-111.111111111111,4,2,1,66,0,0
43415,-90.9090909090908,4,2,1,66,0,0
44046,-142.857142857143,4,2,1,66,0,0
44520,-125,4,2,1,66,0,0
44994,-111.111111111111,4,2,1,66,0,0
45468,-90.9090909090909,4,2,1,66,0,0
49573,-100,4,2,1,66,0,0
50046,-111.111111111111,4,2,1,66,0,0
50520,-125,4,2,1,66,0,0
50994,-90.9090909090909,4,2,1,66,0,0
59678,-100,4,2,1,66,0,0
60152,-111.111111111111,4,2,1,66,0,0
60625,-125,4,2,1,66,0,0
61099,-90.9090909090909,4,2,1,66,0,0
63152,-90.9090909090909,4,2,1,52,0,0
63625,-83.3333333333333,4,2,1,77,0,0
104046,-83.3333333333333,4,2,1,46,0,0

[Colours]
Combo1 : 157,158,168
Combo2 : 112,123,169
Combo3 : 81,73,120
Combo4 : 200,200,204

[HitObjects]
41,52,468,6,0,L|34:108,2,45.4999986114502,2|2|2,0:0|0:0|0:0,0:0:0:0:
190,87,1257,2,0,L|183:143,1,45.4999986114502,2|2,0:0|0:0,0:0:0:0:
166,206,1573,6,0,P|97:200|65:258,1,136.499995834351,2|0,0:0|0:0,0:0:0:0:
98,321,2204,2,0,L|93:370,2,45.4999986114502
171,291,2678,2,0,L|256:300,1,68.2499979171754
254,314,2994,5,2,0:0:0:0:
317,267,3152,1,2,0:0:0:0:
327,262,3231,1,2,0:0:0:0:
336,257,3310,1,2,0:0:0:0:
498,325,3783,2,0,L|507:265,2,45.4999986114502,2|2|2,0:0|0:0|0:0,0:0:0:0:
498,161,4731,6,0,P|505:120|503:104,1,45.4999986114502,2|2,0:0|0:0,0:0:0:0:
444,65,5046,2,0,P|421:30|408:19,1,45.4999986114502,2|2,0:0|0:0,0:0:0:0:
342,38,5362,1,2,0:0:0:0:
269,16,5520,6,0,P|256:56|265:125,1,90.9999972229005,2|0,0:0|0:0,0:0:0:0:
265,114,5915,1,2,0:0:0:0:
272,121,5994,2,0,B|226:89|183:110|187:129|147:155|85:114,1,181.999994445801,2|0,0:0|0:0,0:0:0:0:
72,53,6783,5,0,0:0:0:0:
5,168,7099,2,0,L|13:202,4,22.7499993057251,2|2|2|2|2,0:0|0:0|0:0|0:0|0:0,0:0:0:0:
94,207,7573,2,0,L|88:229,4,22.7499993057251,2|2|2|2|2,0:0|0:0|0:0|0:0|0:0,0:0:0:0:
176,179,8046,5,2,0:0:0:0:
176,179,8204,2,0,P|205:179|231:187,1,45.4999986114502
243,256,8520,2,0,L|240:331,1,68.2499979171754,2|0,0:0|0:0,0:0:0:0:
235,345,8836,2,0,P|307:328|340:330,1,90.9999972229005,2|2,0:0|0:0,0:0:0:0:
397,362,9310,6,0,L|436:367,3,22.7499993057251,2|2|2|2,0:0|0:0|0:0|0:0,0:0:0:0:
423,336,9625,2,0,L|462:341,3,22.7499993057251,2|2|2|2,0:0|0:0|0:0|0:0,0:0:0:0:
449,310,9941,2,0,L|488:315,3,22.7499993057251,2|2|2|2,0:0|0:0|0:0|0:0,0:0:0:0:
439,277,10257,1,2,0:0:0:0:
437,265,10336,1,2,0:0:0:0:
435,253,10415,1,2,0:0:0:0:
433,241,10494,1,2,0:0:0:0:
431,229,10573,1,2,3:2:0:0:
256,192,10731,12,0,12152,0:0:0:0:
85,85,12468,5,8,0:1:0:0:
71,88,12546,1,8,0:1:0:0:
57,90,12625,2,0,L|48:13,2,58.4999982147217,8|8|8,0:1|0:1|0:1,0:0:0:0:
17,158,13099,6,0,P|8:189|55:243,1,87.7499973220826,0|0,3:0|0:0,0:0:0:0:
55,238,13415,1,8,0:0:0:0:
120,194,13573,2,0,L|242:200,1,116.999996429443,0|8,3:0|0:0,0:0:0:0:
351,118,14204,6,0,P|392:118|411:125,2,58.4999982147217,2|2|2,0:0|0:0|3:2,0:0:0:0:
315,186,14678,1,10,0:0:0:0:
383,223,14836,2,0,B|382:280|382:280|379:283|379:283|378:343,1,116.999996429443,0|10,3:0|0:0,0:0:0:0:
306,370,15310,1,2,0:0:0:0:
306,370,15468,1,2,0:0:0:0:
253,311,15625,6,0,B|225:295|225:295|120:315,1,116.999996429443,2|8,3:2|0:0,0:0:0:0:
76,351,16099,1,2,3:2:0:0:
21,298,16257,1,2,0:0:0:0:
23,286,16336,1,2,0:0:0:0:
25,274,16415,1,10,0:0:0:0:
97,167,16731,6,0,L|93:107,2,58.4999982147217,2|2|2,0:0|0:0|3:2,0:0:0:0:
100,242,17204,1,8,0:0:0:0:
178,246,17362,2,0,P|230:220|236:175,1,87.7499973220826,0|0,3:0|0:0,0:0:0:0:
230,174,17678,2,0,L|225:132,4,29.2499991073609
165,87,18152,6,0,P|208:63|286:78,1,116.999996429443,0|8,3:0|0:0,0:0:0:0:
313,138,18625,1,2,3:2:0:0:
381,104,18783,1,2,0:0:0:0:
392,106,18862,1,2,0:0:0:0:
403,108,18941,1,10,0:0:0:0:
454,224,19257,6,0,L|525:215,2,58.4999982147217,2|2|2,0:0|0:0|3:2,0:0:0:0:
386,191,19731,1,8,0:0:0:0:
315,224,19889,2,0,L|308:353,1,116.999996429443,0|10,3:0|0:0,0:0:0:0:
242,372,20362,1,2,0:0:0:0:
242,372,20520,1,2,0:0:0:0:
184,317,20678,6,0,P|145:299|92:311,1,87.7499973220826,2|0,3:2|0:0,0:0:0:0:
86,323,20994,1,8,0:0:0:0:
25,275,21152,2,0,B|26:229|26:229|41:212|41:212|45:148,1,116.999996429443,0|8,3:0|0:0,0:0:0:0:
56,39,21783,6,0,L|-14:22,2,58.4999982147217,0|0|0,0:0|0:0|3:0,0:0:0:0:
95,105,22257,1,8,0:0:0:0:
159,63,22415,2,0,P|202:47|275:78,1,116.999996429443,0|10,3:0|0:0,0:0:0:0:
312,135,22889,2,0,L|309:174,3,29.2499991073609,2|2|2|2,0:0|0:0|0:0|0:0,0:0:0:0:
327,120,23204,6,0,P|372:102|300:235,1,438.749986610413,2|0,3:2|0:0,0:0:0:0:
294,231,24468,6,0,B|238:202|191:239|196:250|203:267|129:313|70:240,1,233.999992858887,2|0,0:0|0:0,0:0:0:0:
97,178,25257,1,2,3:2:0:0:
96,166,25336,1,2,3:2:0:0:
95,154,25415,2,0,L|91:73,1,58.4999982147217,10|0,0:0|0:0,0:0:0:0:
38,30,25731,6,0,P|94:11|139:25,1,87.7499973220826,0|0,3:0|0:0,0:0:0:0:
131,25,26046,1,8,0:0:0:0:
178,85,26204,2,0,B|212:62|212:62|305:71,1,116.999996429443,2|10,3:2|0:2,0:0:0:0:
340,125,26678,1,2,0:0:0:0:
351,123,26757,1,2,0:0:0:0:
362,121,26836,2,0,L|447:112,1,58.4999982147217,2|2,0:0|0:0,0:0:0:0:
488,151,27152,5,2,3:2:0:0:
488,151,27310,1,8,0:0:0:0:
432,207,27468,2,0,L|438:329,1,116.999996429443,2|8,3:2|0:0,0:0:0:0:
324,369,28099,1,2,3:2:0:0:
312,373,28178,1,0,0:0:0:0:
300,377,28257,6,0,L|191:356,1,87.7499973220826,2|0,3:2|0:0,0:0:0:0:
201,349,28573,1,8,0:0:0:0:
128,373,28731,2,0,L|87:360,3,29.2499991073609,0|2|2|2,3:0|0:0|0:0|0:0,0:0:0:0:
77,356,29046,1,2,3:2:0:0:
11,245,29362,6,0,P|7:216|15:183,2,58.4999982147217,0|0|0,0:0|0:0|3:0,0:0:0:0:
81,281,29836,1,8,0:0:0:0:
145,239,29994,2,0,B|200:242|200:242|203:246|203:246|275:250,1,116.999996429443,2|2,3:2|3:2,0:0:0:0:
308,190,30468,2,0,L|412:175,1,87.7499973220826,2|0,0:0|0:0,0:0:0:0:
413,187,30783,6,0,P|451:145|438:94,1,87.7499973220826,0|0,3:0|0:0,0:0:0:0:
440,103,31099,1,8,0:0:0:0:
385,51,31257,2,0,L|265:39,1,116.999996429443,2|10,3:2|0:2,0:0:0:0:
146,79,31889,6,0,L|138:10,2,58.4999982147217,2|2|2,0:0|0:0|3:2,0:0:0:0:
106,144,32362,1,8,0:0:0:0:
162,201,32520,2,0,P|158:233|80:267,1,116.999996429443,2|2,3:2|3:2,0:0:0:0:
71,262,32915,1,2,3:2:0:0:
71,262,32994,1,10,0:0:0:0:
0,363,33310,6,0,L|65:358,1,58.4999982147217,2|2,3:2|3:2,0:0:0:0:
148,275,33783,2,0,L|213:280,1,58.4999982147217,2|2,3:2|3:2,0:0:0:0:
295,370,34257,2,0,L|360:365,1,58.4999982147217,2|2,3:2|3:2,0:0:0:0:
439,266,34731,2,0,L|504:271,1,58.4999982147217,2|2,3:2|3:2,0:0:0:0:
506,37,35836,6,0,L|441:42,1,58.4999982147217,2|2,3:2|3:2,0:0:0:0:
358,125,36309,2,0,L|293:120,1,58.4999982147217,2|0,3:2|0:0,0:0:0:0:
211,30,36783,2,0,L|146:35,1,58.4999982147217,2|2,3:2|3:2,0:0:0:0:
67,134,37257,2,0,L|2:129,1,58.4999982147217,2|2,3:2|3:2,0:0:0:0:
119,205,38362,6,0,P|146:188|177:185,1,58.4999982147217,2|2,3:2|3:2,0:0:0:0:
261,108,38836,2,0,P|291:118|313:139,1,58.4999982147217,2|2,3:2|3:2,0:0:0:0:
426,154,39310,2,0,P|437:184|435:214,1,58.4999982147217,2|2,3:2|3:2,0:0:0:0:
496,309,39783,2,0,P|480:337|455:355,1,58.4999982147217,2|2,3:2|3:2,0:0:0:0:
256,190,40889,5,2,0:0:0:0:
36,277,41678,2,0,P|10:249|3:218,1,58.4999982147217,2|2,0:0|0:0,0:0:0:0:
19,155,41994,6,0,P|65:124|142:243,1,233.999992858887,2|0,0:0|0:0,0:0:0:0:
138,330,42783,1,8,0:1:0:0:
138,330,42941,1,8,0:1:0:0:
249,271,43099,1,8,0:1:0:0:
249,271,43257,1,8,0:1:0:0:
366,315,43415,6,0,B|411:256|386:207|358:217|330:156|392:93,1,214.500006546021,2|0,3:2|0:0,0:0:0:0:
446,91,44046,6,0,P|438:59|383:39,1,90.9999972229005,10|0,0:0|3:0,0:0:0:0:
311,68,44520,2,0,P|277:88|213:67,1,104,10|0,0:2|3:0,0:0:0:0:
157,21,44994,2,0,P|114:24|74:96,1,116.999996429443,10|0,0:0|3:0,0:0:0:0:
137,128,45468,2,0,P|155:188|95:251,1,143.000004364014,10|0,0:0|0:0,0:0:0:0:
32,248,45941,6,0,P|17:289|81:331,1,107.25000327301,2|0,3:2|0:0,0:0:0:0:
82,335,46257,1,8,0:0:0:0:
166,298,46415,2,0,L|208:306,5,35.7500010910034,2|2|2|2|2|2,3:2|1:2|1:2|1:2|1:2|1:2,0:0:0:0:
215,320,46889,1,2,1:2:0:0:
291,354,47046,6,0,B|295:256|295:256|278:233|278:233|281:131,1,214.500006546021,2|8,3:2|0:0,0:0:0:0:
309,70,47678,2,0,P|348:49|438:125,1,178.750005455017,2|0,3:2|0:0,0:0:0:0:
432,142,48152,1,8,0:0:0:0:
359,243,48468,6,0,B|288:197|229:226|246:263|174:289|116:225,1,250.250007637024,2|0,3:2|0:0,0:0:0:0:
101,211,49099,6,0,L|106:36,1,143.000004364014,10|0,0:0|3:0,0:0:0:0:
190,16,49573,2,0,L|194:151,1,130,10|0,0:0|3:0,0:0:0:0:
281,178,50046,2,0,L|284:51,1,116.999996429443,10|0,0:0|3:0,0:0:0:0:
376,34,50520,2,0,L|380:155,1,104,10|0,0:0|0:0,0:0:0:0:
450,179,50994,6,0,P|475:262|367:287,1,214.500006546021,2|2,3:2|1:2,0:0:0:0:
361,281,51546,1,2,1:2:0:0:
360,271,51625,1,10,1:2:0:0:
282,248,51783,1,2,1:2:0:0:
245,320,51941,1,10,1:2:0:0:
166,291,52099,6,0,L|16:305,1,143.000004364014,2|2,3:2|1:2,0:0:0:0:
4,302,52494,1,2,1:2:0:0:
4,302,52573,1,2,1:2:0:0:
0,218,52731,2,0,P|23:160|108:143,1,143.000004364014,2|8,3:2|0:0,0:0:0:0:
169,167,53204,2,0,P|212:165|268:111,1,107.25000327301,2|0,3:2|0:0,0:0:0:0:
266,100,53520,6,0,B|316:93|316:93|326:96|326:96|404:88,1,107.25000327301,2|0,3:2|0:0,0:0:0:0:
385,84,53836,1,10,0:0:0:0:
469,112,53994,2,0,L|480:5,2,107.25000327301,2|0|8,3:2|0:0|0:0,0:0:0:0:
405,165,54625,6,0,B|382:215|410:252|439:247|462:297|424:343,1,178.750005455017,2|0,3:2|0:0,0:0:0:0:
414,351,55099,1,8,0:0:0:0:
339,317,55257,2,0,B|258:323|258:323|246:319|246:319|139:329,1,178.750005455017,2|0,3:2|0:0,0:0:0:0:
144,341,55731,2,0,L|132:262,1,71.5000021820069,8|0,0:0|0:0,0:0:0:0:
63,221,56046,6,0,B|44:176|44:176|86:68|86:68|147:49,1,214.500006546021,2|2,3:2|1:2,0:0:0:0:
154,53,56599,1,2,1:2:0:0:
155,53,56678,1,10,1:2:0:0:
205,115,56836,1,2,3:2:0:0:
267,65,56994,1,10,1:2:0:0:
320,124,57152,6,0,P|397:105|427:188,1,178.750005455017,2|0,3:2|0:0,0:0:0:0:
418,199,57625,1,10,0:0:0:0:
345,222,57783,2,0,L|341:366,1,143.000004364014,2|8,3:2|0:0,0:0:0:0:
267,383,58257,2,0,P|223:369|198:335,1,71.5000021820069,2|0,3:2|0:0,0:0:0:0:
224,276,58573,6,0,L|230:228,6,35.7500010910034,2|2|2|2|2|2|2,3:2|0:0|0:0|0:0|0:0|0:0|0:0,0:0:0:0:
151,201,59204,6,0,P|140:159|181:65,1,143.000004364014,10|0,0:0|3:0,0:0:0:0:
251,91,59678,2,0,P|281:61|370:58,1,130,10|0,0:0|3:0,0:0:0:0:
393,125,60152,2,0,P|433:137|468:212,1,116.999996429443,10|0,0:0|3:0,0:0:0:0:
424,266,60625,2,0,P|430:308|381:365,1,104,10|0,0:0|0:0,0:0:0:0:
323,339,61099,6,0,L|189:332,1,107.25000327301,2|0,3:2|0:0,0:0:0:0:
195,348,61415,1,8,0:0:0:0:
122,304,61573,2,0,L|127:255,5,35.7500010910034,2|2|2|2|2|2,3:2|1:2|1:2|1:2|1:2|1:2,0:0:0:0:
136,258,62046,1,2,1:2:0:0:
205,214,62204,1,2,1:2:0:0:
489,104,63152,5,2,0:0:0:0:
433,41,63310,1,2,0:0:0:0:
422,43,63389,1,2,0:0:0:0:
412,45,63468,1,2,0:0:0:0:
401,46,63546,1,2,0:0:0:0:
390,48,63625,6,0,L|236:33,1,116.999996429443,4|0,3:2|0:0,0:0:0:0:
255,41,63941,1,8,0:0:0:0:
171,4,64099,2,0,P|156:49|221:132,1,155.999995239258,0|10,3:0|0:0,0:0:0:0:
310,121,64573,1,2,0:0:0:0:
334,213,64731,6,0,L|166:223,1,155.999995239258,2|2,0:0|3:2,0:0:0:0:
118,298,65204,1,10,0:0:0:0:
187,364,65362,2,0,L|355:374,1,155.999995239258,2|10,3:2|0:0,0:0:0:0:
442,354,65836,1,2,0:0:0:0:
410,265,65994,1,2,0:0:0:0:
413,249,66073,1,2,0:0:0:0:
416,233,66152,6,0,P|465:227|517:253,2,77.999997619629,2|2|10,3:2|0:0|0:0,0:0:0:0:
332,279,66625,1,2,3:2:0:0:
213,210,66941,1,10,0:0:0:0:
213,210,67099,1,2,0:0:0:0:
129,262,67257,6,0,P|65:251|60:152,1,155.999995239258,2|2,0:0|3:2,0:0:0:0:
153,133,67731,2,0,L|148:87,3,38.9999988098145,10|0|2|0,0:0|0:0|3:2|0:0,0:0:0:0:
123,70,68046,2,0,L|118:24,3,38.9999988098145,2|2|10|2,0:2|0:2|0:2|0:2,0:0:0:0:
142,19,68362,1,2,0:2:0:0:
157,21,68441,1,2,0:2:0:0:
172,23,68520,1,2,0:2:0:0:
187,25,68599,1,2,0:2:0:0:
202,27,68678,6,0,L|288:14,2,77.999997619629,2|2|10,3:2|0:0|0:0,0:0:0:0:
174,137,69152,1,2,3:2:0:0:
254,266,69468,1,10,0:0:0:0:
254,266,69625,1,2,0:0:0:0:
201,342,69783,6,0,B|273:350|273:350|280:345|280:345|372:352,1,155.999995239258,2|0,0:0|3:0,0:0:0:0:
448,361,70257,2,0,L|454:311,3,38.9999988098145,10|2|2|2,0:2|0:2|3:2|0:2,0:0:0:0:
493,304,70573,2,0,L|499:254,3,38.9999988098145,2|2|10|2,0:2|0:2|0:2|0:2,0:0:0:0:
487,242,70889,1,2,0:2:0:0:
483,226,70968,1,2,0:2:0:0:
480,210,71046,1,2,0:2:0:0:
477,194,71125,1,2,0:2:0:0:
474,178,71204,6,0,B|443:147|443:147|328:169,1,155.999995239258,2|10,0:2|0:0,0:0:0:0:
234,54,71836,5,2,3:2:0:0:
164,148,72073,5,2,3:2:0:0:
48,126,72310,5,2,3:2:0:0:
7,235,72546,5,2,3:2:0:0:
88,318,72783,5,2,3:2:0:0:
193,266,73020,5,2,3:2:0:0:
193,266,73178,2,0,P|251:264|311:298,1,116.999996429443,2|10,3:2|0:0,0:0:0:0:
427,379,73731,6,0,B|469:321|447:267|415:270|395:210|448:150,1,233.999992858887,2|0,3:2|3:0,0:0:0:0:
503,48,74520,1,10,0:0:0:0:
503,48,74678,1,2,0:0:0:0:
408,82,74836,6,0,B|342:68|342:68|326:77|326:77|243:57,1,155.999995239258,2|2,0:0|3:2,0:0:0:0:
136,14,75310,2,0,L|140:63,3,38.9999988098145,8|0|0|0,0:2|0:2|3:2|0:2,0:0:0:0:
117,75,75625,2,0,L|121:124,3,38.9999988098145,0|0|8|0,0:2|0:2|0:2|0:2,0:0:0:0:
102,122,75941,1,0,0:2:0:0:
86,119,76020,1,0,0:2:0:0:
70,116,76099,1,0,0:2:0:0:
54,113,76178,1,0,0:2:0:0:
38,110,76257,6,0,L|29:33,2,77.999997619629,2|2|10,0:2|0:0|0:0,0:0:0:0:
0,184,76731,1,2,3:2:0:0:
90,288,77046,1,8,0:0:0:0:
90,288,77204,1,2,0:0:0:0:
144,211,77362,6,0,P|209:203|265:279,1,155.999995239258,2|0,0:0|3:0,0:0:0:0:
183,339,77836,2,0,L|249:333,3,38.9999988098145,10|2|2|2,0:2|0:2|3:2|0:2,0:0:0:0:
255,355,78152,2,0,L|321:349,3,38.9999988098145,2|2|10|2,0:2|0:2|0:2|0:2,0:0:0:0:
316,329,78468,1,2,0:2:0:0:
331,331,78546,1,2,0:2:0:0:
346,333,78625,1,2,0:2:0:0:
361,335,78704,1,2,0:2:0:0:
376,337,78783,6,0,L|466:350,2,77.999997619629,2|2|10,3:2|0:0|0:0,0:0:0:0:
336,249,79257,1,2,3:2:0:0:
461,165,79573,1,8,0:0:0:0:
461,165,79731,1,2,0:0:0:0:
412,84,79889,6,0,P|365:67|261:105,1,155.999995239258,2|0,0:0|3:0,0:0:0:0:
226,184,80362,1,10,0:0:0:0:
143,122,80520,2,0,L|62:129,1,77.999997619629,2|2,3:2|0:0,0:0:0:0:
16,224,80836,2,0,L|97:231,1,77.999997619629,10|2,0:0|0:0,0:0:0:0:
179,282,81152,1,2,0:0:0:0:
136,365,81310,6,0,P|216:369|270:297,1,155.999995239258,2|8,3:2|0:0,0:0:0:0:
245,220,81783,1,0,3:0:0:0:
378,165,82099,1,10,0:0:0:0:
378,165,82257,1,2,0:0:0:0:
470,213,82415,6,0,B|472:138|472:138|477:134|477:134|480:42,1,155.999995239258,2|0,0:0|3:0,0:0:0:0:
396,8,82889,2,0,P|334:8|297:33,1,77.999997619629,8|0,0:0|3:0,0:0:0:0:
293,111,83204,1,8,0:1:0:0:
207,73,83362,1,8,0:1:0:0:
128,134,83520,2,0,L|89:113,3,38.9999988098145,8|8|8|8,0:1|0:1|0:1|0:1,0:0:0:0:
137,152,83836,5,8,0:1:0:0:
491,107,85731,5,8,0:1:0:0:
491,107,85889,1,8,0:0:0:0:
419,53,86046,1,8,0:1:0:0:
403,55,86125,1,8,0:1:0:0:
387,57,86204,1,8,0:1:0:0:
371,59,86283,1,8,0:1:0:0:
355,61,86362,6,0,P|304:52|287:30,1,77.999997619629,8|2,0:1|0:0,0:0:0:0:
224,100,86678,2,0,P|173:109|156:131,2,77.999997619629,10|2|2,0:0|3:2|0:0,0:0:0:0:
291,170,87152,1,10,0:0:0:0:
291,170,87310,1,2,0:0:0:0:
216,232,87468,6,0,P|196:312|262:368,1,155.999995239258,2|0,0:0|3:0,0:0:0:0:
306,314,87941,2,0,L|346:340,3,38.9999988098145,10|2|2|2,0:2|0:2|3:2|0:2,0:0:0:0:
369,333,88257,2,0,L|409:359,3,38.9999988098145,2|2|10|2,0:2|0:2|0:2|0:2,0:0:0:0:
419,351,88573,1,2,0:2:0:0:
423,336,88652,1,2,0:2:0:0:
427,321,88731,1,2,0:2:0:0:
431,306,88810,1,2,0:2:0:0:
435,291,88889,6,0,L|539:307,2,77.999997619629,2|2|10,3:2|0:0|0:0,0:0:0:0:
372,220,89362,1,2,3:2:0:0:
491,131,89678,1,10,0:0:0:0:
491,131,89836,1,2,0:0:0:0:
442,57,89994,6,0,B|365:59|365:59|360:64|360:64|259:66,1,155.999995239258,2|0,0:0|3:0,0:0:0:0:
242,150,90468,2,0,L|181:139,3,38.9999988098145,10|2|2|2,0:2|0:2|3:2|0:2,0:0:0:0:
181,120,90783,2,0,L|120:109,3,38.9999988098145,2|2|10|2,0:2|0:2|0:2|0:2,0:0:0:0:
120,133,91099,1,2,0:2:0:0:
105,127,91178,1,2,0:2:0:0:
90,121,91257,1,2,0:2:0:0:
75,115,91336,1,2,0:2:0:0:
60,108,91415,6,0,B|25:140|39:183|61:179|78:219|33:269,1,155.999995239258,2|10,3:2|0:0,0:0:0:0:
6,377,92046,5,2,3:2:0:0:
104,313,92283,5,2,3:2:0:0:
205,371,92520,5,2,3:2:0:0:
296,298,92757,5,2,3:2:0:0:
395,359,92994,5,2,3:2:0:0:
477,276,93231,5,2,3:2:0:0:
477,276,93389,2,0,P|475:215|456:152,1,116.999996429443,2|10,3:2|0:0,0:0:0:0:
388,98,93783,1,2,0:0:0:0:
315,161,93941,6,0,B|264:177|264:177|172:120,1,155.999995239258,2|10,3:2|0:0,0:0:0:0:
181,29,94415,1,2,3:2:0:0:
89,110,94731,1,10,0:0:0:0:
89,110,94889,1,2,0:0:0:0:
8,64,95046,2,0,P|-2:123|62:193,1,155.999995239258,2|0,0:0|3:0,0:0:0:0:
176,163,95520,2,0,L|183:207,3,38.9999988098145,10|2|2|2,0:2|0:2|3:2|0:2,0:0:0:0:
171,221,95836,2,0,L|178:265,3,38.9999988098145,2|2|10|2,0:2|0:2|0:2|0:2,0:0:0:0:
199,270,96152,1,2,0:2:0:0:
214,266,96231,1,2,0:2:0:0:
229,262,96310,1,2,0:2:0:0:
244,258,96389,1,2,0:2:0:0:
259,254,96468,6,0,L|336:267,2,77.999997619629,2|2|10,3:2|0:0|0:0,0:0:0:0:
238,166,96941,1,2,3:2:0:0:
336,68,97257,1,10,0:0:0:0:
336,68,97415,1,2,0:0:0:0:
430,83,97573,6,0,B|456:127|427:163|412:157|390:195|434:247,1,155.999995239258,2|0,0:0|3:0,0:0:0:0:
512,287,98046,2,0,L|473:291,3,38.9999988098145,10|2|2|2,0:2|0:2|3:2|0:2,0:0:0:0:
451,313,98362,2,0,L|412:317,3,38.9999988098145,2|2|10|2,0:2|0:2|0:2|0:2,0:0:0:0:
391,303,98678,1,2,0:2:0:0:
375,304,98757,1,2,0:2:0:0:
359,305,98836,1,2,0:2:0:0:
343,306,98915,1,2,0:2:0:0:
327,307,98994,6,0,L|338:398,2,77.999997619629,2|2|10,3:2|0:0|0:0,0:0:0:0:
278,230,99468,1,2,3:2:0:0:
191,331,99783,1,10,0:0:0:0:
191,331,99941,1,2,0:0:0:0:
112,284,100099,6,0,B|112:207|112:207|117:201|117:201|118:104,1,155.999995239258,2|0,0:0|3:0,0:0:0:0:
44,71,100573,1,8,0:0:0:0:
121,6,100731,2,0,L|218:18,1,77.999997619629,2|2,3:2|0:0,0:0:0:0:
256,92,101046,2,0,L|353:80,1,77.999997619629,10|2,0:0|0:0,0:0:0:0:
404,12,101362,1,2,0:0:0:0:
486,67,101520,6,0,P|496:132|416:162,1,155.999995239258,2|8,3:2|0:0,0:0:0:0:
331,160,101994,1,0,3:0:0:0:
375,281,102310,1,10,0:0:0:0:
375,281,102468,1,2,0:0:0:0:
334,363,102625,6,0,B|287:334|249:351|257:372|209:380|173:339,1,155.999995239258,2|0,0:0|3:0,0:0:0:0:
126,284,103099,2,0,L|130:191,1,77.999997619629,8|0,0:0|3:0,0:0:0:0:
205,144,103415,1,8,0:1:0:0:
205,144,103573,1,8,0:1:0:0:
174,52,103731,1,8,1:0:0:0:
174,52,103889,1,8,0:1:0:0:
80,68,104046,5,2,0:0:0:0:
