osu file format v14

[General]
AudioFilename: audio.mp3
AudioLeadIn: 0
PreviewTime: 85754
Countdown: 0
SampleSet: Normal
StackLeniency: 0.7
Mode: 1
LetterboxInBreaks: 0
WidescreenStoryboard: 1

[Editor]
DistanceSpacing: 1.9
BeatDivisor: 4
GridSize: 4
TimelineZoom: 2.3

[Metadata]
Title:Hacking Code
TitleUnicode:Hacking Code
Artist:Street
ArtistUnicode:Street
Creator:Zetera
Version:Arbitrary Oni Injection (AOI)
Source:
Tags:DRUM'N'BASS WASSOY!! Rakugaki Records DnB Drum and Bass Neurofunk
BeatmapID:1414105
BeatmapSetID:668397

[Difficulty]
HPDrainRate:5.7
CircleSize:2
OverallDifficulty:6.5
ApproachRate:5
SliderMultiplier:1.4
SliderTickRate:1

[Events]
//Background and Video events
0,0,"BG_HACKING.jpg",0,0
//Break Periods
//Storyboard Layer 0 (Background)
//Storyboard Layer 1 (Fail)
//Storyboard Layer 2 (Pass)
//Storyboard Layer 3 (Foreground)
//Storyboard Sound Samples

[TimingPoints]
11271.8959537572,344.827586206897,4,1,1,57,1,0
21961,-100,4,1,1,58,0,0
22019,-100,4,1,1,59,0,0
22076,-100,4,1,1,60,0,0
22133,-100,4,1,1,61,0,0
22191,-100,4,1,1,62,0,0
22248,-100,4,1,1,63,0,0
22306,-100,4,1,1,64,0,0
44461,-25,4,1,1,50,0,0
55409,-100,4,1,1,35,0,0
56789,-117.647058823529,4,1,1,30,0,0
58168,-142.857142857143,4,1,1,25,0,0
59547,-181.818181818182,4,1,1,20,0,0
60927,-250,4,1,1,15,0,0
62306,-400,4,1,1,10,0,0
63685,-1000,4,1,1,5,0,0
63771,-100,4,1,1,50,0,0
77478,-100,4,1,1,70,0,0
82996,-100,4,1,1,75,0,0
85840,-66.6666666666667,4,1,1,75,0,0
87996,-100,4,1,1,25,0,0
88168,-100,4,1,1,80,0,0
88513,-100,4,1,1,95,0,1
88685,-80.6451612903226,4,1,1,95,0,1
88743,-86.2068965517241,4,1,1,95,0,1
88800,-92.5925925925926,4,1,1,95,0,1
88858,-100,4,1,1,95,0,1
91444,-80.6451612903226,4,1,1,95,0,1
91501,-86.2068965517241,4,1,1,95,0,1
91559,-92.5925925925926,4,1,1,95,0,1
91616,-100,4,1,1,95,0,1
94202,-80.6451612903226,4,1,1,95,0,1
94260,-86.2068965517241,4,1,1,95,0,1
94317,-92.5925925925926,4,1,1,95,0,1
94375,-100,4,1,1,95,0,1
95064,-94.3396226415094,4,1,1,95,0,1
95179,-96.1538461538461,4,1,1,95,0,1
95294,-98.0392156862745,4,1,1,95,0,1
95409,-100,4,1,1,95,0,1
95754,-94.3396226415094,4,1,1,95,0,1
95869,-96.1538461538461,4,1,1,95,0,1
95984,-98.0392156862745,4,1,1,95,0,1
96099,-100,4,1,1,95,0,1
97133,-102.040816326531,4,1,1,95,0,1
97220,-104.166666666667,4,1,1,95,0,1
97306,-106.382978723404,4,1,1,95,0,1
97392,-108.695652173913,4,1,1,95,0,1
97478,-111.111111111111,4,1,1,95,0,1
97564,-113.636363636364,4,1,1,95,0,1
97651,-116.279069767442,4,1,1,95,0,1
97737,-119.047619047619,4,1,1,95,0,1
97823,-121.951219512195,4,1,1,95,0,1
97996,-125,4,1,1,95,0,1
98168,-131.578947368421,4,1,1,95,0,1
98340,-138.888888888889,4,1,1,95,0,1
98513,-147.058823529412,4,1,1,95,0,1
98628,-149.253731343284,4,1,1,95,0,1
98743,-151.515151515152,4,1,1,95,0,1
98858,-153.846153846154,4,1,1,95,0,1
98973,-156.25,4,1,1,95,0,1
99087,-158.730158730159,4,1,1,95,0,1
99202,-125,4,1,1,95,0,1
99289,-103.092783505155,4,1,1,95,0,1
99375,-87.719298245614,4,1,1,95,0,1
99461,-76.3358778625954,4,1,1,95,0,1
99547,-67.5675675675676,4,1,1,95,0,1
99720,-80.6451612903226,4,1,1,95,0,1
99777,-86.2068965517241,4,1,1,95,0,1
99835,-92.5925925925926,4,1,1,95,0,1
99892,-100,4,1,1,95,0,1
102478,-80.6451612903226,4,1,1,95,0,1
102536,-86.2068965517241,4,1,1,95,0,1
102593,-92.5925925925926,4,1,1,95,0,1
102651,-100,4,1,1,95,0,1
104720,-94.3396226415094,4,1,1,95,0,1
104777,-95.2380952380952,4,1,1,95,0,1
104835,-96.1538461538461,4,1,1,95,0,1
104892,-97.0873786407767,4,1,1,95,0,1
105064,-100,4,1,1,95,0,1
105237,-80.6451612903226,4,1,1,95,0,1
105294,-86.2068965517241,4,1,1,95,0,1
105352,-92.5925925925926,4,1,1,95,0,1
105409,-100,4,1,1,95,0,1
106099,-94.3396226415094,4,1,1,95,0,1
106214,-96.1538461538461,4,1,1,95,0,1
106329,-98.0392156862745,4,1,1,95,0,1
106444,-100,4,1,1,95,0,1
106789,-94.3396226415094,4,1,1,95,0,1
106904,-96.1538461538461,4,1,1,95,0,1
107019,-98.0392156862745,4,1,1,95,0,1
107133,-100,4,1,1,95,0,1
108168,-102.040816326531,4,1,1,95,0,1
108254,-104.166666666667,4,1,1,95,0,1
108340,-106.382978723404,4,1,1,95,0,1
108427,-108.695652173913,4,1,1,95,0,1
108513,-111.111111111111,4,1,1,95,0,1
108599,-113.636363636364,4,1,1,95,0,1
108685,-116.279069767442,4,1,1,95,0,1
108771,-119.047619047619,4,1,1,95,0,1
108858,-121.951219512195,4,1,1,95,0,1
109030,-125,4,1,1,95,0,1
109202,-131.578947368421,4,1,1,95,0,1
109375,-138.888888888889,4,1,1,95,0,1
109547,-147.058823529412,4,1,1,95,0,1
109662,-149.253731343284,4,1,1,95,0,1
109777,-151.515151515152,4,1,1,95,0,1
109892,-153.846153846154,4,1,1,95,0,1
110007,-156.25,4,1,1,95,0,1
110122,-158.730158730159,4,1,1,95,0,1
110237,-125,4,1,1,95,0,1
110323,-103.092783505155,4,1,1,95,0,1
110409,-87.719298245614,4,1,1,95,0,1
110496,-76.3358778625954,4,1,1,95,0,1
110582,-67.5675675675676,4,1,1,95,0,0
110840,-105.263157894737,4,1,1,95,0,0
112996,-104.166666666667,4,1,1,95,0,0
113082,-103.092783505155,4,1,1,95,0,0
113168,-102.040816326531,4,1,1,95,0,0
113254,-101.010101010101,4,1,1,95,0,0
113340,-100,4,1,1,95,0,1
113513,-80.6451612903226,4,1,1,95,0,1
113570,-86.2068965517241,4,1,1,95,0,1
113628,-92.5925925925926,4,1,1,95,0,1
113685,-100,4,1,1,95,0,1
116271,-80.6451612903226,4,1,1,95,0,1
116329,-86.2068965517241,4,1,1,95,0,1
116386,-92.5925925925926,4,1,1,95,0,1
116444,-100,4,1,1,95,0,1
117133,-94.3396226415094,4,1,1,95,0,1
117248,-96.1538461538461,4,1,1,95,0,1
117363,-98.0392156862745,4,1,1,95,0,1
117823,-94.3396226415094,4,1,1,95,0,1
117938,-96.1538461538461,4,1,1,95,0,1
118053,-98.0392156862745,4,1,1,95,0,1
119202,-102.040816326531,4,1,1,95,0,1
119289,-104.166666666667,4,1,1,95,0,1
119375,-106.382978723404,4,1,1,95,0,1
119461,-108.695652173913,4,1,1,95,0,1
119547,-111.111111111111,4,1,1,95,0,1
119633,-113.636363636364,4,1,1,95,0,1
119720,-116.279069767442,4,1,1,95,0,1
119806,-119.047619047619,4,1,1,95,0,1
119892,-121.951219512195,4,1,1,95,0,1
120064,-125,4,1,1,95,0,1
120237,-131.578947368421,4,1,1,95,0,1
120409,-138.888888888889,4,1,1,95,0,1
120582,-147.058823529412,4,1,1,95,0,1
120697,-149.253731343284,4,1,1,95,0,1
120812,-151.515151515152,4,1,1,95,0,1
120927,-153.846153846154,4,1,1,95,0,1
121042,-156.25,4,1,1,95,0,1
121156,-158.730158730159,4,1,1,95,0,1
121271,-125,4,1,1,95,0,1
121358,-103.092783505155,4,1,1,95,0,1
121444,-87.719298245614,4,1,1,95,0,1
121530,-76.3358778625954,4,1,1,95,0,1
121616,-67.5675675675676,4,1,1,95,0,1
121789,-80.6451612903226,4,1,1,95,0,1
121846,-86.2068965517241,4,1,1,95,0,1
121904,-92.5925925925926,4,1,1,95,0,1
121961,-100,4,1,1,95,0,1
124547,-80.6451612903226,4,1,1,95,0,1
124605,-86.2068965517241,4,1,1,95,0,1
124662,-92.5925925925926,4,1,1,95,0,1
124720,-100,4,1,1,95,0,1
127306,-80.6451612903226,4,1,1,95,0,1
127363,-86.2068965517241,4,1,1,95,0,1
127421,-92.5925925925926,4,1,1,95,0,1
127478,-100,4,1,1,95,0,1
128168,-94.3396226415094,4,1,1,95,0,1
128283,-96.1538461538461,4,1,1,95,0,1
128398,-98.0392156862745,4,1,1,95,0,1
128513,-100,4,1,1,95,0,1
128858,-94.3396226415094,4,1,1,95,0,1
128973,-96.1538461538461,4,1,1,95,0,1
129087,-98.0392156862745,4,1,1,95,0,1
129202,-100,4,1,1,95,0,1
130237,-102.040816326531,4,1,1,95,0,1
130323,-104.166666666667,4,1,1,95,0,1
130409,-106.382978723404,4,1,1,95,0,1
130496,-108.695652173913,4,1,1,95,0,1
130582,-111.111111111111,4,1,1,95,0,1
130668,-113.636363636364,4,1,1,95,0,1
130754,-116.279069767442,4,1,1,95,0,1
130840,-119.047619047619,4,1,1,95,0,1
130927,-121.951219512195,4,1,1,95,0,1
131099,-125,4,1,1,95,0,1
131271,-131.578947368421,4,1,1,95,0,1
131444,-138.888888888889,4,1,1,95,0,1
131616,-147.058823529412,4,1,1,95,0,1
131731,-149.253731343284,4,1,1,95,0,1
131846,-151.515151515152,4,1,1,95,0,1
131961,-153.846153846154,4,1,1,95,0,1
132076,-156.25,4,1,1,95,0,1
132191,-158.730158730159,4,1,1,95,0,1
132306,-125,4,1,1,95,0,1
132392,-103.092783505155,4,1,1,95,0,1
132478,-87.719298245614,4,1,1,95,0,1
132564,-76.3358778625954,4,1,1,95,0,1
132651,-67.5675675675676,4,1,1,95,0,0
132823,-100,4,1,1,80,0,0
174892,-111.111111111111,4,1,1,75,0,0
175409,-117.647058823529,4,1,1,70,0,0
176271,-133.333333333333,4,1,1,65,0,0
176444,-136.986301369863,4,1,1,63,0,0
176616,-140.845070422535,4,1,1,62,0,0
176702,-142.857142857143,4,1,1,61,0,0
176789,-144.927536231884,4,1,1,60,0,0
197478,-126.582278481013,4,1,1,60,0,0
198168,-112.359550561798,4,1,1,60,0,0
198858,-100,4,1,1,75,0,0
209547,-97.0873786407767,4,1,1,75,0,0
209720,-94.3396226415094,4,1,1,75,0,0
209892,-91.743119266055,4,1,1,75,0,0
215409,-90.9090909090909,4,1,1,75,0,0
216789,-90.0900900900901,4,1,1,75,0,0
220409,-71.4285714285714,4,1,1,25,0,0
220927,-105.263157894737,4,1,1,80,0,0
223685,-100,4,1,1,95,0,1
223858,-80.6451612903226,4,1,1,95,0,1
223915,-86.2068965517241,4,1,1,95,0,1
223973,-92.5925925925926,4,1,1,95,0,1
224030,-100,4,1,1,95,0,1
226616,-80.6451612903226,4,1,1,95,0,1
226674,-86.2068965517241,4,1,1,95,0,1
226731,-92.5925925925926,4,1,1,95,0,1
226789,-100,4,1,1,95,0,1
227478,-94.3396226415094,4,1,1,95,0,1
227593,-96.1538461538461,4,1,1,95,0,1
227708,-98.0392156862745,4,1,1,95,0,1
227823,-100,4,1,1,95,0,1
228168,-94.3396226415094,4,1,1,95,0,1
228283,-96.1538461538461,4,1,1,95,0,1
228398,-98.0392156862745,4,1,1,95,0,1
228513,-100,4,1,1,95,0,1
229547,-102.040816326531,4,1,1,95,0,1
229633,-104.166666666667,4,1,1,95,0,1
229720,-106.382978723404,4,1,1,95,0,1
229806,-108.695652173913,4,1,1,95,0,1
229892,-111.111111111111,4,1,1,95,0,1
229978,-113.636363636364,4,1,1,95,0,1
230064,-116.279069767442,4,1,1,95,0,1
230151,-119.047619047619,4,1,1,95,0,1
230237,-121.951219512195,4,1,1,95,0,1
230409,-125,4,1,1,95,0,1
230582,-131.578947368421,4,1,1,95,0,1
230754,-138.888888888889,4,1,1,95,0,1
230927,-147.058823529412,4,1,1,95,0,1
231042,-149.253731343284,4,1,1,95,0,1
231156,-151.515151515152,4,1,1,95,0,1
231271,-153.846153846154,4,1,1,95,0,1
231386,-156.25,4,1,1,95,0,1
231501,-158.730158730159,4,1,1,95,0,1
231616,-125,4,1,1,95,0,1
231702,-103.092783505155,4,1,1,95,0,1
231789,-87.719298245614,4,1,1,95,0,1
231875,-76.3358778625954,4,1,1,95,0,1
231961,-67.5675675675676,4,1,1,95,0,1
232133,-80.6451612903226,4,1,1,95,0,1
232191,-86.2068965517241,4,1,1,95,0,1
232248,-92.5925925925926,4,1,1,95,0,1
232306,-100,4,1,1,95,0,1
234892,-80.6451612903226,4,1,1,95,0,1
234950,-86.2068965517241,4,1,1,95,0,1
235007,-92.5925925925926,4,1,1,95,0,1
235064,-100,4,1,1,95,0,1
237133,-94.3396226415094,4,1,1,95,0,1
237191,-95.2380952380952,4,1,1,95,0,1
237248,-96.1538461538461,4,1,1,95,0,1
237306,-97.0873786407767,4,1,1,95,0,1
237478,-100,4,1,1,95,0,1
237651,-80.6451612903226,4,1,1,95,0,1
237708,-86.2068965517241,4,1,1,95,0,1
237766,-92.5925925925926,4,1,1,95,0,1
237823,-100,4,1,1,95,0,1
238513,-94.3396226415094,4,1,1,95,0,1
238628,-96.1538461538461,4,1,1,95,0,1
238743,-98.0392156862745,4,1,1,95,0,1
238858,-100,4,1,1,95,0,1
239202,-94.3396226415094,4,1,1,95,0,1
239317,-96.1538461538461,4,1,1,95,0,1
239432,-98.0392156862745,4,1,1,95,0,1
239547,-100,4,1,1,95,0,1
240582,-102.040816326531,4,1,1,95,0,1
240668,-104.166666666667,4,1,1,95,0,1
240754,-106.382978723404,4,1,1,95,0,1
240840,-108.695652173913,4,1,1,95,0,1
240927,-111.111111111111,4,1,1,95,0,1
241013,-113.636363636364,4,1,1,95,0,1
241099,-116.279069767442,4,1,1,95,0,1
241185,-119.047619047619,4,1,1,95,0,1
241271,-121.951219512195,4,1,1,95,0,1
241444,-125,4,1,1,95,0,1
241616,-131.578947368421,4,1,1,95,0,1
241789,-138.888888888889,4,1,1,95,0,1
241961,-147.058823529412,4,1,1,95,0,1
242076,-149.253731343284,4,1,1,95,0,1
242191,-151.515151515152,4,1,1,95,0,1
242306,-153.846153846154,4,1,1,95,0,1
242421,-156.25,4,1,1,95,0,1
242536,-158.730158730159,4,1,1,95,0,1
242651,-125,4,1,1,95,0,1
242737,-103.092783505155,4,1,1,95,0,1
242823,-87.719298245614,4,1,1,95,0,1
242909,-76.3358778625954,4,1,1,95,0,1
242996,-67.5675675675676,4,1,1,95,0,0
243254,-105.263157894737,4,1,1,95,0,0
245409,-104.166666666667,4,1,1,95,0,0
245496,-103.092783505155,4,1,1,95,0,0
245582,-102.040816326531,4,1,1,95,0,0
245668,-101.010101010101,4,1,1,95,0,0
245754,-100,4,1,1,95,0,1
245927,-80.6451612903226,4,1,1,95,0,1
245984,-86.2068965517241,4,1,1,95,0,1
246042,-92.5925925925926,4,1,1,95,0,1
246099,-100,4,1,1,95,0,1
246961,-96.1538461538461,4,1,1,95,0,1
247047,-93.4579439252336,4,1,1,95,0,1
247133,-91.743119266055,4,1,1,95,0,1
247220,-90.9090909090909,4,1,1,95,0,1
249547,-94.3396226415094,4,1,1,95,0,1
249662,-96.1538461538461,4,1,1,95,0,1
249777,-98.0392156862745,4,1,1,95,0,1
249892,-100,4,1,1,95,0,1
250237,-94.3396226415094,4,1,1,95,0,1
250352,-96.1538461538461,4,1,1,95,0,1
250467,-98.0392156862745,4,1,1,95,0,1
250582,-100,4,1,1,95,0,1
251616,-102.040816326531,4,1,1,95,0,1
251702,-104.166666666667,4,1,1,95,0,1
251789,-106.382978723404,4,1,1,95,0,1
251875,-108.695652173913,4,1,1,95,0,1
251961,-111.111111111111,4,1,1,95,0,1
252047,-113.636363636364,4,1,1,95,0,1
252133,-116.279069767442,4,1,1,95,0,1
252220,-119.047619047619,4,1,1,95,0,1
252306,-121.951219512195,4,1,1,95,0,1
252478,-125,4,1,1,95,0,1
252651,-131.578947368421,4,1,1,95,0,1
252823,-138.888888888889,4,1,1,95,0,1
252996,-147.058823529412,4,1,1,95,0,1
253110,-149.253731343284,4,1,1,95,0,1
253225,-151.515151515152,4,1,1,95,0,1
253340,-153.846153846154,4,1,1,95,0,1
253455,-156.25,4,1,1,95,0,1
253570,-158.730158730159,4,1,1,95,0,1
253685,-125,4,1,1,95,0,1
253771,-103.092783505155,4,1,1,95,0,1
253858,-87.719298245614,4,1,1,95,0,1
253944,-76.3358778625954,4,1,1,95,0,1
254030,-67.5675675675676,4,1,1,95,0,1
254202,-80.6451612903226,4,1,1,95,0,1
254260,-86.2068965517241,4,1,1,95,0,1
254317,-92.5925925925926,4,1,1,95,0,1
254375,-100,4,1,1,95,0,1
256961,-80.6451612903226,4,1,1,95,0,1
257019,-86.2068965517241,4,1,1,95,0,1
257076,-92.5925925925926,4,1,1,95,0,1
257133,-100,4,1,1,95,0,1
259202,-94.3396226415094,4,1,1,95,0,1
259260,-95.2380952380952,4,1,1,95,0,1
259317,-96.1538461538461,4,1,1,95,0,1
259375,-97.0873786407767,4,1,1,95,0,1
259547,-100,4,1,1,95,0,1
259720,-80.6451612903226,4,1,1,95,0,1
259777,-86.2068965517241,4,1,1,95,0,1
259835,-92.5925925925926,4,1,1,95,0,1
259892,-100,4,1,1,95,0,1
260582,-94.3396226415094,4,1,1,95,0,1
260697,-96.1538461538461,4,1,1,95,0,1
260812,-98.0392156862745,4,1,1,95,0,1
260927,-100,4,1,1,95,0,1
261271,-94.3396226415094,4,1,1,95,0,1
261386,-96.1538461538461,4,1,1,95,0,1
261501,-98.0392156862745,4,1,1,95,0,1
261616,-100,4,1,1,95,0,1
261961,-94.3396226415094,4,1,1,95,0,1
262019,-95.2380952380952,4,1,1,95,0,1
262076,-96.1538461538461,4,1,1,95,0,1
262133,-97.0873786407767,4,1,1,95,0,1
262306,-98.0392156862745,4,1,1,95,0,1
262392,-99.009900990099,4,1,1,95,0,1
262478,-100,4,1,1,95,0,1
262651,-102.040816326531,4,1,1,95,0,1
262737,-104.166666666667,4,1,1,95,0,1
262823,-106.382978723404,4,1,1,95,0,1
262909,-108.695652173913,4,1,1,95,0,1
262996,-111.111111111111,4,1,1,95,0,1
263082,-113.636363636364,4,1,1,95,0,1
263168,-116.279069767442,4,1,1,95,0,1
263254,-119.047619047619,4,1,1,95,0,1
263340,-121.951219512195,4,1,1,95,0,1
263513,-125,4,1,1,95,0,1
263685,-131.578947368421,4,1,1,95,0,1
263858,-138.888888888889,4,1,1,95,0,1
264030,-147.058823529412,4,1,1,95,0,1
264145,-149.253731343284,4,1,1,95,0,1
264260,-151.515151515152,4,1,1,95,0,1
264375,-138.888888888889,4,1,1,95,0,1
264461,-128.205128205128,4,1,1,95,0,1
264547,-119.047619047619,4,1,1,95,0,1
264633,-111.111111111111,4,1,1,95,0,1
264720,-104.166666666667,4,1,1,95,0,1
264806,-98.0392156862745,4,1,1,95,0,1
264892,-92.5925925925926,4,1,1,95,0,1
264978,-87.719298245614,4,1,1,95,0,1
265064,-83.3333333333333,4,1,1,95,0,0
265409,-100,4,1,1,80,0,0
286789,-100,4,1,1,76,0,0
286846,-100,4,1,1,72,0,0
286904,-100,4,1,1,68,0,0
286961,-100,4,1,1,64,0,0
287019,-100,4,1,1,60,0,0
287076,-100,4,1,1,56,0,0
287133,-100,4,1,1,52,0,0
309202,-100,4,1,1,55,0,0
310582,-111.111111111111,4,1,1,50,0,0
311961,-125,4,1,1,45,0,0
313340,-142.857142857143,4,1,1,40,0,0
314720,-166.666666666667,4,1,1,35,0,0
316099,-200,4,1,1,30,0,0
317478,-250,4,1,1,25,0,0
318858,-250,4,1,1,20,0,0
320237,-333.333333333333,4,1,1,15,0,0
321616,-500,4,1,1,10,0,0
322996,-1000,4,1,1,5,0,0

[HitObjects]
240,184,11271,5,0,0:0:0:0:
216,172,11616,1,8,0:0:0:0:
216,172,11961,1,8,0:0:0:0:
252,148,12133,1,0,0:0:0:0:
296,164,12651,1,0,0:0:0:0:
216,172,12996,1,8,0:0:0:0:
216,172,13340,1,8,0:0:0:0:
304,156,13513,1,0,0:0:0:0:
312,144,13685,1,8,0:0:0:0:
288,144,14030,1,0,0:0:0:0:
400,148,14375,1,8,0:0:0:0:
400,148,14720,1,8,0:0:0:0:
288,144,14892,1,0,0:0:0:0:
288,144,15409,1,0,0:0:0:0:
400,148,15754,1,8,0:0:0:0:
220,152,16099,1,8,0:0:0:0:
220,152,16185,1,8,0:0:0:0:
288,144,16271,1,0,0:0:0:0:
280,228,16444,1,8,0:0:0:0:
288,144,16789,1,0,0:0:0:0:
232,172,17133,1,8,0:0:0:0:
232,172,17478,1,8,0:0:0:0:
288,144,17651,1,0,0:0:0:0:
288,144,18168,1,0,0:0:0:0:
264,160,18513,1,8,0:0:0:0:
264,160,18858,1,8,0:0:0:0:
288,144,19030,1,0,0:0:0:0:
264,160,19202,1,8,0:0:0:0:
288,144,19547,1,0,0:0:0:0:
240,168,19892,1,8,0:0:0:0:
240,168,20237,1,8,0:0:0:0:
288,144,20409,1,0,0:0:0:0:
288,144,20927,1,0,0:0:0:0:
420,172,21271,1,8,0:0:0:0:
420,172,21616,1,8,0:0:0:0:
280,156,21702,1,8,0:0:0:0:
288,144,21789,1,0,0:0:0:0:
420,172,21961,1,8,0:0:0:0:
280,180,22019,1,8,0:0:0:0:
280,180,22076,1,8,0:0:0:0:
280,180,22133,1,8,0:0:0:0:
280,180,22191,1,8,0:0:0:0:
280,180,22248,1,8,0:0:0:0:
256,164,22306,1,0,0:0:0:0:
324,168,22651,1,8,0:0:0:0:
176,176,23168,1,0,0:0:0:0:
268,164,23340,1,8,0:0:0:0:
268,164,23599,1,8,0:0:0:0:
204,168,23685,1,0,0:0:0:0:
264,180,24030,1,8,0:0:0:0:
240,168,24289,1,0,0:0:0:0:
240,168,24461,1,0,0:0:0:0:
240,168,24547,1,0,0:0:0:0:
232,156,24720,1,8,0:0:0:0:
240,168,24892,1,0,0:0:0:0:
240,156,25064,1,0,0:0:0:0:
240,160,25409,1,8,0:0:0:0:
340,152,25927,1,0,0:0:0:0:
260,164,26099,1,8,0:0:0:0:
216,168,26358,1,8,0:0:0:0:
280,168,26444,1,0,0:0:0:0:
280,168,26616,1,0,0:0:0:0:
320,176,26789,1,8,0:0:0:0:
392,156,26961,1,0,0:0:0:0:
392,156,27220,1,0,0:0:0:0:
392,156,27306,1,0,0:0:0:0:
272,156,27478,1,8,0:0:0:0:
288,156,27651,1,0,0:0:0:0:
324,176,27737,1,8,0:0:0:0:
264,156,27823,1,0,0:0:0:0:
304,140,28168,1,8,0:0:0:0:
340,148,28685,1,0,0:0:0:0:
264,140,28858,1,8,0:0:0:0:
264,140,29116,1,8,0:0:0:0:
268,164,29202,1,0,0:0:0:0:
236,112,29547,1,8,0:0:0:0:
256,128,29806,1,0,0:0:0:0:
328,120,29978,1,0,0:0:0:0:
328,120,30064,1,0,0:0:0:0:
252,160,30237,1,8,0:0:0:0:
140,168,30409,1,0,0:0:0:0:
228,156,30582,1,0,0:0:0:0:
228,148,30927,1,8,0:0:0:0:
160,140,31444,1,0,0:0:0:0:
224,168,31616,1,8,0:0:0:0:
224,168,31875,1,8,0:0:0:0:
252,156,31961,1,0,0:0:0:0:
328,136,32133,1,0,0:0:0:0:
240,148,32306,1,8,0:0:0:0:
232,152,32478,1,0,0:0:0:0:
232,152,32737,1,0,0:0:0:0:
232,152,32823,1,0,0:0:0:0:
236,152,32996,1,8,0:0:0:0:
292,164,33168,1,0,0:0:0:0:
352,156,33340,1,12,0:0:0:0:
212,116,33685,1,8,0:0:0:0:
192,100,33944,1,0,0:0:0:0:
232,136,34116,1,0,0:0:0:0:
224,152,34202,1,0,0:0:0:0:
200,144,34375,1,8,0:0:0:0:
224,128,34547,1,0,0:0:0:0:
224,128,34633,1,0,0:0:0:0:
240,112,34720,1,0,0:0:0:0:
268,168,34892,1,0,0:0:0:0:
232,136,35064,1,8,0:0:0:0:
224,160,35323,1,0,0:0:0:0:
184,132,35496,1,8,0:0:0:0:
228,152,35582,1,0,0:0:0:0:
260,148,35754,1,8,0:0:0:0:
148,164,35927,1,0,0:0:0:0:
380,188,36013,1,8,0:0:0:0:
396,224,36099,1,0,0:0:0:0:
272,176,36271,1,0,0:0:0:0:
296,152,36444,1,8,0:0:0:0:
268,152,36702,1,0,0:0:0:0:
224,152,36875,1,0,0:0:0:0:
224,152,36961,1,0,0:0:0:0:
300,136,37133,1,8,0:0:0:0:
280,152,37306,1,0,0:0:0:0:
280,152,37392,1,0,0:0:0:0:
280,152,37478,1,0,0:0:0:0:
284,160,37651,1,0,0:0:0:0:
256,152,37823,1,8,0:0:0:0:
296,152,37996,1,0,0:0:0:0:
248,164,38082,1,8,0:0:0:0:
248,164,38254,1,8,0:0:0:0:
288,160,38340,1,0,0:0:0:0:
288,164,38513,1,8,0:0:0:0:
300,156,38685,1,0,0:0:0:0:
296,160,38771,1,8,0:0:0:0:
236,156,38858,1,0,0:0:0:0:
312,168,39030,1,0,0:0:0:0:
276,160,39202,1,8,0:0:0:0:
256,176,39461,1,0,0:0:0:0:
256,116,39633,1,0,0:0:0:0:
256,116,39720,1,0,0:0:0:0:
256,160,39892,1,8,0:0:0:0:
184,156,40064,1,0,0:0:0:0:
184,156,40151,1,0,0:0:0:0:
184,156,40237,1,0,0:0:0:0:
184,156,40409,1,0,0:0:0:0:
220,160,40582,1,8,0:0:0:0:
224,184,40840,1,0,0:0:0:0:
196,168,41013,1,8,0:0:0:0:
216,152,41099,1,0,0:0:0:0:
192,172,41271,1,8,0:0:0:0:
208,176,41358,1,8,0:0:0:0:
192,172,41444,1,0,0:0:0:0:
192,172,41530,1,8,0:0:0:0:
240,172,41616,1,0,0:0:0:0:
380,184,42133,1,8,0:0:0:0:
384,168,42478,1,0,0:0:0:0:
444,168,42996,1,0,0:0:0:0:
408,120,43513,1,8,0:0:0:0:
304,160,43858,1,0,0:0:0:0:
232,160,44030,1,8,0:0:0:0:
248,168,44202,1,8,0:0:0:0:
248,168,44289,1,8,0:0:0:0:
248,156,44375,1,4,0:0:0:0:
256,192,44461,12,0,55064,0:0:0:0:
208,196,55409,5,6,0:0:0:0:
292,172,56789,1,6,0:0:0:0:
292,172,58168,1,6,0:0:0:0:
292,136,59547,1,6,0:0:0:0:
248,184,60927,1,6,0:0:0:0:
304,132,62306,1,6,0:0:0:0:
360,164,63685,1,6,0:0:0:0:
184,180,66444,1,4,0:0:0:0:
216,172,66789,1,8,0:0:0:0:
216,172,67134,1,8,0:0:0:0:
252,148,67306,1,0,0:0:0:0:
296,164,67824,1,0,0:0:0:0:
216,172,68169,1,8,0:0:0:0:
216,172,68513,1,8,0:0:0:0:
304,156,68686,1,0,0:0:0:0:
312,144,68858,1,8,0:0:0:0:
288,144,69203,1,0,0:0:0:0:
400,148,69548,1,8,0:0:0:0:
400,148,69893,1,8,0:0:0:0:
288,144,70065,1,0,0:0:0:0:
288,144,70582,1,0,0:0:0:0:
400,148,70927,1,8,0:0:0:0:
220,152,71272,1,8,0:0:0:0:
220,152,71358,1,8,0:0:0:0:
288,144,71444,1,0,0:0:0:0:
280,228,71617,1,8,0:0:0:0:
288,144,71962,1,0,0:0:0:0:
232,172,72306,1,8,0:0:0:0:
232,172,72651,1,8,0:0:0:0:
288,144,72824,1,0,0:0:0:0:
288,144,73341,1,0,0:0:0:0:
264,160,73686,1,8,0:0:0:0:
264,160,74031,1,8,0:0:0:0:
288,144,74203,1,0,0:0:0:0:
264,160,74375,1,8,0:0:0:0:
288,144,74720,1,0,0:0:0:0:
240,168,75065,1,8,0:0:0:0:
240,168,75410,1,8,0:0:0:0:
288,144,75582,1,0,0:0:0:0:
288,144,76100,1,0,0:0:0:0:
420,172,76444,1,8,0:0:0:0:
420,172,76789,1,8,0:0:0:0:
336,176,76875,1,8,0:0:0:0:
288,144,76962,1,0,0:0:0:0:
128,140,77133,1,8,0:0:0:0:
128,140,77220,1,8,0:0:0:0:
216,152,77306,1,0,0:0:0:0:
216,152,77392,1,0,0:0:0:0:
316,144,77478,1,6,0:0:0:0:
204,128,77823,1,0,0:0:0:0:
220,148,78168,1,8,0:0:0:0:
192,148,78340,1,0,0:0:0:0:
312,148,78858,1,0,0:0:0:0:
248,148,79202,1,0,0:0:0:0:
236,160,79547,1,8,0:0:0:0:
220,164,79720,1,0,0:0:0:0:
268,144,79978,1,8,0:0:0:0:
292,160,80151,1,8,0:0:0:0:
240,164,80237,1,0,0:0:0:0:
304,160,80582,1,0,0:0:0:0:
220,108,80927,1,8,0:0:0:0:
200,148,81099,1,0,0:0:0:0:
236,144,81185,1,8,0:0:0:0:
232,172,81358,1,8,0:0:0:0:
216,168,81530,1,8,0:0:0:0:
256,140,81616,1,0,0:0:0:0:
224,152,81961,1,8,0:0:0:0:
256,204,82220,1,0,0:0:0:0:
256,164,82306,1,8,0:0:0:0:
236,184,82478,1,0,0:0:0:0:
164,176,82737,1,8,0:0:0:0:
184,168,82996,1,0,0:0:0:0:
260,132,83340,1,0,0:0:0:0:
260,132,83685,1,0,0:0:0:0:
260,132,84030,1,0,0:0:0:0:
260,132,84375,1,0,0:0:0:0:
176,176,84720,1,0,0:0:0:0:
176,176,85064,1,0,0:0:0:0:
268,160,85237,1,0,0:0:0:0:
176,176,85409,1,0,0:0:0:0:
224,152,85496,1,0,0:0:0:0:
224,152,85582,1,0,0:0:0:0:
224,152,85668,1,0,0:0:0:0:
160,124,85754,1,12,0:0:0:0:
256,192,85840,12,0,87651,0:0:0:0:
256,196,87996,5,0,0:0:0:0:
368,144,88168,1,12,0:0:0:0:
116,124,88513,1,4,0:0:0:0:
156,168,88685,1,8,0:0:0:0:
156,168,88743,1,8,0:0:0:0:
156,168,88800,1,8,0:0:0:0:
264,148,88858,1,0,0:0:0:0:
296,156,89030,1,0,0:0:0:0:
140,176,89202,1,8,0:0:0:0:
220,188,89289,1,0,0:0:0:0:
140,176,89375,1,8,0:0:0:0:
240,192,89547,1,0,0:0:0:0:
184,172,89720,1,8,0:0:0:0:
152,196,89892,1,0,0:0:0:0:
244,184,89978,1,8,0:0:0:0:
244,184,90064,1,8,0:0:0:0:
196,168,90151,1,0,0:0:0:0:
148,156,90237,1,8,0:0:0:0:
148,156,90323,1,8,0:0:0:0:
208,164,90409,1,0,0:0:0:0:
140,156,90582,1,8,0:0:0:0:
140,156,90668,1,8,0:0:0:0:
248,136,90754,1,8,0:0:0:0:
220,144,90927,1,0,0:0:0:0:
220,144,91013,1,0,0:0:0:0:
212,136,91099,1,8,0:0:0:0:
208,136,91185,1,8,0:0:0:0:
244,148,91271,1,0,0:0:0:0:
252,140,91444,1,8,0:0:0:0:
252,140,91501,1,8,0:0:0:0:
252,140,91559,1,8,0:0:0:0:
328,148,91616,1,0,0:0:0:0:
300,272,91789,1,0,0:0:0:0:
136,264,91961,1,8,0:0:0:0:
192,260,92047,1,8,0:0:0:0:
216,264,92133,1,0,0:0:0:0:
152,212,92306,1,8,0:0:0:0:
152,212,92392,1,8,0:0:0:0:
252,232,92478,1,8,0:0:0:0:
252,232,92564,1,8,0:0:0:0:
212,208,92651,1,0,0:0:0:0:
212,208,92737,1,0,0:0:0:0:
212,208,92823,1,0,0:0:0:0:
212,208,92909,1,0,0:0:0:0:
288,208,92996,1,8,0:0:0:0:
308,204,93168,1,0,0:0:0:0:
308,204,93254,1,0,0:0:0:0:
324,208,93427,1,0,0:0:0:0:
328,200,93513,1,0,0:0:0:0:
132,196,93685,1,8,0:0:0:0:
253,204,93772,1,0,0:0:0:0:
276,193,93858,1,8,0:0:0:0:
239,171,94030,1,4,0:0:0:0:
152,184,94202,1,8,0:0:0:0:
156,184,94260,1,8,0:0:0:0:
156,184,94317,1,8,0:0:0:0:
196,184,94375,1,0,0:0:0:0:
256,148,94547,1,0,0:0:0:0:
372,224,94633,1,0,0:0:0:0:
260,204,94720,1,8,0:0:0:0:
176,176,94806,1,8,0:0:0:0:
264,152,94892,1,0,0:0:0:0:
160,136,95064,1,8,0:0:0:0:
160,136,95179,1,8,0:0:0:0:
160,136,95294,1,8,0:0:0:0:
288,156,95409,1,0,0:0:0:0:
220,168,95582,1,0,0:0:0:0:
208,144,95754,1,8,0:0:0:0:
208,144,95869,1,8,0:0:0:0:
208,144,95984,1,8,0:0:0:0:
236,140,96099,1,0,0:0:0:0:
236,140,96185,1,0,0:0:0:0:
236,140,96271,1,0,0:0:0:0:
200,176,96444,1,8,0:0:0:0:
200,176,96616,1,8,0:0:0:0:
200,176,96702,1,8,0:0:0:0:
192,148,96789,1,0,0:0:0:0:
224,280,96961,1,0,0:0:0:0:
168,152,97133,1,8,0:0:0:0:
168,152,97220,1,8,0:0:0:0:
168,152,97306,1,8,0:0:0:0:
168,152,97392,1,8,0:0:0:0:
168,152,97478,1,8,0:0:0:0:
168,152,97564,1,8,0:0:0:0:
168,152,97651,1,8,0:0:0:0:
168,152,97737,1,8,0:0:0:0:
168,152,97823,1,8,0:0:0:0:
184,156,97996,1,8,0:0:0:0:
160,140,98168,1,0,0:0:0:0:
144,160,98340,1,8,0:0:0:0:
236,164,98513,1,0,0:0:0:0:
256,168,98628,1,8,0:0:0:0:
260,164,98743,1,8,0:0:0:0:
228,164,98858,1,0,0:0:0:0:
224,164,98973,1,0,0:0:0:0:
184,152,99087,1,8,0:0:0:0:
248,156,99202,1,0,0:0:0:0:
248,156,99289,1,0,0:0:0:0:
288,136,99375,1,8,0:0:0:0:
288,136,99461,1,8,0:0:0:0:
232,136,99547,1,4,0:0:0:0:
248,192,99720,1,8,0:0:0:0:
248,192,99777,1,8,0:0:0:0:
248,192,99835,1,8,0:0:0:0:
240,176,99892,1,0,0:0:0:0:
316,164,100064,1,0,0:0:0:0:
304,192,100237,1,8,0:0:0:0:
410,187,100323,1,8,0:0:0:0:
304,192,100409,1,0,0:0:0:0:
217,177,100582,1,8,0:0:0:0:
200,153,100668,1,0,0:0:0:0:
217,177,100754,1,8,0:0:0:0:
285,131,100927,1,8,0:0:0:0:
352,163,101099,1,0,0:0:0:0:
301,152,101185,1,0,0:0:0:0:
281,171,101271,1,8,0:0:0:0:
265,182,101444,1,0,0:0:0:0:
357,153,101616,1,8,0:0:0:0:
339,136,101789,1,0,0:0:0:0:
256,154,101961,1,8,0:0:0:0:
256,154,102047,1,8,0:0:0:0:
256,154,102133,1,8,0:0:0:0:
256,154,102220,1,8,0:0:0:0:
241,157,102306,1,0,0:0:0:0:
387,138,102478,1,8,0:0:0:0:
387,138,102536,1,8,0:0:0:0:
387,138,102593,1,8,0:0:0:0:
326,154,102651,1,0,0:0:0:0:
269,127,102823,1,0,0:0:0:0:
217,163,102996,1,8,0:0:0:0:
217,163,103082,1,8,0:0:0:0:
312,179,103168,1,0,0:0:0:0:
238,179,103340,1,0,0:0:0:0:
238,179,103427,1,0,0:0:0:0:
305,168,103513,1,8,0:0:0:0:
300,169,103599,1,8,0:0:0:0:
267,165,103685,1,0,0:0:0:0:
307,119,103771,1,8,0:0:0:0:
307,119,103858,1,8,0:0:0:0:
287,182,104030,1,8,0:0:0:0:
193,146,104116,1,0,0:0:0:0:
193,146,104289,1,0,0:0:0:0:
229,145,104375,1,0,0:0:0:0:
244,137,104547,1,8,0:0:0:0:
240,157,104720,1,0,0:0:0:0:
271,116,104777,1,0,0:0:0:0:
271,116,104835,1,0,0:0:0:0:
284,175,104892,1,8,0:0:0:0:
272,139,105064,1,4,0:0:0:0:
298,118,105237,1,8,0:0:0:0:
298,118,105294,1,8,0:0:0:0:
298,118,105352,1,8,0:0:0:0:
258,150,105409,1,0,0:0:0:0:
308,143,105582,1,0,0:0:0:0:
308,143,105668,1,0,0:0:0:0:
308,143,105840,1,0,0:0:0:0:
308,143,105927,1,0,0:0:0:0:
250,127,106099,1,8,0:0:0:0:
250,127,106214,1,8,0:0:0:0:
250,127,106329,1,8,0:0:0:0:
280,135,106444,1,0,0:0:0:0:
323,128,106616,1,0,0:0:0:0:
246,148,106789,1,8,0:0:0:0:
246,148,106904,1,8,0:0:0:0:
246,148,107019,1,8,0:0:0:0:
225,149,107133,1,0,0:0:0:0:
225,149,107306,1,0,0:0:0:0:
259,151,107478,1,8,0:0:0:0:
262,148,107651,1,8,0:0:0:0:
262,148,107737,1,8,0:0:0:0:
227,188,107823,1,0,0:0:0:0:
198,218,107996,1,0,0:0:0:0:
188,179,108168,1,8,0:0:0:0:
188,179,108254,1,8,0:0:0:0:
188,179,108340,1,8,0:0:0:0:
188,179,108427,1,8,0:0:0:0:
188,179,108513,1,8,0:0:0:0:
188,179,108599,1,8,0:0:0:0:
188,179,108685,1,8,0:0:0:0:
188,179,108771,1,8,0:0:0:0:
188,179,108858,1,8,0:0:0:0:
270,130,109030,1,8,0:0:0:0:
182,183,109202,1,0,0:0:0:0:
254,171,109375,1,8,0:0:0:0:
415,181,109547,1,0,0:0:0:0:
321,153,109662,1,8,0:0:0:0:
321,153,109777,1,8,0:0:0:0:
255,183,109892,1,0,0:0:0:0:
262,184,110007,1,0,0:0:0:0:
266,174,110122,1,8,0:0:0:0:
277,191,110237,1,0,0:0:0:0:
268,192,110323,1,0,0:0:0:0:
255,183,110409,1,8,0:0:0:0:
320,188,110496,1,8,0:0:0:0:
272,148,110582,1,4,0:0:0:0:
292,80,110840,1,0,0:0:0:0:
292,80,111099,1,0,0:0:0:0:
292,80,111358,1,0,0:0:0:0:
248,164,111444,1,8,0:0:0:0:
292,80,111616,1,0,0:0:0:0:
212,172,111875,1,0,0:0:0:0:
212,172,112133,1,0,0:0:0:0:
288,160,112220,1,8,0:0:0:0:
328,168,112306,1,8,0:0:0:0:
276,168,112392,1,0,0:0:0:0:
140,176,112564,1,0,0:0:0:0:
208,180,112651,1,8,0:0:0:0:
216,124,112823,1,0,0:0:0:0:
216,124,112909,1,0,0:0:0:0:
228,140,112996,1,8,0:0:0:0:
228,140,113082,1,8,0:0:0:0:
228,140,113168,1,8,0:0:0:0:
228,140,113254,1,8,0:0:0:0:
320,128,113340,1,4,0:0:0:0:
156,112,113513,1,8,0:0:0:0:
200,124,113570,1,8,0:0:0:0:
228,140,113628,1,8,0:0:0:0:
264,164,113685,1,0,0:0:0:0:
84,180,113858,1,0,0:0:0:0:
144,160,114030,1,8,0:0:0:0:
264,164,114116,1,8,0:0:0:0:
164,112,114202,1,0,0:0:0:0:
64,172,114375,1,8,0:0:0:0:
64,172,114461,1,8,0:0:0:0:
128,168,114547,1,0,0:0:0:0:
136,184,114633,1,8,0:0:0:0:
116,188,114720,1,0,0:0:0:0:
116,188,114806,1,8,0:0:0:0:
164,184,114892,1,8,0:0:0:0:
136,128,114978,1,0,0:0:0:0:
136,144,115064,1,8,0:0:0:0:
168,192,115151,1,8,0:0:0:0:
192,156,115237,1,0,0:0:0:0:
336,160,115409,1,0,0:0:0:0:
156,188,115496,1,0,0:0:0:0:
156,188,115582,1,0,0:0:0:0:
184,196,115754,1,8,0:0:0:0:
352,172,115927,1,0,0:0:0:0:
220,164,116099,1,4,0:0:0:0:
256,168,116271,1,8,0:0:0:0:
256,168,116329,1,8,0:0:0:0:
300,168,116386,1,8,0:0:0:0:
316,168,116444,1,0,0:0:0:0:
192,184,116616,1,0,0:0:0:0:
192,184,116702,1,0,0:0:0:0:
192,184,116875,1,0,0:0:0:0:
260,200,116961,1,0,0:0:0:0:
288,196,117133,1,8,0:0:0:0:
344,176,117248,1,0,0:0:0:0:
344,176,117363,1,0,0:0:0:0:
332,164,117478,1,8,0:0:0:0:
264,144,117564,1,8,0:0:0:0:
244,156,117651,1,0,0:0:0:0:
340,120,117823,1,0,0:0:0:0:
340,120,117938,1,0,0:0:0:0:
340,120,118053,1,0,0:0:0:0:
416,188,118168,1,8,0:0:0:0:
416,188,118254,1,8,0:0:0:0:
324,164,118340,1,0,0:0:0:0:
356,160,118427,1,0,0:0:0:0:
288,164,118513,1,8,0:0:0:0:
288,164,118685,1,8,0:0:0:0:
288,156,118858,1,4,0:0:0:0:
268,164,119030,1,0,0:0:0:0:
280,160,119202,1,8,0:0:0:0:
280,160,119289,1,8,0:0:0:0:
280,160,119375,1,8,0:0:0:0:
280,160,119461,1,8,0:0:0:0:
280,160,119547,1,8,0:0:0:0:
280,160,119633,1,8,0:0:0:0:
280,160,119720,1,8,0:0:0:0:
280,160,119806,1,8,0:0:0:0:
280,160,119892,1,8,0:0:0:0:
280,160,120064,1,8,0:0:0:0:
376,144,120237,1,0,0:0:0:0:
296,176,120409,1,8,0:0:0:0:
276,128,120582,1,0,0:0:0:0:
188,144,120697,1,8,0:0:0:0:
312,176,120812,1,8,0:0:0:0:
264,200,120927,1,0,0:0:0:0:
376,160,121042,1,0,0:0:0:0:
232,164,121156,1,8,0:0:0:0:
316,128,121271,1,0,0:0:0:0:
316,128,121358,1,0,0:0:0:0:
344,180,121444,1,8,0:0:0:0:
344,180,121530,1,8,0:0:0:0:
304,160,121616,1,4,0:0:0:0:
160,128,121789,1,8,0:0:0:0:
160,128,121846,1,8,0:0:0:0:
160,128,121904,1,8,0:0:0:0:
208,128,121961,1,0,0:0:0:0:
240,188,122133,1,0,0:0:0:0:
240,188,122220,1,0,0:0:0:0:
208,160,122306,1,8,0:0:0:0:
292,184,122392,1,0,0:0:0:0:
208,160,122478,1,8,0:0:0:0:
248,168,122651,1,8,0:0:0:0:
260,172,122737,1,0,0:0:0:0:
248,168,122823,1,8,0:0:0:0:
240,160,122996,1,0,0:0:0:0:
232,156,123082,1,0,0:0:0:0:
296,152,123254,1,0,0:0:0:0:
284,168,123340,1,8,0:0:0:0:
284,140,123513,1,0,0:0:0:0:
264,136,123599,1,8,0:0:0:0:
264,136,123685,1,8,0:0:0:0:
232,172,123771,1,8,0:0:0:0:
272,184,123858,1,0,0:0:0:0:
196,172,124030,1,8,0:0:0:0:
240,204,124116,1,8,0:0:0:0:
196,172,124202,1,8,0:0:0:0:
216,176,124289,1,8,0:0:0:0:
264,188,124375,1,0,0:0:0:0:
200,148,124547,1,8,0:0:0:0:
200,148,124605,1,8,0:0:0:0:
200,148,124662,1,8,0:0:0:0:
288,160,124720,1,0,0:0:0:0:
208,152,124892,1,0,0:0:0:0:
236,152,125064,1,8,0:0:0:0:
236,152,125151,1,8,0:0:0:0:
212,160,125237,1,8,0:0:0:0:
184,152,125409,1,0,0:0:0:0:
184,152,125496,1,0,0:0:0:0:
204,180,125582,1,8,0:0:0:0:
232,176,125668,1,8,0:0:0:0:
200,172,125754,1,0,0:0:0:0:
204,192,125840,1,0,0:0:0:0:
200,172,125927,1,8,0:0:0:0:
224,172,126099,1,8,0:0:0:0:
248,168,126271,1,0,0:0:0:0:
248,168,126358,1,0,0:0:0:0:
248,140,126530,1,8,0:0:0:0:
216,144,126616,1,0,0:0:0:0:
256,160,126789,1,0,0:0:0:0:
272,152,126875,1,8,0:0:0:0:
256,160,126961,1,0,0:0:0:0:
236,132,127133,1,4,0:0:0:0:
216,120,127306,1,8,0:0:0:0:
216,120,127363,1,8,0:0:0:0:
216,120,127421,1,8,0:0:0:0:
264,128,127478,1,0,0:0:0:0:
240,164,127651,1,0,0:0:0:0:
240,164,127737,1,0,0:0:0:0:
240,164,127823,1,0,0:0:0:0:
256,160,127996,1,0,0:0:0:0:
220,148,128168,1,0,0:0:0:0:
252,164,128283,1,8,0:0:0:0:
256,164,128398,1,8,0:0:0:0:
200,140,128513,1,0,0:0:0:0:
196,144,128599,1,0,0:0:0:0:
196,144,128685,1,0,0:0:0:0:
292,136,128858,1,0,0:0:0:0:
272,152,128973,1,8,0:0:0:0:
272,152,129087,1,0,0:0:0:0:
228,124,129202,1,8,0:0:0:0:
228,124,129289,1,8,0:0:0:0:
248,148,129375,1,0,0:0:0:0:
176,136,129547,1,8,0:0:0:0:
264,140,129720,1,0,0:0:0:0:
176,136,129806,1,8,0:0:0:0:
280,132,129892,1,0,0:0:0:0:
280,132,130064,1,0,0:0:0:0:
164,136,130237,1,8,0:0:0:0:
164,136,130323,1,8,0:0:0:0:
164,136,130409,1,8,0:0:0:0:
164,136,130496,1,8,0:0:0:0:
164,136,130582,1,8,0:0:0:0:
164,136,130668,1,8,0:0:0:0:
164,136,130754,1,8,0:0:0:0:
164,136,130840,1,8,0:0:0:0:
164,136,130927,1,8,0:0:0:0:
164,136,131099,1,8,0:0:0:0:
272,144,131271,1,0,0:0:0:0:
216,152,131444,1,8,0:0:0:0:
232,152,131616,1,8,0:0:0:0:
232,152,131731,1,8,0:0:0:0:
232,152,131846,1,8,0:0:0:0:
284,152,131961,1,0,0:0:0:0:
240,144,132076,1,8,0:0:0:0:
240,148,132191,1,8,0:0:0:0:
288,120,132306,1,0,0:0:0:0:
288,120,132392,1,0,0:0:0:0:
280,136,132478,1,8,0:0:0:0:
282,187,132564,1,8,0:0:0:0:
216,128,132651,1,4,0:0:0:0:
212,192,132823,1,0,0:0:0:0:
212,192,132909,1,0,0:0:0:0:
184,180,132996,1,8,0:0:0:0:
264,164,133168,1,0,0:0:0:0:
264,164,133254,1,0,0:0:0:0:
264,164,133340,1,0,0:0:0:0:
264,164,133427,1,0,0:0:0:0:
264,164,133513,1,0,0:0:0:0:
188,152,133685,1,8,0:0:0:0:
164,180,133858,1,0,0:0:0:0:
164,180,133944,1,0,0:0:0:0:
184,188,134030,1,8,0:0:0:0:
200,184,134202,1,8,0:0:0:0:
196,184,134289,1,8,0:0:0:0:
196,184,134375,1,8,0:0:0:0:
216,160,134547,1,0,0:0:0:0:
216,160,134633,1,0,0:0:0:0:
216,160,134720,1,0,0:0:0:0:
216,160,134806,1,8,0:0:0:0:
256,168,134892,1,0,0:0:0:0:
248,132,135064,1,8,0:0:0:0:
244,144,135237,1,8,0:0:0:0:
244,144,135323,1,8,0:0:0:0:
240,164,135409,1,0,0:0:0:0:
240,168,135582,1,0,0:0:0:0:
240,168,135668,1,0,0:0:0:0:
272,148,135754,1,8,0:0:0:0:
220,136,135927,1,0,0:0:0:0:
220,136,136013,1,0,0:0:0:0:
220,136,136099,1,0,0:0:0:0:
224,140,136185,1,0,0:0:0:0:
220,136,136271,1,0,0:0:0:0:
304,152,136444,1,8,0:0:0:0:
252,152,136616,1,0,0:0:0:0:
248,152,136702,1,0,0:0:0:0:
252,168,136789,1,8,0:0:0:0:
256,164,136961,1,8,0:0:0:0:
256,164,137047,1,8,0:0:0:0:
256,164,137133,1,8,0:0:0:0:
240,148,137306,1,0,0:0:0:0:
240,152,137392,1,0,0:0:0:0:
240,152,137478,1,8,0:0:0:0:
240,152,137564,1,0,0:0:0:0:
240,152,137651,1,0,0:0:0:0:
260,160,137823,1,8,0:0:0:0:
276,184,137909,1,0,0:0:0:0:
284,160,138082,1,0,0:0:0:0:
284,160,138168,1,0,0:0:0:0:
308,168,138340,1,0,0:0:0:0:
256,172,138427,1,0,0:0:0:0:
216,156,138513,1,8,0:0:0:0:
136,176,138685,1,0,0:0:0:0:
124,172,138771,1,0,0:0:0:0:
124,172,138858,1,0,0:0:0:0:
124,172,138944,1,0,0:0:0:0:
136,176,139030,1,0,0:0:0:0:
208,192,139202,1,8,0:0:0:0:
284,184,139375,1,0,0:0:0:0:
284,184,139461,1,0,0:0:0:0:
208,192,139547,1,8,0:0:0:0:
180,196,139720,1,8,0:0:0:0:
180,196,139806,1,8,0:0:0:0:
180,196,139892,1,8,0:0:0:0:
112,144,140064,1,0,0:0:0:0:
112,144,140151,1,0,0:0:0:0:
112,144,140237,1,0,0:0:0:0:
112,144,140323,1,8,0:0:0:0:
112,144,140409,1,0,0:0:0:0:
216,172,140582,1,8,0:0:0:0:
216,172,140668,1,8,0:0:0:0:
224,160,140754,1,0,0:0:0:0:
224,160,140840,1,0,0:0:0:0:
284,128,140927,1,8,0:0:0:0:
184,120,141042,1,8,0:0:0:0:
184,120,141156,1,8,0:0:0:0:
268,168,141271,1,0,0:0:0:0:
156,140,141444,1,0,0:0:0:0:
156,140,141530,1,0,0:0:0:0:
156,140,141616,1,0,0:0:0:0:
156,140,141702,1,0,0:0:0:0:
156,140,141789,1,0,0:0:0:0:
212,156,141961,1,8,0:0:0:0:
180,184,142133,1,0,0:0:0:0:
180,184,142220,1,0,0:0:0:0:
208,176,142306,1,8,0:0:0:0:
208,176,142478,1,8,0:0:0:0:
208,176,142564,1,8,0:0:0:0:
208,176,142651,1,8,0:0:0:0:
236,196,142823,1,0,0:0:0:0:
236,196,142909,1,0,0:0:0:0:
236,196,142996,1,8,0:0:0:0:
236,196,143082,1,0,0:0:0:0:
236,196,143168,1,0,0:0:0:0:
212,168,143340,1,8,0:0:0:0:
212,168,143427,1,8,0:0:0:0:
176,184,143513,1,8,0:0:0:0:
268,172,143685,1,4,0:0:0:0:
300,188,143944,1,0,0:0:0:0:
264,184,144030,1,8,0:0:0:0:
224,172,144202,1,0,0:0:0:0:
240,172,144547,1,0,0:0:0:0:
192,160,144720,1,8,0:0:0:0:
328,148,144806,1,0,0:0:0:0:
272,168,144978,1,0,0:0:0:0:
272,168,145064,1,0,0:0:0:0:
240,164,145323,1,8,0:0:0:0:
264,168,145582,1,0,0:0:0:0:
236,140,145754,1,0,0:0:0:0:
236,140,145840,1,0,0:0:0:0:
216,156,145927,1,8,0:0:0:0:
284,152,146099,1,0,0:0:0:0:
200,164,146185,1,8,0:0:0:0:
240,148,146358,1,8,0:0:0:0:
256,152,146444,1,0,0:0:0:0:
272,176,146616,1,8,0:0:0:0:
268,168,146702,1,8,0:0:0:0:
208,176,146789,1,0,0:0:0:0:
204,148,146961,1,8,0:0:0:0:
252,168,147047,1,0,0:0:0:0:
232,160,147133,1,8,0:0:0:0:
288,168,147306,1,0,0:0:0:0:
296,148,147392,1,8,0:0:0:0:
217,145,147564,1,8,0:0:0:0:
224,156,147651,1,0,0:0:0:0:
236,140,147823,1,0,0:0:0:0:
280,148,147909,1,0,0:0:0:0:
220,152,147996,1,8,0:0:0:0:
160,144,148168,1,0,0:0:0:0:
200,156,148340,1,8,0:0:0:0:
240,164,148427,1,8,0:0:0:0:
168,156,148513,1,0,0:0:0:0:
208,152,148685,1,0,0:0:0:0:
240,152,148858,1,8,0:0:0:0:
200,164,149030,1,0,0:0:0:0:
220,168,149116,1,0,0:0:0:0:
220,168,149202,1,0,0:0:0:0:
240,152,149547,1,8,0:0:0:0:
200,140,149662,1,8,0:0:0:0:
200,140,149777,1,8,0:0:0:0:
244,140,149892,1,0,0:0:0:0:
272,120,150064,1,0,0:0:0:0:
272,120,150151,1,0,0:0:0:0:
212,176,150237,1,8,0:0:0:0:
228,156,150409,1,0,0:0:0:0:
280,152,150496,1,8,0:0:0:0:
224,172,150582,1,0,0:0:0:0:
208,136,150754,1,8,0:0:0:0:
208,136,150927,1,8,0:0:0:0:
324,120,151185,1,0,0:0:0:0:
256,160,151271,1,8,0:0:0:0:
224,160,151358,1,8,0:0:0:0:
240,168,151444,1,0,0:0:0:0:
228,152,151616,1,8,0:0:0:0:
256,168,151789,1,8,0:0:0:0:
272,156,151961,1,0,0:0:0:0:
368,168,152306,1,0,0:0:0:0:
276,176,152478,1,8,0:0:0:0:
288,180,152651,1,0,0:0:0:0:
184,164,152737,1,8,0:0:0:0:
204,144,152909,1,8,0:0:0:0:
232,164,152996,1,0,0:0:0:0:
276,168,153168,1,8,0:0:0:0:
276,168,153254,1,8,0:0:0:0:
220,176,153340,1,0,0:0:0:0:
216,120,153513,1,0,0:0:0:0:
248,164,153685,1,8,0:0:0:0:
216,160,153858,1,0,0:0:0:0:
212,168,153944,1,8,0:0:0:0:
192,160,154202,1,8,0:0:0:0:
192,160,154289,1,8,0:0:0:0:
240,160,154375,1,0,0:0:0:0:
180,164,154432,1,0,0:0:0:0:
180,164,154490,1,0,0:0:0:0:
248,140,154547,1,8,0:0:0:0:
316,148,154720,1,4,0:0:0:0:
256,136,154978,1,8,0:0:0:0:
264,160,155064,1,0,0:0:0:0:
276,172,155237,1,8,0:0:0:0:
220,160,155409,1,0,0:0:0:0:
220,160,155582,1,0,0:0:0:0:
272,160,155668,1,8,0:0:0:0:
272,160,155754,1,8,0:0:0:0:
400,184,155927,1,0,0:0:0:0:
188,152,156099,1,8,0:0:0:0:
232,144,156271,1,0,0:0:0:0:
264,148,156358,1,8,0:0:0:0:
248,156,156444,1,0,0:0:0:0:
248,148,156616,1,8,0:0:0:0:
264,176,156702,1,0,0:0:0:0:
268,160,156875,1,0,0:0:0:0:
268,128,156961,1,0,0:0:0:0:
196,152,157133,1,8,0:0:0:0:
228,152,157248,1,8,0:0:0:0:
228,152,157363,1,8,0:0:0:0:
224,148,157478,1,0,0:0:0:0:
204,112,157651,1,0,0:0:0:0:
204,112,157737,1,0,0:0:0:0:
248,144,157823,1,8,0:0:0:0:
168,148,157996,1,0,0:0:0:0:
264,144,158082,1,8,0:0:0:0:
280,144,158168,1,8,0:0:0:0:
256,112,158340,1,0,0:0:0:0:
216,132,158427,1,0,0:0:0:0:
264,124,158513,1,8,0:0:0:0:
268,112,158685,1,0,0:0:0:0:
264,136,158858,1,0,0:0:0:0:
224,120,158944,1,8,0:0:0:0:
304,140,159116,1,0,0:0:0:0:
304,140,159202,1,0,0:0:0:0:
284,152,159289,1,8,0:0:0:0:
304,160,159375,1,0,0:0:0:0:
284,152,159461,1,8,0:0:0:0:
252,144,159547,1,0,0:0:0:0:
260,140,159720,1,0,0:0:0:0:
260,140,159806,1,0,0:0:0:0:
288,144,159892,1,8,0:0:0:0:
288,132,159978,1,0,0:0:0:0:
208,144,160151,1,8,0:0:0:0:
208,144,160237,1,8,0:0:0:0:
324,92,160409,1,0,0:0:0:0:
324,92,160496,1,0,0:0:0:0:
240,124,160582,1,8,0:0:0:0:
292,104,160754,1,0,0:0:0:0:
184,136,160927,1,0,0:0:0:0:
256,128,161013,1,0,0:0:0:0:
236,144,161099,1,8,0:0:0:0:
360,144,161271,1,0,0:0:0:0:
332,152,161444,1,8,0:0:0:0:
292,144,161616,1,0,0:0:0:0:
188,144,161702,1,0,0:0:0:0:
244,136,161875,1,0,0:0:0:0:
200,160,161961,1,8,0:0:0:0:
208,188,162047,1,0,0:0:0:0:
220,156,162220,1,0,0:0:0:0:
248,140,162306,1,0,0:0:0:0:
288,164,162392,1,0,0:0:0:0:
248,168,162478,1,8,0:0:0:0:
248,164,162651,1,0,0:0:0:0:
228,164,162737,1,8,0:0:0:0:
256,160,162823,1,0,0:0:0:0:
252,152,162996,1,8,0:0:0:0:
252,152,163110,1,8,0:0:0:0:
252,152,163225,1,8,0:0:0:0:
240,160,163340,1,0,0:0:0:0:
240,160,163513,1,0,0:0:0:0:
224,160,163599,1,0,0:0:0:0:
260,144,163685,1,8,0:0:0:0:
184,156,163858,1,8,0:0:0:0:
104,156,164030,1,0,0:0:0:0:
104,156,164116,1,0,0:0:0:0:
244,160,164202,1,8,0:0:0:0:
172,164,164375,1,0,0:0:0:0:
192,160,164461,1,0,0:0:0:0:
236,176,164633,1,8,0:0:0:0:
216,180,164720,1,0,0:0:0:0:
228,132,164892,1,0,0:0:0:0:
180,164,165064,1,8,0:0:0:0:
136,176,165237,1,0,0:0:0:0:
184,144,165409,1,8,0:0:0:0:
200,160,165496,1,8,0:0:0:0:
232,156,165582,1,8,0:0:0:0:
232,136,165754,1,4,0:0:0:0:
326,161,166099,1,8,0:0:0:0:
326,161,166214,1,8,0:0:0:0:
298,179,166329,1,0,0:0:0:0:
187,173,166444,1,8,0:0:0:0:
201,172,166530,1,0,0:0:0:0:
201,172,166616,1,0,0:0:0:0:
282,184,166789,1,8,0:0:0:0:
219,183,166961,1,0,0:0:0:0:
187,173,167047,1,8,0:0:0:0:
187,173,167133,1,8,0:0:0:0:
257,171,167306,1,0,0:0:0:0:
257,171,167478,1,8,0:0:0:0:
176,170,167651,1,0,0:0:0:0:
176,170,167737,1,0,0:0:0:0:
176,170,167909,1,0,0:0:0:0:
187,155,167996,1,8,0:0:0:0:
215,178,168082,1,0,0:0:0:0:
236,186,168254,1,8,0:0:0:0:
259,190,168340,1,0,0:0:0:0:
316,182,168427,1,8,0:0:0:0:
252,196,168513,1,0,0:0:0:0:
215,178,168685,1,0,0:0:0:0:
215,178,168771,1,0,0:0:0:0:
239,149,168858,1,8,0:0:0:0:
205,187,169030,1,0,0:0:0:0:
144,184,169116,1,8,0:0:0:0:
144,184,169202,1,8,0:0:0:0:
204,172,169289,1,0,0:0:0:0:
237,180,169461,1,8,0:0:0:0:
226,166,169633,1,0,0:0:0:0:
213,163,169720,1,8,0:0:0:0:
215,177,169892,1,0,0:0:0:0:
176,169,170064,1,8,0:0:0:0:
175,178,170151,1,8,0:0:0:0:
196,194,170237,1,0,0:0:0:0:
157,204,170409,1,8,0:0:0:0:
229,156,170582,1,0,0:0:0:0:
229,156,170668,1,0,0:0:0:0:
229,156,170754,1,0,0:0:0:0:
250,180,170927,1,8,0:0:0:0:
234,177,171099,1,0,0:0:0:0:
321,206,171185,1,0,0:0:0:0:
220,186,171271,1,8,0:0:0:0:
211,188,171444,1,0,0:0:0:0:
233,180,171616,1,8,0:0:0:0:
233,180,171731,1,8,0:0:0:0:
233,180,171846,1,8,0:0:0:0:
245,150,171961,1,0,0:0:0:0:
185,166,172133,1,0,0:0:0:0:
185,166,172220,1,0,0:0:0:0:
185,166,172306,1,8,0:0:0:0:
173,162,172478,1,8,0:0:0:0:
276,122,172651,1,0,0:0:0:0:
241,136,172823,1,8,0:0:0:0:
202,168,172909,1,0,0:0:0:0:
212,169,172996,1,8,0:0:0:0:
239,187,173168,1,0,0:0:0:0:
239,187,173254,1,0,0:0:0:0:
192,177,173340,1,8,0:0:0:0:
205,155,173513,1,0,0:0:0:0:
134,161,173685,1,8,0:0:0:0:
134,161,173771,1,8,0:0:0:0:
240,168,173858,1,0,0:0:0:0:
269,172,174030,1,4,0:0:0:0:
269,172,174892,1,0,0:0:0:0:
165,156,175409,1,0,0:0:0:0:
165,156,176271,1,0,0:0:0:0:
227,149,176444,1,8,0:0:0:0:
239,170,176616,1,8,0:0:0:0:
239,170,176702,1,8,0:0:0:0:
206,176,176789,1,4,0:0:0:0:
179,164,178858,1,8,0:0:0:0:
251,162,179547,1,8,0:0:0:0:
308,154,181616,1,0,0:0:0:0:
370,161,182306,1,0,0:0:0:0:
161,153,184375,1,8,0:0:0:0:
194,182,185064,1,8,0:0:0:0:
386,162,186444,1,0,0:0:0:0:
167,163,187133,1,8,0:0:0:0:
167,163,187478,1,8,0:0:0:0:
238,156,187823,1,12,0:0:0:0:
212,133,189202,1,0,0:0:0:0:
294,158,189892,1,8,0:0:0:0:
280,153,190582,1,0,0:0:0:0:
256,165,192651,1,8,0:0:0:0:
240,177,192996,1,8,0:0:0:0:
273,142,193340,1,4,0:0:0:0:
249,161,194720,1,0,0:0:0:0:
213,149,195409,1,8,0:0:0:0:
213,149,195754,1,8,0:0:0:0:
271,171,195927,1,0,0:0:0:0:
271,171,196013,1,0,0:0:0:0:
271,171,196099,1,8,0:0:0:0:
287,141,197478,1,0,0:0:0:0:
239,142,198168,1,8,0:0:0:0:
274,157,198858,1,4,0:0:0:0:
219,175,199030,1,8,0:0:0:0:
219,175,199202,1,8,0:0:0:0:
192,165,199375,1,0,0:0:0:0:
183,179,199720,1,0,0:0:0:0:
214,181,199892,1,8,0:0:0:0:
238,179,200237,1,0,0:0:0:0:
168,108,200409,1,0,0:0:0:0:
225,128,200496,1,0,0:0:0:0:
189,150,200582,1,8,0:0:0:0:
197,161,200668,1,8,0:0:0:0:
168,108,200754,1,0,0:0:0:0:
344,113,200927,1,0,0:0:0:0:
171,150,201156,1,0,0:0:0:0:
133,154,201271,1,8,0:0:0:0:
79,172,201386,1,8,0:0:0:0:
79,172,201501,1,8,0:0:0:0:
278,140,201616,1,4,0:0:0:0:
277,184,203685,1,0,0:0:0:0:
272,134,203858,1,8,0:0:0:0:
272,134,204030,1,8,0:0:0:0:
272,134,204202,1,8,0:0:0:0:
217,157,204289,1,8,0:0:0:0:
262,117,204375,1,0,0:0:0:0:
319,147,204720,1,0,0:0:0:0:
229,142,204892,1,8,0:0:0:0:
359,103,205237,1,0,0:0:0:0:
246,135,205409,1,8,0:0:0:0:
333,138,205496,1,0,0:0:0:0:
246,135,205582,1,8,0:0:0:0:
251,141,205754,1,0,0:0:0:0:
191,108,206444,1,8,0:0:0:0:
251,141,206674,1,0,0:0:0:0:
178,151,206904,1,0,0:0:0:0:
312,127,207133,1,12,0:0:0:0:
255,96,207823,1,0,0:0:0:0:
294,142,207909,1,8,0:0:0:0:
245,93,208082,1,8,0:0:0:0:
263,167,208254,1,0,0:0:0:0:
226,155,208340,1,8,0:0:0:0:
388,175,208513,1,0,0:0:0:0:
217,125,209202,1,8,0:0:0:0:
217,125,209547,1,8,0:0:0:0:
265,149,209720,1,0,0:0:0:0:
192,123,209892,1,12,0:0:0:0:
238,217,210237,1,0,0:0:0:0:
238,217,210409,1,0,0:0:0:0:
308,198,210582,1,0,0:0:0:0:
279,210,210754,1,8,0:0:0:0:
260,137,211271,1,0,0:0:0:0:
268,157,211616,1,8,0:0:0:0:
259,156,211789,1,0,0:0:0:0:
244,146,211961,1,8,0:0:0:0:
315,148,212133,1,0,0:0:0:0:
345,147,212478,1,8,0:0:0:0:
268,157,212651,1,0,0:0:0:0:
293,108,212996,1,0,0:0:0:0:
293,108,213168,1,0,0:0:0:0:
293,108,213340,1,0,0:0:0:0:
300,128,213513,1,8,0:0:0:0:
296,132,214030,1,0,0:0:0:0:
271,137,214375,1,8,0:0:0:0:
319,142,214547,1,0,0:0:0:0:
337,154,214720,1,8,0:0:0:0:
315,159,214892,1,0,0:0:0:0:
297,143,215064,1,8,0:0:0:0:
336,145,215409,1,0,0:0:0:0:
268,133,215754,1,0,0:0:0:0:
288,141,215927,1,8,0:0:0:0:
268,133,216099,1,0,0:0:0:0:
268,133,216444,1,0,0:0:0:0:
268,133,216789,1,0,0:0:0:0:
268,133,217133,1,0,0:0:0:0:
268,133,217478,1,8,0:0:0:0:
337,131,217651,1,0,0:0:0:0:
268,133,217823,1,0,0:0:0:0:
311,95,217909,1,0,0:0:0:0:
337,101,217996,1,0,0:0:0:0:
311,95,218082,1,0,0:0:0:0:
331,122,218168,1,12,0:0:0:0:
277,158,220409,1,0,0:0:0:0:
217,126,220927,1,0,0:0:0:0:
217,126,221185,1,0,0:0:0:0:
217,126,221444,1,0,0:0:0:0:
217,126,221702,1,0,0:0:0:0:
269,158,221789,1,8,0:0:0:0:
308,160,221961,1,0,0:0:0:0:
269,158,222220,1,0,0:0:0:0:
295,157,222306,1,8,0:0:0:0:
317,159,222392,1,8,0:0:0:0:
264,159,222478,1,0,0:0:0:0:
269,150,222651,1,8,0:0:0:0:
348,154,222737,1,0,0:0:0:0:
287,132,222909,1,0,0:0:0:0:
278,150,222996,1,8,0:0:0:0:
256,164,223082,1,0,0:0:0:0:
256,164,223168,1,0,0:0:0:0:
256,164,223254,1,0,0:0:0:0:
304,158,223340,1,8,0:0:0:0:
304,158,223398,1,8,0:0:0:0:
304,158,223455,1,8,0:0:0:0:
228,146,223513,1,8,0:0:0:0:
304,158,223599,1,8,0:0:0:0:
309,134,223685,1,4,0:0:0:0:
291,197,223858,1,8,0:0:0:0:
291,197,223915,1,8,0:0:0:0:
291,197,223973,1,8,0:0:0:0:
304,158,224030,1,0,0:0:0:0:
298,190,224202,1,0,0:0:0:0:
287,141,224375,1,8,0:0:0:0:
287,141,224461,1,8,0:0:0:0:
328,168,224547,1,0,0:0:0:0:
301,153,224720,1,8,0:0:0:0:
285,156,224806,1,8,0:0:0:0:
312,165,224892,1,0,0:0:0:0:
335,155,224978,1,8,0:0:0:0:
300,162,225064,1,0,0:0:0:0:
231,161,225151,1,0,0:0:0:0:
231,161,225237,1,0,0:0:0:0:
226,166,225409,1,8,0:0:0:0:
356,157,225582,1,0,0:0:0:0:
282,154,225668,1,8,0:0:0:0:
285,156,225840,1,8,0:0:0:0:
238,152,225927,1,0,0:0:0:0:
269,158,226099,1,8,0:0:0:0:
314,154,226185,1,0,0:0:0:0:
314,154,226271,1,8,0:0:0:0:
198,159,226444,1,4,0:0:0:0:
296,135,226616,1,8,0:0:0:0:
296,135,226674,1,8,0:0:0:0:
296,135,226731,1,8,0:0:0:0:
305,165,226789,1,0,0:0:0:0:
301,147,226961,1,0,0:0:0:0:
301,147,227047,1,0,0:0:0:0:
301,147,227133,1,0,0:0:0:0:
301,147,227306,1,0,0:0:0:0:
281,138,227478,1,0,0:0:0:0:
340,142,227593,1,8,0:0:0:0:
340,142,227708,1,8,0:0:0:0:
262,140,227823,1,0,0:0:0:0:
262,140,227909,1,0,0:0:0:0:
262,140,227996,1,0,0:0:0:0:
319,160,228168,1,0,0:0:0:0:
266,122,228283,1,8,0:0:0:0:
266,122,228398,1,0,0:0:0:0:
207,145,228513,1,8,0:0:0:0:
207,145,228599,1,8,0:0:0:0:
207,145,228685,1,0,0:0:0:0:
229,94,228858,1,8,0:0:0:0:
300,132,229030,1,0,0:0:0:0:
300,132,229116,1,8,0:0:0:0:
252,118,229202,1,0,0:0:0:0:
307,157,229375,1,0,0:0:0:0:
216,117,229547,1,8,0:0:0:0:
230,118,229633,1,8,0:0:0:0:
216,117,229720,1,8,0:0:0:0:
230,118,229806,1,8,0:0:0:0:
216,117,229892,1,8,0:0:0:0:
230,118,229978,1,8,0:0:0:0:
264,150,230064,1,8,0:0:0:0:
264,150,230151,1,8,0:0:0:0:
264,150,230237,1,8,0:0:0:0:
255,141,230409,1,8,0:0:0:0:
241,123,230582,1,0,0:0:0:0:
229,153,230754,1,8,0:0:0:0:
271,137,230927,1,8,0:0:0:0:
271,137,231042,1,8,0:0:0:0:
271,137,231156,1,8,0:0:0:0:
221,147,231271,1,0,0:0:0:0:
248,140,231386,1,8,0:0:0:0:
248,140,231501,1,8,0:0:0:0:
229,153,231616,1,0,0:0:0:0:
215,157,231702,1,0,0:0:0:0:
275,159,231789,1,8,0:0:0:0:
275,159,231875,1,8,0:0:0:0:
279,130,231961,1,4,0:0:0:0:
224,188,232133,1,8,0:0:0:0:
160,184,232191,1,8,0:0:0:0:
160,184,232248,1,8,0:0:0:0:
339,157,232306,1,0,0:0:0:0:
289,173,232478,1,0,0:0:0:0:
299,180,232651,1,8,0:0:0:0:
281,182,232737,1,0,0:0:0:0:
299,180,232823,1,8,0:0:0:0:
302,204,232996,1,8,0:0:0:0:
318,200,233082,1,0,0:0:0:0:
329,188,233168,1,8,0:0:0:0:
329,188,233254,1,8,0:0:0:0:
335,192,233340,1,0,0:0:0:0:
294,185,233427,1,8,0:0:0:0:
293,185,233513,1,8,0:0:0:0:
344,188,233599,1,0,0:0:0:0:
299,180,233685,1,8,0:0:0:0:
292,180,233771,1,8,0:0:0:0:
312,176,233858,1,0,0:0:0:0:
280,172,234030,1,8,0:0:0:0:
280,172,234116,1,8,0:0:0:0:
264,160,234202,1,0,0:0:0:0:
272,136,234375,1,0,0:0:0:0:
272,136,234461,1,0,0:0:0:0:
312,164,234547,1,8,0:0:0:0:
312,164,234633,1,8,0:0:0:0:
256,180,234720,1,0,0:0:0:0:
344,152,234892,1,8,0:0:0:0:
344,152,234950,1,8,0:0:0:0:
344,152,235007,1,8,0:0:0:0:
408,164,235064,1,0,0:0:0:0:
272,248,235237,1,0,0:0:0:0:
272,248,235323,1,0,0:0:0:0:
252,208,235409,1,8,0:0:0:0:
220,152,235496,1,0,0:0:0:0:
220,152,235582,1,0,0:0:0:0:
264,172,235754,1,8,0:0:0:0:
264,172,235840,1,8,0:0:0:0:
332,176,235927,1,8,0:0:0:0:
332,176,236013,1,8,0:0:0:0:
312,160,236099,1,0,0:0:0:0:
320,152,236185,1,8,0:0:0:0:
320,152,236271,1,8,0:0:0:0:
288,164,236358,1,0,0:0:0:0:
272,164,236444,1,8,0:0:0:0:
272,164,236530,1,8,0:0:0:0:
336,168,236616,1,0,0:0:0:0:
320,268,236789,1,0,0:0:0:0:
200,240,236875,1,0,0:0:0:0:
200,240,236961,1,0,0:0:0:0:
168,280,237133,1,0,0:0:0:0:
200,220,237191,1,8,0:0:0:0:
200,220,237248,1,8,0:0:0:0:
232,312,237306,1,0,0:0:0:0:
376,216,237478,1,4,0:0:0:0:
176,156,237651,1,8,0:0:0:0:
212,160,237708,1,8,0:0:0:0:
240,176,237766,1,8,0:0:0:0:
272,184,237823,1,0,0:0:0:0:
232,176,237996,1,0,0:0:0:0:
236,168,238082,1,0,0:0:0:0:
236,168,238168,1,0,0:0:0:0:
200,168,238340,1,0,0:0:0:0:
324,164,238513,1,8,0:0:0:0:
324,164,238628,1,8,0:0:0:0:
324,164,238743,1,8,0:0:0:0:
240,156,238858,1,0,0:0:0:0:
344,176,239030,1,0,0:0:0:0:
268,160,239116,1,0,0:0:0:0:
296,164,239202,1,8,0:0:0:0:
296,164,239317,1,8,0:0:0:0:
296,164,239432,1,8,0:0:0:0:
296,156,239547,1,0,0:0:0:0:
264,132,239720,1,0,0:0:0:0:
264,132,239806,1,0,0:0:0:0:
284,176,239892,1,8,0:0:0:0:
208,180,240064,1,0,0:0:0:0:
236,160,240151,1,8,0:0:0:0:
244,168,240237,1,0,0:0:0:0:
244,168,240409,1,0,0:0:0:0:
228,160,240582,1,8,0:0:0:0:
228,160,240668,1,8,0:0:0:0:
228,160,240754,1,8,0:0:0:0:
228,160,240840,1,8,0:0:0:0:
228,160,240927,1,8,0:0:0:0:
228,160,241013,1,8,0:0:0:0:
228,160,241099,1,8,0:0:0:0:
228,160,241185,1,8,0:0:0:0:
228,160,241271,1,8,0:0:0:0:
228,160,241444,1,8,0:0:0:0:
240,136,241616,1,0,0:0:0:0:
176,168,241789,1,8,0:0:0:0:
272,128,241961,1,0,0:0:0:0:
248,168,242076,1,8,0:0:0:0:
248,168,242191,1,8,0:0:0:0:
192,160,242306,1,0,0:0:0:0:
192,176,242421,1,0,0:0:0:0:
204,152,242536,1,8,0:0:0:0:
248,132,242651,1,0,0:0:0:0:
280,184,242737,1,0,0:0:0:0:
280,176,242823,1,8,0:0:0:0:
280,176,242909,1,8,0:0:0:0:
248,192,242996,1,4,0:0:0:0:
276,168,243254,1,0,0:0:0:0:
276,168,243513,1,0,0:0:0:0:
276,168,243771,1,0,0:0:0:0:
208,156,243858,1,8,0:0:0:0:
264,172,244030,1,0,0:0:0:0:
232,168,244289,1,0,0:0:0:0:
264,188,244375,1,8,0:0:0:0:
264,188,244461,1,8,0:0:0:0:
248,172,244547,1,0,0:0:0:0:
232,168,244720,1,0,0:0:0:0:
240,168,244806,1,8,0:0:0:0:
220,164,244978,1,0,0:0:0:0:
212,164,245064,1,8,0:0:0:0:
212,184,245151,1,0,0:0:0:0:
248,176,245237,1,0,0:0:0:0:
248,176,245323,1,0,0:0:0:0:
240,164,245409,1,8,0:0:0:0:
240,164,245496,1,8,0:0:0:0:
240,164,245582,1,8,0:0:0:0:
240,164,245668,1,8,0:0:0:0:
236,160,245754,1,4,0:0:0:0:
296,160,245927,1,8,0:0:0:0:
296,160,245984,1,8,0:0:0:0:
296,160,246042,1,8,0:0:0:0:
240,160,246099,1,0,0:0:0:0:
272,168,246271,1,0,0:0:0:0:
264,184,246444,1,8,0:0:0:0:
264,184,246530,1,8,0:0:0:0:
200,172,246616,1,0,0:0:0:0:
240,196,246789,1,0,0:0:0:0:
280,168,246875,1,0,0:0:0:0:
228,160,246961,1,8,0:0:0:0:
228,160,247047,1,8,0:0:0:0:
228,160,247133,1,8,0:0:0:0:
228,160,247220,1,8,0:0:0:0:
304,176,247306,1,0,0:0:0:0:
328,172,247392,1,0,0:0:0:0:
252,160,247478,1,8,0:0:0:0:
268,160,247651,1,0,0:0:0:0:
292,168,247823,1,8,0:0:0:0:
280,172,247996,1,0,0:0:0:0:
292,188,248168,1,0,0:0:0:0:
352,168,248254,1,8,0:0:0:0:
272,156,248427,1,0,0:0:0:0:
392,128,248513,1,0,0:0:0:0:
300,120,248685,1,0,0:0:0:0:
304,132,248858,1,8,0:0:0:0:
304,132,249030,1,8,0:0:0:0:
304,132,249116,1,8,0:0:0:0:
304,132,249202,1,8,0:0:0:0:
288,148,249375,1,0,0:0:0:0:
288,120,249547,1,8,0:0:0:0:
288,120,249662,1,8,0:0:0:0:
288,120,249777,1,8,0:0:0:0:
236,136,249892,1,0,0:0:0:0:
184,216,249978,1,0,0:0:0:0:
304,132,250064,1,0,0:0:0:0:
304,124,250237,1,8,0:0:0:0:
304,124,250352,1,8,0:0:0:0:
232,152,250467,1,8,0:0:0:0:
264,160,250582,1,0,0:0:0:0:
264,160,250754,1,0,0:0:0:0:
264,160,250840,1,0,0:0:0:0:
268,160,250927,1,8,0:0:0:0:
264,176,251099,1,0,0:0:0:0:
304,172,251185,1,8,0:0:0:0:
280,152,251271,1,0,0:0:0:0:
280,152,251444,1,0,0:0:0:0:
264,152,251616,1,8,0:0:0:0:
252,144,251702,1,8,0:0:0:0:
264,152,251789,1,8,0:0:0:0:
252,144,251875,1,8,0:0:0:0:
264,152,251961,1,8,0:0:0:0:
252,144,252047,1,8,0:0:0:0:
264,152,252133,1,8,0:0:0:0:
272,156,252220,1,8,0:0:0:0:
264,152,252306,1,8,0:0:0:0:
296,168,252478,1,8,0:0:0:0:
312,152,252651,1,0,0:0:0:0:
312,136,252823,1,8,0:0:0:0:
248,148,252996,1,0,0:0:0:0:
308,160,253110,1,8,0:0:0:0:
304,164,253225,1,8,0:0:0:0:
296,168,253340,1,0,0:0:0:0:
336,144,253455,1,0,0:0:0:0:
212,160,253570,1,8,0:0:0:0:
284,152,253685,1,0,0:0:0:0:
284,152,253771,1,0,0:0:0:0:
260,152,253858,1,8,0:0:0:0:
256,152,253944,1,8,0:0:0:0:
272,144,254030,1,4,0:0:0:0:
216,176,254202,1,8,0:0:0:0:
216,176,254260,1,8,0:0:0:0:
216,176,254317,1,8,0:0:0:0:
244,188,254375,1,0,0:0:0:0:
268,148,254547,1,0,0:0:0:0:
236,168,254720,1,8,0:0:0:0:
228,164,254806,1,8,0:0:0:0:
244,188,254892,1,0,0:0:0:0:
208,196,255064,1,8,0:0:0:0:
200,176,255151,1,0,0:0:0:0:
200,196,255237,1,8,0:0:0:0:
268,116,255409,1,0,0:0:0:0:
280,160,255496,1,8,0:0:0:0:
276,160,255582,1,8,0:0:0:0:
232,176,255668,1,0,0:0:0:0:
244,188,255754,1,8,0:0:0:0:
260,184,255840,1,0,0:0:0:0:
260,184,255927,1,0,0:0:0:0:
272,180,256099,1,8,0:0:0:0:
264,164,256185,1,8,0:0:0:0:
304,188,256271,1,0,0:0:0:0:
288,188,256444,1,8,0:0:0:0:
288,188,256530,1,8,0:0:0:0:
288,188,256616,1,8,0:0:0:0:
284,160,256702,1,8,0:0:0:0:
268,180,256789,1,0,0:0:0:0:
280,160,256961,1,8,0:0:0:0:
280,160,257019,1,8,0:0:0:0:
280,160,257076,1,8,0:0:0:0:
212,172,257133,1,0,0:0:0:0:
268,172,257306,1,0,0:0:0:0:
280,168,257478,1,8,0:0:0:0:
280,168,257564,1,8,0:0:0:0:
296,168,257651,1,8,0:0:0:0:
312,148,257737,1,0,0:0:0:0:
224,168,257823,1,8,0:0:0:0:
220,168,257909,1,8,0:0:0:0:
244,168,257996,1,0,0:0:0:0:
232,168,258082,1,8,0:0:0:0:
264,152,258254,1,0,0:0:0:0:
232,184,258340,1,8,0:0:0:0:
232,160,258513,1,0,0:0:0:0:
228,140,258599,1,0,0:0:0:0:
276,160,258685,1,8,0:0:0:0:
212,148,258858,1,0,0:0:0:0:
212,148,258944,1,0,0:0:0:0:
212,148,259030,1,0,0:0:0:0:
208,144,259202,1,8,0:0:0:0:
312,148,259260,1,0,0:0:0:0:
156,168,259317,1,0,0:0:0:0:
276,148,259375,1,8,0:0:0:0:
192,128,259547,1,4,0:0:0:0:
232,148,259720,1,8,0:0:0:0:
232,148,259777,1,8,0:0:0:0:
232,148,259835,1,8,0:0:0:0:
212,148,259892,1,0,0:0:0:0:
240,156,260064,1,0,0:0:0:0:
240,156,260151,1,0,0:0:0:0:
240,156,260323,1,0,0:0:0:0:
240,156,260409,1,0,0:0:0:0:
344,156,260582,1,0,0:0:0:0:
256,120,260697,1,8,0:0:0:0:
256,120,260812,1,8,0:0:0:0:
240,156,260927,1,0,0:0:0:0:
240,156,261013,1,0,0:0:0:0:
240,156,261099,1,0,0:0:0:0:
156,168,261185,1,0,0:0:0:0:
240,116,261271,1,8,0:0:0:0:
240,116,261386,1,8,0:0:0:0:
240,116,261501,1,8,0:0:0:0:
328,144,261616,1,0,0:0:0:0:
328,144,261702,1,0,0:0:0:0:
328,144,261789,1,0,0:0:0:0:
180,192,261961,1,8,0:0:0:0:
204,168,262019,1,0,0:0:0:0:
204,168,262076,1,0,0:0:0:0:
240,148,262133,1,8,0:0:0:0:
248,140,262306,1,0,0:0:0:0:
196,144,262392,1,0,0:0:0:0:
248,140,262478,1,0,0:0:0:0:
200,136,262651,1,8,0:0:0:0:
200,136,262737,1,8,0:0:0:0:
200,136,262823,1,8,0:0:0:0:
200,136,262909,1,8,0:0:0:0:
200,136,262996,1,8,0:0:0:0:
200,136,263082,1,8,0:0:0:0:
200,136,263168,1,8,0:0:0:0:
200,136,263254,1,8,0:0:0:0:
200,136,263340,1,8,0:0:0:0:
200,136,263513,1,8,0:0:0:0:
256,220,263685,1,0,0:0:0:0:
200,180,263858,1,8,0:0:0:0:
252,192,264030,1,8,0:0:0:0:
252,192,264145,1,8,0:0:0:0:
252,192,264260,1,8,0:0:0:0:
236,168,264375,1,0,0:0:0:0:
240,152,264461,1,0,0:0:0:0:
256,168,264547,1,8,0:0:0:0:
256,168,264633,1,8,0:0:0:0:
252,168,264720,1,0,0:0:0:0:
236,168,264806,1,0,0:0:0:0:
300,160,264892,1,8,0:0:0:0:
312,164,264978,1,8,0:0:0:0:
328,156,265064,1,4,0:0:0:0:
248,176,265409,1,8,0:0:0:0:
228,196,265668,1,0,0:0:0:0:
228,196,265840,1,0,0:0:0:0:
228,196,265927,1,0,0:0:0:0:
256,168,266099,1,8,0:0:0:0:
224,144,266271,1,0,0:0:0:0:
208,180,266358,1,0,0:0:0:0:
224,144,266444,1,0,0:0:0:0:
252,168,266789,1,8,0:0:0:0:
236,176,266961,1,0,0:0:0:0:
212,152,267047,1,0,0:0:0:0:
268,196,267220,1,0,0:0:0:0:
268,196,267306,1,0,0:0:0:0:
236,172,267478,1,8,0:0:0:0:
236,168,267651,1,0,0:0:0:0:
256,164,267737,1,8,0:0:0:0:
252,168,267823,1,0,0:0:0:0:
264,160,268168,1,8,0:0:0:0:
248,156,268427,1,0,0:0:0:0:
240,140,268599,1,0,0:0:0:0:
240,140,268685,1,0,0:0:0:0:
264,136,268858,1,8,0:0:0:0:
240,144,269030,1,0,0:0:0:0:
240,144,269116,1,0,0:0:0:0:
300,164,269202,1,0,0:0:0:0:
272,164,269461,1,0,0:0:0:0:
272,148,269547,1,8,0:0:0:0:
284,156,269806,1,8,0:0:0:0:
296,156,269978,1,8,0:0:0:0:
252,160,270064,1,0,0:0:0:0:
240,144,270237,1,8,0:0:0:0:
276,144,270409,1,0,0:0:0:0:
276,144,270496,1,0,0:0:0:0:
244,152,270582,1,0,0:0:0:0:
232,144,270927,1,8,0:0:0:0:
240,136,271185,1,0,0:0:0:0:
248,136,271358,1,0,0:0:0:0:
248,136,271444,1,0,0:0:0:0:
248,136,271616,1,8,0:0:0:0:
312,120,271789,1,0,0:0:0:0:
312,120,271876,1,0,0:0:0:0:
312,120,271961,1,0,0:0:0:0:
324,104,272133,1,0,0:0:0:0:
248,124,272306,1,8,0:0:0:0:
296,128,272478,1,0,0:0:0:0:
272,128,272564,1,8,0:0:0:0:
272,140,272737,1,8,0:0:0:0:
280,132,272823,1,0,0:0:0:0:
272,136,272996,1,8,0:0:0:0:
272,128,273168,1,0,0:0:0:0:
272,128,273254,1,0,0:0:0:0:
272,140,273340,1,8,0:0:0:0:
272,140,273455,1,8,0:0:0:0:
272,140,273570,1,8,0:0:0:0:
320,148,273685,1,0,0:0:0:0:
212,120,273944,1,0,0:0:0:0:
248,136,274116,1,0,0:0:0:0:
264,152,274202,1,0,0:0:0:0:
264,136,274375,1,8,0:0:0:0:
264,136,274461,1,8,0:0:0:0:
272,136,274547,1,0,0:0:0:0:
320,136,274720,1,0,0:0:0:0:
236,112,274892,1,8,0:0:0:0:
272,116,274978,1,8,0:0:0:0:
244,148,275064,1,0,0:0:0:0:
264,132,275237,1,8,0:0:0:0:
264,136,275323,1,8,0:0:0:0:
312,184,275409,1,8,0:0:0:0:
312,148,275496,1,8,0:0:0:0:
288,152,275582,1,0,0:0:0:0:
244,148,275754,1,8,0:0:0:0:
244,148,275927,1,8,0:0:0:0:
216,144,276013,1,8,0:0:0:0:
256,112,276099,1,4,0:0:0:0:
216,152,276444,1,8,0:0:0:0:
248,168,276702,1,0,0:0:0:0:
192,148,276875,1,0,0:0:0:0:
248,168,276961,1,0,0:0:0:0:
260,148,277133,1,8,0:0:0:0:
248,148,277306,1,0,0:0:0:0:
264,148,277392,1,8,0:0:0:0:
240,136,277478,1,0,0:0:0:0:
248,160,277823,1,8,0:0:0:0:
236,168,277996,1,0,0:0:0:0:
212,156,278082,1,8,0:0:0:0:
212,156,278254,1,8,0:0:0:0:
236,168,278340,1,0,0:0:0:0:
200,152,278513,1,8,0:0:0:0:
176,160,278685,1,8,0:0:0:0:
176,160,278771,1,8,0:0:0:0:
184,156,278858,1,0,0:0:0:0:
252,152,279030,1,8,0:0:0:0:
232,152,279116,1,8,0:0:0:0:
228,168,279202,1,8,0:0:0:0:
236,176,279375,1,0,0:0:0:0:
244,168,279547,1,8,0:0:0:0:
216,164,279720,1,0,0:0:0:0:
228,152,279806,1,8,0:0:0:0:
236,160,279978,1,8,0:0:0:0:
264,176,280151,1,8,0:0:0:0:
204,160,280237,1,0,0:0:0:0:
248,128,280409,1,8,0:0:0:0:
248,128,280496,1,8,0:0:0:0:
268,156,280582,1,0,0:0:0:0:
240,152,280754,1,8,0:0:0:0:
216,144,280927,1,0,0:0:0:0:
256,144,281013,1,0,0:0:0:0:
216,144,281099,1,0,0:0:0:0:
264,160,281271,1,8,0:0:0:0:
224,152,281444,1,0,0:0:0:0:
248,152,281530,1,8,0:0:0:0:
216,144,281616,1,0,0:0:0:0:
212,140,281961,1,8,0:0:0:0:
212,140,282076,1,8,0:0:0:0:
212,140,282191,1,8,0:0:0:0:
212,152,282306,1,0,0:0:0:0:
240,132,282478,1,0,0:0:0:0:
240,132,282564,1,0,0:0:0:0:
144,164,282651,1,8,0:0:0:0:
220,184,282823,1,0,0:0:0:0:
240,168,282996,1,8,0:0:0:0:
256,172,283168,1,0,0:0:0:0:
168,156,283254,1,0,0:0:0:0:
240,184,283340,1,8,0:0:0:0:
208,156,283513,1,0,0:0:0:0:
232,160,283599,1,0,0:0:0:0:
208,156,283685,1,0,0:0:0:0:
248,184,283771,1,0,0:0:0:0:
240,168,283858,1,0,0:0:0:0:
236,148,284030,1,8,0:0:0:0:
272,160,284202,1,0,0:0:0:0:
272,160,284289,1,0,0:0:0:0:
272,160,284375,1,0,0:0:0:0:
220,184,284720,1,8,0:0:0:0:
312,188,284978,1,0,0:0:0:0:
228,172,285151,1,0,0:0:0:0:
228,172,285237,1,0,0:0:0:0:
160,172,285409,1,8,0:0:0:0:
240,176,285582,1,0,0:0:0:0:
300,152,285668,1,0,0:0:0:0:
320,176,285754,1,8,0:0:0:0:
328,164,285927,1,0,0:0:0:0:
284,156,286013,1,8,0:0:0:0:
288,152,286099,1,8,0:0:0:0:
272,156,286358,1,0,0:0:0:0:
224,152,286530,1,0,0:0:0:0:
224,152,286616,1,0,0:0:0:0:
420,172,286789,1,8,0:0:0:0:
280,180,286847,1,8,0:0:0:0:
280,180,286904,1,8,0:0:0:0:
280,180,286961,1,8,0:0:0:0:
280,180,287019,1,8,0:0:0:0:
280,180,287076,1,8,0:0:0:0:
256,164,287134,1,0,0:0:0:0:
324,168,287392,1,8,0:0:0:0:
160,128,287651,1,8,0:0:0:0:
332,164,287909,1,8,0:0:0:0:
176,176,287995,1,0,0:0:0:0:
268,164,288167,1,8,0:0:0:0:
268,164,288426,1,8,0:0:0:0:
204,168,288512,1,0,0:0:0:0:
264,180,288857,1,8,0:0:0:0:
240,168,289116,1,0,0:0:0:0:
240,168,289288,1,0,0:0:0:0:
240,168,289374,1,0,0:0:0:0:
232,156,289547,1,8,0:0:0:0:
240,156,289891,1,0,0:0:0:0:
240,160,290236,1,8,0:0:0:0:
340,152,290754,1,0,0:0:0:0:
260,164,290926,1,8,0:0:0:0:
216,168,291185,1,8,0:0:0:0:
280,168,291271,1,0,0:0:0:0:
280,168,291443,1,0,0:0:0:0:
320,176,291616,1,8,0:0:0:0:
392,156,291788,1,0,0:0:0:0:
392,156,292047,1,0,0:0:0:0:
392,156,292133,1,0,0:0:0:0:
272,156,292305,1,8,0:0:0:0:
288,156,292478,1,0,0:0:0:0:
324,176,292564,1,8,0:0:0:0:
264,156,292650,1,0,0:0:0:0:
304,140,292995,1,8,0:0:0:0:
340,148,293512,1,0,0:0:0:0:
264,140,293685,1,8,0:0:0:0:
264,140,293943,1,8,0:0:0:0:
268,164,294029,1,0,0:0:0:0:
236,112,294374,1,8,0:0:0:0:
256,128,294633,1,0,0:0:0:0:
328,120,294805,1,0,0:0:0:0:
328,120,294891,1,0,0:0:0:0:
252,160,295064,1,8,0:0:0:0:
228,156,295409,1,0,0:0:0:0:
228,148,295754,1,8,0:0:0:0:
160,140,296271,1,0,0:0:0:0:
224,168,296443,1,8,0:0:0:0:
224,168,296702,1,8,0:0:0:0:
252,156,296788,1,0,0:0:0:0:
328,136,296960,1,0,0:0:0:0:
240,148,297133,1,8,0:0:0:0:
232,152,297305,1,0,0:0:0:0:
232,152,297564,1,0,0:0:0:0:
232,152,297650,1,0,0:0:0:0:
236,152,297823,1,8,0:0:0:0:
296,136,297996,1,0,0:0:0:0:
296,136,298082,1,0,0:0:0:0:
272,160,298168,1,6,0:0:0:0:
272,160,298427,1,8,0:0:0:0:
272,160,298685,1,8,0:0:0:0:
272,160,298944,1,8,0:0:0:0:
240,152,299030,1,0,0:0:0:0:
272,160,299202,1,8,0:0:0:0:
272,160,299461,1,8,0:0:0:0:
256,136,299547,1,0,0:0:0:0:
240,152,299892,1,8,0:0:0:0:
300,156,300064,1,0,0:0:0:0:
260,156,300151,1,8,0:0:0:0:
304,152,300409,1,0,0:0:0:0:
256,152,300582,1,8,0:0:0:0:
272,148,300927,1,0,0:0:0:0:
288,144,301271,1,8,0:0:0:0:
272,152,301789,1,0,0:0:0:0:
268,148,301961,1,8,0:0:0:0:
296,160,302306,1,0,0:0:0:0:
284,140,302651,1,8,0:0:0:0:
284,140,302909,1,8,0:0:0:0:
276,136,303168,1,0,0:0:0:0:
296,136,303340,1,8,0:0:0:0:
344,156,303513,1,0,0:0:0:0:
320,152,303599,1,8,0:0:0:0:
296,140,303685,1,0,0:0:0:0:
284,140,304030,1,8,0:0:0:0:
284,152,304547,1,0,0:0:0:0:
248,160,304720,1,8,0:0:0:0:
256,160,305064,1,0,0:0:0:0:
252,152,305409,1,8,0:0:0:0:
252,152,305668,1,8,0:0:0:0:
280,160,305927,1,0,0:0:0:0:
296,164,306099,1,8,0:0:0:0:
244,160,306444,1,0,0:0:0:0:
152,160,307306,1,0,0:0:0:0:
400,172,307823,1,0,0:0:0:0:
256,168,308513,1,8,0:0:0:0:
332,144,308685,1,0,0:0:0:0:
360,164,308858,1,8,0:0:0:0:
272,148,309030,1,0,0:0:0:0:
272,148,309116,1,0,0:0:0:0:
208,196,309202,5,6,0:0:0:0:
292,172,310582,1,6,0:0:0:0:
292,172,311961,1,6,0:0:0:0:
292,136,313340,1,6,0:0:0:0:
248,184,314720,1,6,0:0:0:0:
304,132,316099,1,6,0:0:0:0:
360,164,317478,1,6,0:0:0:0:
264,172,318858,1,6,0:0:0:0:
264,168,320237,1,6,0:0:0:0:
252,176,321616,1,6,0:0:0:0:
240,184,322996,1,6,0:0:0:0:
