osu file format v14

[General]
AudioFilename: audio.mp3
AudioLeadIn: 0
PreviewTime: 88014
Countdown: 0
SampleSet: Soft
StackLeniency: 0.3
Mode: 0
LetterboxInBreaks: 0
WidescreenStoryboard: 0

[Editor]
Bookmarks: 11292,22326,33361,44395,55428,66464,77499,83016,88531,88533,94049,99566,105514,110602,113361,132671,143704,154738,165773,174051,176809,198878,209913,215430,218189,220947,223706,243016,245775,265085,276116,287154,298185,306464,309223
DistanceSpacing: 0.5
BeatDivisor: 4
GridSize: 4
TimelineZoom: 1.7

[Metadata]
Title:Hacking Code
TitleUnicode:Hacking Code
Artist:Street
ArtistUnicode:Street
Creator:Mir
Version:Decryption
Source:
Tags:dark ambient drum and bass driving instructions gps german wubs neurofunk technical DRUM'N'BASS WASSOY!! ひなちらぴ hinachirapi いぬすけ inusuke Rakugaki Records
BeatmapID:1236601
BeatmapSetID:584527

[Difficulty]
HPDrainRate:5.7
CircleSize:4.2
OverallDifficulty:8.7
ApproachRate:9.3
SliderMultiplier:2.54
SliderTickRate:1

[Events]
//Background and Video events
0,0,"underwater transport thing.jpg",0,0
//Break Periods
//Storyboard Layer 0 (Background)
//Storyboard Layer 1 (Fail)
//Storyboard Layer 2 (Pass)
//Storyboard Layer 3 (Foreground)
//Storyboard Sound Samples

[TimingPoints]
254,344.827586206897,4,2,1,60,1,0
254,-1000,4,2,1,60,0,0
5598,-1000,4,2,1,5,0,0
5771,-1000,4,2,1,60,0,0
11116,-1000,4,2,1,5,0,0
11288,-333.333333333333,4,2,1,40,0,0
16029,-200,4,2,1,5,0,0
16116,-200,4,2,1,40,0,0
16805,-333.333333333333,4,2,1,40,0,0
22150,-66.6666666666667,4,2,1,40,0,0
22236,-66.6666666666667,4,2,1,5,0,0
22322,-133.333333333333,4,2,2,60,0,0
22667,-133.333333333333,4,2,1,60,0,0
33357,-133.333333333333,4,2,2,60,0,0
33702,-133.333333333333,4,2,1,60,0,0
41633,-1000,4,2,1,60,0,0
44047,-200,4,2,1,60,0,0
44305,-200,4,2,1,5,0,0
44391,-1000,4,2,2,60,0,0
44478,-1000,4,2,1,5,0,0
55426,-1000,4,2,2,60,0,0
56805,-1000,4,2,2,70,0,0
58185,-1000,4,2,2,60,0,0
59564,-1000,4,2,2,50,0,0
60943,-1000,4,2,2,30,0,0
62322,-1000,4,2,2,20,0,0
63702,-1000,4,2,2,20,0,0
66288,-50,4,2,1,5,0,0
66460,-1000,4,2,2,60,0,0
66547,-1000,4,2,2,5,0,0
77495,-333.333333333333,4,2,2,60,0,0
83012,-200,4,2,1,60,0,0
83702,-166.666666666667,4,2,1,60,0,0
84391,-142.857142857143,4,2,1,60,0,0
87926,-200,4,2,1,5,0,0
88012,-50,4,2,1,90,0,0
88529,-58.8235294117647,4,2,1,90,0,1
88874,-125,4,2,1,90,0,1
89219,-100,4,2,1,90,0,1
89909,-76.9230769230769,4,2,1,90,0,1
90254,-66.6666666666667,4,2,1,90,0,1
90598,-76.9230769230769,4,2,1,90,0,1
91288,-66.6666666666667,4,2,1,90,0,1
91633,-100,4,2,1,90,0,1
91978,-58.8235294117647,4,2,1,90,0,1
92150,-100,4,2,1,90,0,1
93012,-66.6666666666667,4,2,1,90,0,1
93357,-100,4,2,1,90,0,1
93529,-66.6666666666667,4,2,1,90,0,1
94047,-58.8235294117647,4,2,1,100,0,1
94391,-100,4,2,1,100,0,1
95426,-76.9230769230769,4,2,1,100,0,1
96116,-58.8235294117647,4,2,1,100,0,1
96460,-76.9230769230769,4,2,1,100,0,1
96805,-58.8235294117647,4,2,1,100,0,1
97840,-100,4,2,1,100,0,1
98185,-76.9230769230769,4,2,1,100,0,1
98357,-66.6666666666667,4,2,1,100,0,1
99564,-58.8235294117647,4,2,1,100,0,1
99909,-125,4,2,1,100,0,1
100254,-100,4,2,1,100,0,1
100943,-76.9230769230769,4,2,1,100,0,1
101288,-66.6666666666667,4,2,1,100,0,1
101633,-76.9230769230769,4,2,1,100,0,1
102322,-58.8235294117647,4,2,1,100,0,1
102667,-125,4,2,1,100,0,1
103012,-58.8235294117647,4,2,1,100,0,1
103185,-100,4,2,1,100,0,1
104391,-76.9230769230769,4,2,1,100,0,1
105081,-58.8235294117647,4,2,1,100,0,1
105426,-125,4,2,1,100,0,1
105943,-76.9230769230769,4,2,1,100,0,1
107150,-66.6666666666667,4,2,1,100,0,1
107495,-76.9230769230769,4,2,1,100,0,1
107840,-58.8235294117647,4,2,1,100,0,1
108874,-100,4,2,1,100,0,1
109391,-66.6666666666667,4,2,1,100,0,1
110598,-50,4,2,1,90,0,0
110943,-200,4,2,1,90,0,0
111460,-66.6666666666667,4,2,1,90,0,0
111633,-200,4,2,1,5,0,0
111719,-200,4,2,1,90,0,0
111978,-76.9230769230769,4,2,1,90,0,0
112150,-66.6666666666667,4,2,1,90,0,0
112322,-100,4,2,1,90,0,0
112495,-133.333333333333,4,2,1,90,0,0
113357,-58.8235294117647,4,2,1,90,0,1
113702,-125,4,2,1,90,0,1
114047,-76.9230769230769,4,2,1,90,0,1
114736,-58.8235294117647,4,2,1,90,0,1
115081,-66.6666666666667,4,2,1,90,0,1
115340,-100,4,2,1,90,0,1
115857,-100,4,2,1,90,0,1
116116,-58.8235294117647,4,2,1,90,0,1
116460,-125,4,2,1,90,0,1
116978,-76.9230769230769,4,2,1,90,0,1
117495,-58.8235294117647,4,2,1,90,0,1
118185,-66.6666666666667,4,2,1,90,0,1
118529,-76.9230769230769,4,2,1,90,0,1
118874,-58.8235294117647,4,2,1,90,0,1
119219,-76.9230769230769,4,2,1,90,0,1
119909,-100,4,2,1,90,0,1
120426,-58.8235294117647,4,2,1,90,0,1
121633,-58.8235294117647,4,2,1,90,0,1
121978,-125,4,2,1,90,0,1
122322,-100,4,2,1,90,0,1
123012,-66.6666666666667,4,2,1,90,0,1
123357,-76.9230769230769,4,2,1,90,0,1
123702,-66.6666666666667,4,2,1,90,0,1
124391,-58.8235294117647,4,2,1,90,0,1
124736,-125,4,2,1,90,0,1
125081,-76.9230769230769,4,2,1,90,0,1
125771,-100,4,2,1,90,0,1
126805,-66.6666666666667,4,2,1,90,0,1
127150,-58.8235294117647,4,2,1,90,0,1
127495,-125,4,2,1,90,0,1
128012,-76.9230769230769,4,2,1,90,0,1
128529,-58.8235294117647,4,2,1,90,0,1
129219,-66.6666666666667,4,2,1,90,0,1
129564,-76.9230769230769,4,2,1,90,0,1
129909,-58.8235294117647,4,2,1,90,0,1
130943,-100,4,2,1,90,0,1
131460,-58.8235294117647,4,2,1,90,0,1
132437,-50,4,2,1,90,0,1
132667,-100,4,2,3,100,0,0
133012,-100,4,2,3,60,0,0
143702,-100,4,2,2,100,0,0
144047,-100,4,2,3,60,0,0
165426,-100,4,2,1,60,0,0
165771,-100,4,2,2,60,0,0
166116,-100,4,2,3,60,0,0
174047,-1000,4,2,3,100,0,0
176460,-100,4,2,1,100,0,0
176805,-500,4,2,10,70,0,0
178185,-500,4,2,1,5,0,0
178874,-500,4,2,11,70,0,0
179391,-500,4,2,1,5,0,0
179564,-500,4,2,12,70,0,0
181288,-500,4,2,1,5,0,0
181633,-500,4,2,13,70,0,0
182150,-500,4,2,1,5,0,0
182322,-500,4,2,10,70,0,0
184219,-500,4,2,1,5,0,0
184391,-500,4,2,12,70,0,0
184909,-500,4,2,1,5,0,0
185081,-500,4,2,14,70,0,0
186288,-500,4,2,1,5,0,0
186460,-500,4,2,15,70,0,0
186978,-500,4,2,1,5,0,0
187150,-500,4,2,16,70,0,0
187322,-500,4,2,1,5,0,0
187495,-500,4,2,14,70,0,0
187667,-500,4,2,1,5,0,0
187840,-500,4,2,12,100,0,0
189047,-500,4,2,1,5,0,0
189219,-500,4,2,10,70,0,0
189736,-500,4,2,1,5,0,0
189909,-500,4,2,11,70,0,0
190426,-500,4,2,11,5,0,0
190598,-500,4,2,12,70,0,0
192495,-500,4,2,1,5,0,0
192667,-500,4,2,11,70,0,0
192840,-500,4,2,1,5,0,0
193012,-500,4,2,17,70,0,0
193185,-500,4,2,1,5,0,0
193357,-500,4,2,12,70,0,0
194564,-500,4,2,1,5,0,0
194736,-500,4,2,10,70,0,0
195254,-500,4,2,1,5,0,0
195426,-500,4,2,15,70,0,0
195598,-500,4,2,1,5,0,0
195771,-500,4,2,16,50,0,0
195943,-500,4,2,1,5,0,0
196116,-500,4,2,14,50,0,0
197322,-500,4,2,1,5,0,0
197495,-500,4,2,18,50,0,0
198012,-500,4,2,1,5,0,0
198185,-500,4,2,16,50,0,0
198357,-500,4,2,1,50,0,0
198702,-500,4,2,1,5,0,0
198874,-500,4,2,15,50,0,0
199047,-500,4,2,1,50,0,0
200943,-500,4,2,11,50,0,0
201116,-500,4,2,1,50,0,0
201633,-500,4,2,12,50,0,0
203529,-500,4,2,1,5,0,0
203702,-500,4,2,13,50,0,0
203874,-500,4,2,1,50,0,0
204391,-500,4,2,10,50,0,0
204736,-500,4,2,1,5,0,0
204909,-500,4,2,1,50,0,0
205254,-500,4,2,1,5,0,0
205426,-500,4,2,1,50,0,0
206460,-500,4,2,12,50,0,0
206633,-500,4,2,1,50,0,0
207150,-500,4,2,14,50,0,0
208357,-500,4,2,1,50,0,0
208529,-500,4,2,15,50,0,0
209047,-500,4,2,1,5,0,0
209219,-333.333333333333,4,2,3,50,0,0
209564,-250,4,2,3,50,0,0
209909,-200,4,2,12,50,0,0
210254,-200,4,2,1,5,0,0
210426,-200,4,2,1,60,0,0
211288,-200,4,2,10,60,0,0
211460,-200,4,2,3,60,0,0
211978,-200,4,2,11,60,0,0
212150,-200,4,2,1,60,0,0
212667,-200,4,2,12,60,0,0
212840,-200,4,2,1,60,0,0
213012,-200,4,2,1,60,0,0
214736,-200,4,2,11,60,0,0
214909,-200,4,2,1,60,0,0
215081,-200,4,2,17,60,0,0
215254,-200,4,2,1,60,0,0
215426,-133.333333333333,4,2,12,60,0,0
215598,-133.333333333333,4,2,1,60,0,0
216116,-117.647058823529,4,2,1,60,0,0
216805,-105.263157894737,4,2,10,60,0,0
216978,-105.263157894737,4,2,3,60,0,0
217495,-105.263157894737,4,2,15,60,0,0
217667,-105.263157894737,4,2,3,60,0,0
217840,-105.263157894737,4,2,16,60,0,0
217926,-105.263157894737,4,2,1,60,0,0
218185,-800,4,2,14,60,0,0
218271,-800,4,2,1,60,0,0
220254,-800,4,2,1,5,0,0
220426,-50,4,2,1,70,0,0
220943,-58.8235294117647,4,2,1,70,0,0
221288,-125,4,2,1,70,0,0
221719,-50,4,2,1,70,0,0
221978,-125,4,2,1,70,0,0
222322,-66.6666666666667,4,2,1,70,0,0
222581,-50,4,2,1,70,0,0
222840,-166.666666666667,4,2,1,70,0,0
223357,-50,4,2,1,70,0,0
223702,-58.8235294117647,4,2,1,70,0,1
224047,-125,4,2,1,70,0,1
224391,-58.8235294117647,4,2,1,70,0,1
224564,-100,4,2,1,70,0,1
225426,-66.6666666666667,4,2,1,70,0,1
225771,-100,4,2,1,70,0,1
226460,-58.8235294117647,4,2,1,70,0,1
226805,-125,4,2,1,70,0,1
227322,-76.9230769230769,4,2,1,70,0,1
228529,-66.6666666666667,4,2,1,70,0,1
228874,-76.9230769230769,4,2,1,70,0,1
229219,-58.8235294117647,4,2,1,70,0,1
230254,-100,4,2,1,70,0,1
230771,-66.6666666666667,4,2,1,70,0,1
231978,-58.8235294117647,4,2,1,70,0,1
232322,-125,4,2,1,70,0,1
232667,-100,4,2,1,70,0,1
233357,-76.9230769230769,4,2,1,70,0,1
233702,-66.6666666666667,4,2,1,70,0,1
234047,-76.9230769230769,4,2,1,70,0,1
234736,-58.8235294117647,4,2,1,70,0,1
235081,-125,4,2,1,70,0,1
235426,-58.8235294117647,4,2,1,70,0,1
235598,-100,4,2,1,70,0,1
236116,-100,4,2,1,70,0,1
236805,-76.9230769230769,4,2,1,70,0,1
237495,-58.8235294117647,4,2,1,70,0,1
237840,-125,4,2,1,70,0,1
238357,-76.9230769230769,4,2,1,70,0,1
239564,-66.6666666666667,4,2,1,70,0,1
239909,-76.9230769230769,4,2,1,70,0,1
240254,-66.6666666666667,4,2,1,70,0,1
241288,-100,4,2,1,70,0,1
241805,-58.8235294117647,4,2,1,70,0,1
243012,-50,4,2,1,70,0,0
243357,-200,4,2,1,70,0,0
243874,-66.6666666666667,4,2,1,70,0,0
244047,-100,4,2,1,70,0,0
244391,-200,4,2,1,70,0,0
244564,-66.6666666666667,4,2,1,70,0,0
244909,-133.333333333333,4,2,1,70,0,0
245771,-58.8235294117647,4,2,1,70,0,1
246116,-125,4,2,1,70,0,1
246460,-58.8235294117647,4,2,1,70,0,1
246633,-100,4,2,1,70,0,1
246978,-55.5555555555556,4,2,1,70,0,1
247150,-40,4,2,1,70,0,1
247495,-100,4,2,1,70,0,1
248185,-50,4,2,1,70,0,1
248529,-58.8235294117647,4,2,1,70,0,1
248874,-125,4,2,1,70,0,1
249391,-76.9230769230769,4,2,1,70,0,1
250598,-66.6666666666667,4,2,1,70,0,1
250943,-76.9230769230769,4,2,1,70,0,1
251288,-58.8235294117647,4,2,1,70,0,1
252322,-100,4,2,1,70,0,1
252840,-58.8235294117647,4,2,1,70,0,1
254047,-58.8235294117647,4,2,1,70,0,1
254391,-125,4,2,1,70,0,1
254736,-100,4,2,1,70,0,1
255426,-76.9230769230769,4,2,1,70,0,1
255771,-66.6666666666667,4,2,1,70,0,1
256116,-76.9230769230769,4,2,1,70,0,1
256805,-58.8235294117647,4,2,1,70,0,1
257150,-125,4,2,1,70,0,1
257495,-58.8235294117647,4,2,1,70,0,1
257667,-100,4,2,1,70,0,1
258185,-100,4,2,1,70,0,1
258874,-76.9230769230769,4,2,1,70,0,1
259564,-58.8235294117647,4,2,1,70,0,1
259909,-125,4,2,1,70,0,1
260426,-100,4,2,1,70,0,1
261633,-66.6666666666667,4,2,1,70,0,1
261978,-76.9230769230769,4,2,1,70,0,1
262322,-58.8235294117647,4,2,1,70,0,1
263357,-100,4,2,1,70,0,1
263874,-58.8235294117647,4,2,1,70,0,1
264276,-133.333333333333,4,2,1,70,0,1
264334,-133.333333333333,4,2,1,5,0,1
264391,-133.333333333333,4,2,1,70,0,1
264736,-50,4,2,1,70,0,1
265081,-100,4,2,2,70,0,0
265426,-100,4,2,1,70,0,0
276116,-100,4,2,2,70,0,0
276460,-100,4,2,1,70,0,0
287150,-100,4,2,2,70,0,0
287495,-100,4,2,1,70,0,0
298185,-100,4,2,2,70,0,0
298529,-100,4,2,1,70,0,0
299564,-100,4,2,2,70,0,0
299909,-100,4,2,1,70,0,0
306460,-333.333333333333,4,2,1,70,0,0
308874,-100,4,2,1,70,0,0
309219,-100,4,2,2,70,0,0
324047,-1000,4,2,1,70,0,0

[Colours]
Combo1 : 243,136,39
Combo2 : 244,198,11
Combo3 : 232,232,232
Combo4 : 64,223,232
Combo5 : 145,126,248

[HitObjects]
97,111,254,22,0,B|76:165|73:225|155:314|245:251|275:221|282:171|282:171|310:176|340:161,1,393.7,4|0,0:0|0:0,0:0:0:0:
358,50,5771,6,0,B|313:55|295:75|295:75|227:13|76:39|76:39|131:31|164:71,1,393.7,0|0,0:0|0:0,0:0:0:0:
221,117,11288,6,0,B|217:164|189:188|189:188|214:213|219:265,1,152.399995349121,4|0,0:0|0:0,0:0:0:0:
175,329,12150,2,0,P|218:340|260:332,1,76.1999976745606
317,283,12667,38,0,B|366:280|366:280|414:296|414:296|482:288,1,152.399995349121,4|0,0:0|0:0,0:0:0:0:
491,204,13529,2,0,P|495:172|467:121,1,76.1999976745606,4|0,0:0|0:0,0:0:0:0:
444,49,14047,6,0,P|411:72|401:178,1,152.399995349121,4|0,0:0|0:0,0:0:0:0:
405,268,14909,2,0,P|364:265|329:236,1,76.1999976745606,4|0,0:0|0:0,0:0:0:0:
282,170,15426,6,0,P|229:155|144:174,1,133.349995930481,4|0,0:0|0:0,0:0:0:0:
95,241,16116,1,0,3:0:0:0:
93,256,16202,1,0,3:0:0:0:
90,271,16288,2,0,L|85:316,1,31.75,4|0,3:2|3:0,0:0:0:0:
176,281,16460,1,0,3:0:0:0:
176,281,16805,38,0,B|228:287|228:287|274:274|274:274|332:277,1,152.399995349121,4|0,0:0|0:0,0:0:0:0:
410,236,17667,2,0,P|392:211|343:186,1,76.1999976745606,4|0,0:0|0:0,0:0:0:0:
282,130,18185,6,0,P|288:79|379:26,1,152.399995349121,4|0,0:0|0:0,0:0:0:0:
371,118,19047,2,0,P|370:162|342:196,1,76.1999976745606,4|0,0:0|0:0,0:0:0:0:
285,224,19564,6,0,B|278:387,1,152.399995349121,4|0,0:0|0:0,0:0:0:0:
202,353,20426,2,0,P|165:341|115:350,1,76.1999976745606,4|0,0:0|0:0,0:0:0:0:
72,286,20943,38,0,P|53:222|79:124,1,171.449994767761,4|0,0:0|0:0,0:0:0:0:
144,59,21805,1,4,0:0:0:0:
229,52,21978,1,0,0:0:0:0:
238,50,22064,1,0,0:0:0:0:
247,50,22150,2,0,P|270:78|245:63,1,95.2500036334993,0|0,0:0|0:0,0:0:0:0:
268,59,22322,6,0,P|291:92|267:180,1,95.2500036334993,12|0,0:0|0:0,0:0:0:0:
292,285,22667,1,8,0:0:0:0:
443,297,22840,2,0,L|395:297,1,47.6250018167497,0|0,3:0|3:0,0:0:0:0:
348,213,23012,2,0,L|395:213,1,47.6250018167497,0|0,3:0|3:0,0:0:0:0:
484,211,23185,1,4,0:0:0:0:
381,121,23357,2,0,P|303:122|263:155,1,95.2500036334993,8|0,0:0|0:0,0:0:0:0:
183,189,23616,1,0,0:0:0:0:
161,198,23702,6,0,L|161:92,1,95.2500036334993,4|0,0:0|0:0,0:0:0:0:
54,35,24047,1,8,0:0:0:0:
5,125,24219,2,0,L|67:123,1,47.6250018167496,0|0,3:0|3:0,0:0:0:0:
161,198,24391,2,0,L|99:200,1,47.6250018167496,0|0,3:0|3:0,0:0:0:0:
23,249,24564,2,0,L|25:311,1,47.6250018167496,4|0,0:0|0:0,0:0:0:0:
102,343,24736,1,8,0:0:0:0:
265,202,24909,1,0,0:0:0:0:
281,185,24995,1,0,0:0:0:0:
293,170,25081,38,0,L|294:298,1,95.2500036334993,4|0,0:0|0:0,0:0:0:0:
389,353,25426,1,8,0:0:0:0:
456,294,25598,2,0,L|520:289,1,47.6250018167497,0|0,3:0|3:0,0:0:0:0:
430,214,25771,2,0,L|366:209,1,47.6250018167497,0|0,3:0|3:0,0:0:0:0:
485,144,25943,1,4,0:0:0:0:
453,36,26116,2,0,P|396:27|338:50,1,95.2500036334993,8|0,0:0|0:0,0:0:0:0:
268,83,26374,1,0,0:0:0:0:
246,108,26460,6,0,L|120:113,1,95.2500036334993,4|0,0:0|0:0,0:0:0:0:
0,120,26805,1,8,0:0:0:0:
61,197,26978,2,0,L|70:270,1,47.6250018167497,0|0,3:0|3:0,0:0:0:0:
143,160,27150,2,0,L|148:112,1,47.6250018167497,0|0,3:0|3:0,0:0:0:0:
210,220,27322,1,4,0:0:0:0:
386,201,27495,2,0,P|442:196|499:215,1,95.2500036334993,8|0,0:0|0:0,0:0:0:0:
398,303,27754,1,0,0:0:0:0:
383,321,27840,6,0,P|327:326|270:307,1,95.2500036334993,4|0,0:0|0:0,0:0:0:0:
210,220,28185,1,8,0:0:0:0:
101,319,28357,1,0,0:0:0:0:
85,300,28443,2,0,L|87:188,1,95.2500036334993,0|0,0:0|0:0,0:0:0:0:
70,186,28702,1,4,0:0:0:0:
71,69,28874,2,0,P|154:51|194:69,1,95.2500036334993,8|0,0:0|0:0,0:0:0:0:
245,124,29133,1,0,0:0:0:0:
264,137,29219,38,0,P|318:142|382:111,1,95.2500036334993,4|0,0:0|0:0,0:0:0:0:
480,65,29564,1,8,0:0:0:0:
465,154,29736,2,0,L|457:210,1,47.6250018167497,0|0,3:0|3:0,0:0:0:0:
367,264,29909,2,0,L|360:216,1,47.6250018167497,0|0,3:0|3:0,0:0:0:0:
457,309,30081,2,0,L|449:365,1,47.6250018167497,4|0,0:0|0:0,0:0:0:0:
367,264,30254,1,8,0:0:0:0:
294,340,30426,2,0,L|235:341,1,47.6250018167496,0|0,3:0|3:0,0:0:0:0:
176,259,30598,6,0,B|154:213|154:213|163:141,1,95.2500036334993,4|0,0:0|0:0,0:0:0:0:
256,21,30943,1,8,0:0:0:0:
300,106,31116,1,0,0:0:0:0:
321,115,31202,2,0,L|456:118,1,95.2500036334993,0|0,0:0|0:0,0:0:0:0:
436,129,31460,1,4,0:0:0:0:
347,28,31633,2,0,P|291:13|227:43,1,95.2500036334993,8|0,0:0|0:0,0:0:0:0:
229,132,31891,1,0,0:0:0:0:
209,145,31978,6,0,L|90:145,1,95.2500036334993,4|0,0:0|0:0,0:0:0:0:
59,21,32322,1,8,0:0:0:0:
21,117,32495,1,0,3:0:0:0:
19,140,32581,1,0,3:0:0:0:
17,163,32667,2,0,L|12:241,1,47.6250018167497,0|0,3:0|3:0,0:0:0:0:
105,239,32840,2,0,L|100:161,1,47.6250018167497,4|0,0:0|0:0,0:0:0:0:
123,325,33012,1,8,0:0:0:0:
137,325,33098,1,0,0:0:0:0:
150,319,33184,1,0,0:0:0:0:
161,311,33270,1,0,0:0:0:0:
211,262,33357,38,0,B|226:253|226:253|335:255,1,95.2500036334993,8|0,0:0|0:0,0:0:0:0:
468,230,33702,1,8,0:0:0:0:
379,192,33874,1,0,0:0:0:0:
366,161,33960,1,0,0:0:0:0:
364,128,34046,1,0,0:0:0:0:
373,96,34132,1,0,0:0:0:0:
392,68,34218,1,4,0:0:0:0:
459,140,34391,2,0,P|475:211|460:246,1,95.2500036334993,8|0,0:0|0:0,0:0:0:0:
384,305,34650,1,0,0:0:0:0:
366,320,34736,6,0,L|235:338,1,95.2500036334993,4|0,0:0|0:0,0:0:0:0:
146,295,35081,1,8,0:0:0:0:
241,239,35254,1,0,0:0:0:0:
245,206,35340,1,0,0:0:0:0:
238,173,35426,1,0,0:0:0:0:
220,145,35512,1,0,0:0:0:0:
194,125,35598,1,4,0:0:0:0:
146,295,35771,1,8,0:0:0:0:
342,253,35943,1,0,0:0:0:0:
365,247,36029,1,0,0:0:0:0:
388,241,36116,6,0,L|387:126,1,95.2500036334993,4|0,0:0|0:0,0:0:0:0:
357,12,36460,1,8,0:0:0:0:
262,72,36633,1,0,0:0:0:0:
242,58,36719,2,0,L|130:56,1,95.2500036334993,0|0,0:0|0:0,0:0:0:0:
127,41,36978,1,4,0:0:0:0:
65,149,37150,2,0,L|60:265,1,95.2500036334993,8|0,0:0|0:0,0:0:0:0:
104,342,37409,1,0,0:0:0:0:
121,325,37495,38,0,L|236:323,1,95.2500036334993,4|0,0:0|0:0,0:0:0:0:
369,293,37840,1,8,0:0:0:0:
273,267,38012,1,0,0:0:0:0:
258,237,38098,1,0,0:0:0:0:
257,204,38184,1,0,0:0:0:0:
269,173,38270,1,0,0:0:0:0:
295,151,38357,2,0,P|324:145|355:152,1,47.6250018167496,4|0,0:0|0:0,0:0:0:0:
436,207,38529,2,0,B|458:170|458:170|455:107|455:107|422:56,1,142.875005450249,8|0,0:0|0:0,0:0:0:0:
373,27,38874,6,0,L|253:32,1,95.2500036334993,4|0,0:0|0:0,0:0:0:0:
143,17,39219,1,8,0:0:0:0:
89,81,39391,1,0,0:0:0:0:
109,107,39478,2,0,L|107:223,1,95.2500036334993,0|0,0:0|0:0,0:0:0:0:
129,226,39736,1,4,0:0:0:0:
68,326,39909,2,0,P|115:341|181:330,1,95.2500036334993,8|0,0:0|0:0,0:0:0:0:
257,264,40167,1,0,0:0:0:0:
278,252,40254,6,0,B|290:196|290:196|278:133,1,95.2500036334993,4|0,0:0|0:0,0:0:0:0:
297,28,40598,1,8,0:0:0:0:
351,96,40771,1,0,0:0:0:0:
371,107,40857,2,0,L|478:105,1,95.2500036334993,0|0,0:0|0:0,0:0:0:0:
491,127,41116,2,0,L|492:190,1,47.6250018167496,4|0,0:0|0:0,0:0:0:0:
421,258,41288,1,8,0:0:0:0:
299,232,41460,1,0,0:0:0:0:
266,210,41547,1,0,0:0:0:0:
226,202,41633,38,0,P|192:208|160:204,1,63.5,0|0,0:0|0:0,0:0:0:0:
163,204,43012,2,0,P|130:192|103:173,1,63.5,4|4,0:0|0:0,0:0:0:0:
226,113,44047,6,0,B|280:95|280:95|332:110|332:110,1,95.25,8|0,0:0|0:0,0:0:0:0:
363,180,44391,6,0,B|328:192|328:192|283:176|283:176|206:202|206:202|179:247|179:247|109:262|109:262|142:310|142:310|148:372|148:372|222:342|222:342|265:359|265:359|338:334|338:334|362:289|362:289|418:271|418:271|484:288|484:288,1,787.4,8|0,0:0|0:0,0:0:0:0:
506,299,55426,37,8,0:0:0:0:
501,304,56805,5,8,0:0:0:0:
496,309,58185,5,8,0:0:0:0:
491,314,59564,37,8,0:0:0:0:
486,319,60943,5,8,0:0:0:0:
481,324,62322,5,8,0:0:0:0:
477,329,63702,37,8,0:0:0:0:
112,67,66288,6,0,P|138:29|129:74,1,127,0|0,0:0|0:0,0:0:0:0:
129,57,66460,6,0,B|178:-22|277:4|318:36|341:147|267:185|231:194|231:194|283:192|321:202|372:228|372:228|272:301|176:272|176:272|192:308|182:333|171:351,1,800.1,12|0,0:0|0:0,0:0:0:0:
106,306,77495,38,0,P|68:230|112:178,1,152.399995349121,12|0,0:0|0:0,0:0:0:0:
189,182,78357,2,0,L|270:181,1,76.1999976745606,4|0,0:0|0:0,0:0:0:0:
330,116,78874,6,0,P|355:162|321:257,1,152.399995349121,12|0,0:0|0:0,0:0:0:0:
260,327,79736,2,0,P|309:351|338:350,1,76.1999976745606,4|0,0:0|0:0,0:0:0:0:
441,362,80254,6,0,B|449:315|449:315|433:267|433:267|439:203,1,152.399995349121,4|0,0:0|0:0,0:0:0:0:
476,129,81116,2,0,P|433:122|385:135,1,76.1999976745606,4|0,0:0|0:0,0:0:0:0:
318,172,81633,38,0,P|268:180|190:111,1,152.399995349121,4|0,0:0|0:0,0:0:0:0:
155,44,82495,2,0,P|121:27|75:27,1,76.1999976745606,4|0,0:0|0:0,0:0:0:0:
94,116,83012,6,0,L|99:205,1,63.5,4|0,0:0|0:0,0:0:0:0:
141,320,83357,2,0,L|144:256,1,63.5,4|0,0:0|0:0,0:0:0:0:
202,112,83702,2,0,L|207:201,1,76.1999976745606,4|0,0:0|0:0,0:0:0:0:
248,346,84047,2,0,L|251:263,1,76.1999976745606,4|0,0:0|0:0,0:0:0:0:
312,78,84391,2,0,L|317:167,1,88.8999972869874,4|0,0:0|0:0,0:0:0:0:
356,357,84736,2,0,L|361:268,1,88.8999972869874,4|0,0:0|0:0,0:0:0:0:
421,147,85081,5,4,0:0:0:0:
251,252,85254,1,4,0:0:0:0:
142,136,85426,37,4,0:0:0:0:
163,98,85512,1,4,0:0:0:0:
205,110,85598,1,4,0:0:0:0:
205,151,85684,1,4,0:0:0:0:
164,164,85771,1,4,0:0:0:0:
256,192,85857,12,0,87926,0:0:0:0:
293,170,88012,6,0,P|216:206|298:183,1,254,0|0,0:0|0:0,0:0:0:0:
256,192,88529,6,0,B|222:238|222:238|339:283|430:231|430:231|363:153,1,323.850006176949,4|0,0:0|0:0,0:0:0:0:
229,48,88874,38,0,P|162:20|87:49,1,152.4,8|0,0:0|0:0,0:0:0:0:
45,119,89219,6,0,L|51:183,1,63.5,0|0,0:0|0:0,0:0:0:0:
99,332,89391,2,0,L|104:268,1,63.5,4|0,0:0|0:0,0:0:0:0:
159,114,89564,2,0,L|153:177,1,63.5,8|0,0:0|0:0,0:0:0:0:
211,328,89736,2,0,L|205:264,1,63.5,0|0,0:0|0:0,0:0:0:0:
256,192,89909,6,0,B|276:174|276:174|433:173,1,165.099992442322,4|0,0:0|0:0,0:0:0:0:
476,15,90167,1,4,0:0:0:0:
476,15,90254,38,0,B|498:72|464:104|464:104|508:140|496:210,1,190.500007266999,8|4,0:0|0:0,0:0:0:0:
438,328,90512,1,0,0:0:0:0:
438,328,90598,6,0,B|409:312|409:312|353:331|353:331|316:310|224:322,1,165.099992442322,0|4,0:0|0:0,0:0:0:0:
69,257,90943,5,8,3:2:0:0:
85,228,91029,1,0,3:0:0:0:
44,156,91116,37,0,3:0:0:0:
28,127,91202,1,0,3:0:0:0:
99,71,91288,6,0,B|284:69|284:69|179:113,1,285.750010900498,4|0,0:0|0:0,0:0:0:0:
85,228,91633,6,0,B|52:231|52:231|102:297|181:280|216:250,1,190.5,8|0,0:0|0:0,0:0:0:0:
360,126,91978,38,0,B|374:180|374:180|320:283,1,107.950002058983,0|0,0:0|0:0,0:0:0:0:
283,359,92150,6,0,B|291:323|291:323|275:258,1,63.5,4|0,0:0|0:0,0:0:0:0:
275,174,92322,5,8,3:2:0:0:
240,179,92408,1,0,3:2:0:0:
183,119,92495,37,0,3:2:0:0:
148,115,92581,1,0,3:2:0:0:
97,179,92667,5,4,0:0:0:0:
81,207,92754,1,0,0:0:0:0:
76,238,92840,1,0,0:0:0:0:
83,268,92926,1,4,0:0:0:0:
124,337,93012,6,0,B|190:337|190:337|236:361|236:361|316:357,1,190.500007266999,8|4,0:0|0:0,0:0:0:0:
449,315,93271,1,0,0:0:0:0:
449,315,93357,2,0,P|425:292|385:278,1,63.5,0|0,0:0|0:0,0:0:0:0:
246,154,93529,38,0,B|237:232|296:267|296:267|300:236|324:212,1,190.500007266999,4|8,0:0|0:0,0:0:0:0:
339,105,93788,1,0,0:0:0:0:
339,105,93874,2,0,P|298:59|256:47,1,95.2500036334993,0|0,0:0|0:0,0:0:0:0:
246,154,94047,6,0,B|201:136|153:153|153:153|89:134|89:134|6:158|6:158|76:185,1,323.850006176949,4|0,0:0|0:0,0:0:0:0:
360,212,94391,6,0,B|407:171|464:209|464:209|395:254|395:254|447:300|421:362|388:385,1,317.5,8|0,0:0|0:0,0:0:0:0:
344,314,94909,38,0,L|260:310,1,63.5,4|0,0:0|0:0,0:0:0:0:
196,300,95081,37,8,0:0:0:0:
130,357,95196,1,0,0:0:0:0:
215,384,95311,1,0,0:0:0:0:
196,300,95426,38,0,B|179:262|179:262|106:236|106:236|82:178|82:178|111:103,1,247.649988663483,4|4,0:0|0:0,0:0:0:0:
216,95,95771,37,8,0:0:0:0:
262,173,95886,1,0,0:0:0:0:
175,176,96001,1,0,0:0:0:0:
216,95,96116,6,0,B|281:96|281:96|352:76|352:76|382:102|436:93,1,215.900004117966,0|4,0:0|0:0,0:0:0:0:
503,183,96374,1,0,0:0:0:0:
503,183,96460,6,0,B|376:183|376:183|402:181|429:160,1,165.099992442322,8|0,0:0|0:0,0:0:0:0:
413,7,96719,1,0,0:0:0:0:
413,7,96805,6,0,B|344:-2|344:-2|290:13|290:13|240:-11|240:-11|175:24|175:24|216:7|251:21,1,323.850006176949,4|0,0:0|0:0,0:0:0:0:
260,168,97150,37,8,0:0:0:0:
232,200,97236,1,0,0:0:0:0:
283,210,97322,1,0,0:0:0:0:
272,240,97408,1,0,0:0:0:0:
315,237,97495,5,0,0:0:0:0:
312,258,97581,1,0,0:0:0:0:
353,252,97667,1,4,0:0:0:0:
358,261,97753,1,0,0:0:0:0:
367,269,97840,6,0,P|405:279|448:272,1,63.5,8|0,0:0|0:0,0:0:0:0:
512,204,98012,2,0,P|474:194|431:201,1,63.5,0|0,0:0|0:0,0:0:0:0:
382,88,98185,2,0,B|351:127|379:199,1,82.5499962211611,4|0,0:0|0:0,0:0:0:0:
445,20,98357,38,0,P|385:-3|300:48,1,95.2500036334993,0|4,0:0|0:0,0:0:0:0:
231,55,98529,37,8,0:0:0:0:
155,103,98644,1,0,0:0:0:0:
145,17,98759,1,0,0:0:0:0:
254,81,98874,5,0,0:0:0:0:
167,118,98989,1,0,0:0:0:0:
179,26,99104,1,0,0:0:0:0:
272,99,99219,5,8,0:0:0:0:
284,113,99305,1,0,0:0:0:0:
294,128,99391,1,0,0:0:0:0:
299,146,99478,1,0,0:0:0:0:
299,167,99564,6,0,B|228:201|228:201|56:197|56:197|127:159,1,323.850006176949,4|0,0:0|0:0,0:0:0:0:
254,81,99909,6,0,P|331:76|388:130,1,152.4,8|0,0:0|0:0,0:0:0:0:
196,154,100254,38,0,L|196:241,1,63.5,0|0,0:0|0:0,0:0:0:0:
239,372,100426,2,0,L|239:285,1,63.5,4|0,0:0|0:0,0:0:0:0:
299,167,100598,2,0,L|299:254,1,63.5,8|0,0:0|0:0,0:0:0:0:
347,374,100771,2,0,L|352:310,1,63.5,0|0,0:0|0:0,0:0:0:0:
444,195,100943,6,0,B|476:71|476:71|420:116,1,165.099992442322,4|0,0:0|0:0,0:0:0:0:
299,167,101202,1,4,0:0:0:0:
299,167,101288,6,0,B|240:164|210:194|210:194|179:151|130:148,1,190.500007266999,8|4,0:0|0:0,0:0:0:0:
129,44,101547,1,0,0:0:0:0:
129,44,101633,38,0,B|163:46|183:61|183:61|239:46|239:46|270:61|323:61,1,165.099992442322,0|4,0:0|0:0,0:0:0:0:
444,153,101978,5,8,3:2:0:0:
463,183,102064,1,0,3:2:0:0:
399,234,102150,5,0,3:2:0:0:
380,264,102236,1,0,3:2:0:0:
384,350,102322,38,0,B|343:350|317:322|317:322|246:352|246:352|211:285|139:275|93:300,1,323.850006176949,4|0,0:0|0:0,0:0:0:0:
13,319,102667,6,0,P|40:364|160:355,1,152.4,8|0,0:0|0:0,0:0:0:0:
100,296,103012,6,0,B|111:242|111:242|99:190,1,107.950002058983,0|0,0:0|0:0,0:0:0:0:
49,123,103185,38,0,P|81:109|127:115,1,63.5,4|0,0:0|0:0,0:0:0:0:
263,117,103357,5,8,3:2:0:0:
296,99,103443,1,0,3:2:0:0:
358,142,103529,5,0,3:2:0:0:
391,160,103615,1,0,3:2:0:0:
477,195,103702,38,0,B|481:160|481:160|471:118,1,63.5,4|0,0:0|0:0,0:0:0:0:
294,201,103874,1,0,0:0:0:0:
300,231,103960,1,4,0:0:0:0:
307,262,104047,2,0,B|311:297|311:297|301:339,1,63.5,8|0,0:0|0:0,0:0:0:0:
112,314,104219,1,4,0:0:0:0:
118,282,104305,1,0,0:0:0:0:
127,241,104391,6,0,B|126:184|126:184|164:142|164:142|163:90,1,165.099992442322,0|4,0:0|0:0,0:0:0:0:
46,315,104650,1,0,0:0:0:0:
46,315,104736,2,0,B|19:287|-33:383|65:397|140:258|242:355,1,247.649988663483,8|0,0:0|0:0,0:0:0:0:
243,195,105081,6,0,B|260:145|260:145|244:88|244:88|258:34|258:34|312:-9|312:-9|353:45|353:45|348:63,1,323.850006176949,4|0,0:0|0:0,0:0:0:0:
334,155,105426,38,0,B|417:218|511:155|511:155|473:157|448:145,1,254,8|0,0:0|0:0,0:0:0:0:
334,155,105943,6,0,B|323:195|323:195|340:287,1,82.5499962211611,4|0,0:0|0:0,0:0:0:0:
405,357,106116,21,8,0:0:0:0:
478,317,106231,1,0,0:0:0:0:
405,273,106345,1,0,0:0:0:0:
405,357,106460,54,0,B|356:346|356:346|328:365|328:365|295:353|295:353|250:383|194:375|169:339,1,247.649988663483,4|4,0:0|0:0,0:0:0:0:
165,224,106805,21,8,0:0:0:0:
219,161,106920,1,0,0:0:0:0:
248,242,107035,1,0,0:0:0:0:
165,224,107150,6,0,B|136:88|136:88|108:152|108:152,1,190.500007266999,0|4,0:0|0:0,0:0:0:0:
50,288,107409,1,0,0:0:0:0:
50,288,107495,6,0,B|100:278|100:278|132:305|163:313|196:305|231:276|231:276|291:284,1,247.649988663483,8|0,0:0|0:0,0:0:0:0:
372,243,107840,6,0,B|390:176|390:176|522:186|495:331|414:344,1,323.850006176949,4|0,0:0|0:0,0:0:0:0:
242,360,108185,37,8,0:0:0:0:
205,382,108271,1,0,0:0:0:0:
193,342,108357,1,0,0:0:0:0:
162,351,108443,1,0,0:0:0:0:
152,312,108529,5,0,0:0:0:0:
130,310,108615,1,0,0:0:0:0:
120,273,108702,1,4,0:0:0:0:
111,266,108788,1,0,0:0:0:0:
103,255,108874,6,0,P|95:219|106:182,1,63.5,8|0,0:0|0:0,0:0:0:0:
182,50,109047,2,0,P|190:86|179:123,1,63.5,0|0,0:0|0:0,0:0:0:0:
29,114,109219,2,0,P|65:106|102:117,1,63.5,4|0,0:0|0:0,0:0:0:0:
285,122,109391,38,0,B|302:72|302:72|272:-13,1,95.2500036334993,0|4,0:0|0:0,0:0:0:0:
203,191,109564,37,8,0:0:0:0:
284,237,109679,1,0,0:0:0:0:
282,140,109794,1,0,0:0:0:0:
185,184,109909,5,0,0:0:0:0:
251,249,110024,1,0,0:0:0:0:
274,155,110139,1,0,0:0:0:0:
157,173,110254,5,8,0:0:0:0:
128,169,110340,1,0,0:0:0:0:
99,171,110426,1,0,0:0:0:0:
71,176,110512,1,0,0:0:0:0:
49,185,110598,6,0,B|12:236|12:236|22:335|22:335|77:369|77:369|127:328|127:328|121:235,1,381,4|0,0:0|0:0,0:0:0:0:
185,184,110943,6,0,B|189:140|154:113|154:113|189:70|172:13,1,158.75,0|0,0:0|0:0,0:0:0:0:
298,94,111460,38,0,B|445:94,1,95.2500036334993,0|0,0:0|0:0,0:0:0:0:
352,176,111633,6,0,B|336:219|336:219|345:291,1,95.25,0|0,0:0|0:0,0:0:0:0:
390,347,111978,6,0,P|357:358|287:338,1,82.5499962211611,0|0,0:0|0:0,0:0:0:0:
37,347,112150,38,0,B|69:345|69:345|102:355|102:355|131:350,1,95.2500036334993,0|0,0:0|0:0,0:0:0:0:
210,303,112322,6,0,P|225:351|216:389,1,63.5,0|0,0:0|0:0,0:0:0:0:
150,249,112495,6,0,P|135:201|143:165,1,47.6250018167496,0|0,0:0|0:0,0:0:0:0:
188,105,112667,2,0,P|137:93|67:109,1,95.2500036334993,0|4,0:0|0:0,0:0:0:0:
337,188,113012,37,8,0:0:0:0:
357,167,113098,1,8,0:0:0:0:
365,150,113184,1,8,0:0:0:0:
367,140,113270,1,8,0:0:0:0:
363,132,113357,6,0,B|308:173|184:172|236:106|109:97|54:138,1,323.850006176949,4|0,0:0|0:0,0:0:0:0:
2,244,113702,6,0,P|18:302|129:306,1,152.4,8|0,0:0|0:0,0:0:0:0:
210,254,114047,38,0,B|142:246|142:246|79:252|79:252|100:232|106:210,1,165.099992442322,0|4,0:0|0:0,0:0:0:0:
201,52,114391,5,8,3:2:0:0:
227,30,114478,1,0,3:2:0:0:
302,55,114564,5,0,3:2:0:0:
328,77,114651,1,0,3:2:0:0:
406,35,114736,38,0,P|468:30|517:63,1,107.950002058983,4|0,0:0|0:0,0:0:0:0:
433,173,114909,1,0,0:0:0:0:
407,171,114995,1,4,0:0:0:0:
317,170,115081,6,0,B|315:247|315:247|351:203,1,95.2500036334993,8|0,0:0|0:0,0:0:0:0:
261,322,115254,1,4,0:0:0:0:
282,338,115340,6,0,P|319:344|345:340,1,63.5,0|0,0:0|0:0,0:0:0:0:
210,207,115512,1,0,0:0:0:0:
199,190,115598,2,0,P|162:184|135:187,1,63.5,4|0,0:0|0:0,0:0:0:0:
63,327,115771,37,8,0:0:0:0:
134,375,115857,2,0,P|145:303|100:252,1,127,0|0,0:0|0:0,0:0:0:0:
1,114,116116,6,0,B|61:128|61:128|121:104|121:104|245:115|245:115|206:85|210:44,1,323.850006176949,4|0,0:0|0:0,0:0:0:0:
326,108,116460,6,0,B|326:67|291:44|291:44|397:43|412:97|406:166,1,254,8|0,0:0|0:0,0:0:0:0:
290,215,116978,38,0,B|285:255|285:255|304:338,1,82.5499962211611,4|0,0:0|0:0,0:0:0:0:
395,339,117150,37,8,0:0:0:0:
452,272,117265,1,0,0:0:0:0:
365,254,117380,1,0,0:0:0:0:
395,337,117495,38,0,B|411:293|392:265|392:265|435:226|392:195|392:195|427:151|376:123|376:123|402:87|389:52,1,323.850006176949,4|4,0:0|0:0,0:0:0:0:
276,71,117840,37,8,0:0:0:0:
188,46,117955,1,0,0:0:0:0:
207,130,118070,1,0,0:0:0:0:
276,71,118185,6,0,B|212:62|212:62|140:78|140:78|12:56,1,190.500007266999,0|4,0:0|0:0,0:0:0:0:
20,160,118443,1,0,0:0:0:0:
20,160,118529,6,0,B|26:284|26:284|30:259|46:237,1,165.099992442322,8|0,0:0|0:0,0:0:0:0:
110,295,118788,1,0,0:0:0:0:
110,295,118874,6,0,B|150:327|205:313|229:293|236:251|236:251|289:270|289:270|335:235|423:274,1,323.850006176949,4|0,0:0|0:0,0:0:0:0:
481,202,119219,37,8,0:0:0:0:
505,180,119305,1,0,0:0:0:0:
473,157,119391,1,0,0:0:0:0:
487,136,119477,1,0,0:0:0:0:
454,115,119564,5,0,0:0:0:0:
458,99,119650,1,0,0:0:0:0:
424,78,119736,1,4,0:0:0:0:
424,69,119822,1,0,0:0:0:0:
421,56,119909,6,0,P|384:48|328:54,1,63.5,8|0,0:0|0:0,0:0:0:0:
276,159,120081,2,0,P|307:158|338:151,1,63.5,0|0,0:0|0:0,0:0:0:0:
223,20,120254,2,0,L|230:116,1,63.5,4|0,0:0|0:0,0:0:0:0:
196,263,120426,38,0,P|184:153|229:121,1,107.950002058983,0|4,0:0|0:0,0:0:0:0:
311,251,120598,37,8,0:0:0:0:
273,342,120713,1,0,0:0:0:0:
212,269,120828,1,0,0:0:0:0:
324,231,120943,5,0,0:0:0:0:
310,328,121058,1,0,0:0:0:0:
233,274,121173,1,0,0:0:0:0:
335,212,121288,5,8,0:0:0:0:
371,190,121374,1,0,0:0:0:0:
414,188,121460,1,0,0:0:0:0:
452,207,121546,1,0,0:0:0:0:
475,243,121633,6,0,B|445:189|445:189|484:91|484:91|411:32|411:32|299:72,1,323.850006176949,4|0,0:0|0:0,0:0:0:0:
141,32,121978,6,0,P|193:84|267:79,1,152.4,8|0,0:0|0:0,0:0:0:0:
256,165,122322,38,0,L|251:242,1,63.5,0|0,0:0|0:0,0:0:0:0:
180,346,122495,2,0,L|185:269,1,63.5,4|0,0:0|0:0,0:0:0:0:
129,138,122667,2,0,L|133:201,1,63.5,8|0,0:0|0:0,0:0:0:0:
74,336,122840,2,0,L|69:272,1,63.5,0|0,0:0|0:0,0:0:0:0:
36,125,123012,6,0,B|42:67|103:27|174:35|211:88|211:88|249:68|296:87,1,285.750010900498,4|4,0:0|0:0,0:0:0:0:
359,40,123357,2,0,P|370:88|340:158,1,82.5499962211611,8|0,0:0|0:0,0:0:0:0:
268,256,123529,1,4,0:0:0:0:
246,268,123616,1,0,0:0:0:0:
222,267,123702,6,0,B|195:246|195:246|268:265|405:227,1,190.500007266999,0|4,0:0|0:0,0:0:0:0:
388,65,124047,37,8,3:2:0:0:
359,40,124133,1,0,3:2:0:0:
294,92,124219,5,0,3:2:0:0:
265,117,124305,1,0,3:2:0:0:
191,62,124391,6,0,B|126:24|60:54|60:54|40:124|118:171|118:171|102:201|118:239,1,323.850006176949,4|0,0:0|0:0,0:0:0:0:
196,209,124736,38,0,P|164:288|89:304,1,152.4,8|0,0:0|0:0,0:0:0:0:
279,299,125081,6,0,B|403:300|403:300|345:279,1,165.099992442322,0|4,0:0|0:0,0:0:0:0:
261,67,125426,5,8,3:2:0:0:
233,90,125512,1,0,3:2:0:0:
159,66,125598,37,0,3:2:0:0:
131,43,125684,1,0,3:2:0:0:
59,72,125771,6,0,P|45:122|66:182,1,63.5,4|0,0:0|0:0,0:0:0:0:
116,239,125943,2,0,P|130:189|109:129,1,63.5,0|4,0:0|0:0,0:0:0:0:
42,278,126116,6,0,P|98:322|177:295,1,127,8|4,0:0|0:0,0:0:0:0:
327,304,126374,1,0,0:0:0:0:
284,231,126460,2,0,P|240:287|267:366,1,127,0|4,0:0|0:0,0:0:0:0:
321,157,126719,1,0,0:0:0:0:
321,157,126805,38,0,B|374:125|374:125|323:37|216:48|216:48|210:111,1,285.750010900498,8|0,0:0|0:0,0:0:0:0:
149,315,127150,6,0,B|119:371|50:372|7:322|7:322|92:256|70:129,1,323.850006176949,4|0,0:0|0:0,0:0:0:0:
39,108,127495,6,0,B|101:92|141:112|176:166|153:222|153:222|181:202|227:202,1,254,8|0,0:0|0:0,0:0:0:0:
242,289,128012,38,0,B|282:298|282:298|377:275,1,82.5499962211611,4|0,0:0|0:0,0:0:0:0:
398,188,128185,37,8,0:0:0:0:
342,116,128299,1,0,0:0:0:0:
305,201,128414,1,0,0:0:0:0:
398,188,128529,38,0,B|434:149|434:149|333:158|333:158|261:127|261:127|223:153|157:139,1,323.850006176949,4|4,0:0|0:0,0:0:0:0:
89,143,128874,37,8,0:0:0:0:
49,227,128989,1,0,0:0:0:0:
141,221,129104,1,0,0:0:0:0:
89,143,129219,6,0,B|87:185|49:224|49:224|97:255|86:329,1,190.500007266999,0|4,0:0|0:0,0:0:0:0:
176,360,129478,1,0,0:0:0:0:
176,360,129564,6,0,B|260:373|260:373|333:349|333:349|427:363,1,247.649988663483,8|0,0:0|0:0,0:0:0:0:
348,262,129909,6,0,B|359:206|359:206|332:175|332:175|378:129|346:19|346:19|352:52|328:102,1,323.850006176949,4|0,0:0|0:0,0:0:0:0:
184,152,130254,37,8,0:0:0:0:
205,189,130340,1,0,0:0:0:0:
157,194,130427,1,0,0:0:0:0:
178,218,130513,1,0,0:0:0:0:
143,246,130599,5,0,0:0:0:0:
159,260,130685,1,0,0:0:0:0:
145,303,130771,1,4,0:0:0:0:
152,310,130857,1,0,0:0:0:0:
161,318,130943,6,0,P|192:322|223:316,1,63.5,8|0,0:0|0:0,0:0:0:0:
330,217,131116,2,0,P|293:211|245:225,1,63.5,0|0,0:0|0:0,0:0:0:0:
387,353,131288,2,0,P|393:316|379:268,1,63.5,4|0,0:0|0:0,0:0:0:0:
373,81,131460,38,0,B|319:69|319:69|224:83,1,107.950002058983,0|4,0:0|0:0,0:0:0:0:
94,124,131633,37,8,0:0:0:0:
148,205,131748,1,0,0:0:0:0:
199,118,131863,1,0,0:0:0:0:
81,168,131978,5,0,0:0:0:0:
155,232,132093,1,0,0:0:0:0:
181,135,132208,1,0,0:0:0:0:
75,196,132322,53,8,0:0:0:0:
174,253,132437,2,0,B|237:276|298:253|298:253|260:252|247:237,1,169.333333333333,0|0,0:0|0:0,0:0:0:0:
309,83,132667,22,0,P|398:93|429:131,1,127,4|0,0:0|0:0,0:0:0:0:
496,63,133012,1,8,0:0:0:0:
337,172,133185,1,0,0:0:0:0:
318,211,133271,1,0,0:0:0:0:
311,256,133357,1,0,0:0:0:0:
318,299,133443,1,0,0:0:0:0:
337,340,133529,1,4,0:0:0:0:
445,384,133702,2,0,P|448:306|415:263,1,127,8|0,0:0|0:0,0:0:0:0:
311,256,133960,1,0,0:0:0:0:
287,277,134047,6,0,B|220:287|220:287|152:275,1,127,4|0,0:0|0:0,0:0:0:0:
80,145,134391,1,8,0:0:0:0:
176,100,134564,1,0,0:0:0:0:
202,118,134650,2,0,L|353:122,1,127,0|0,0:0|0:0,0:0:0:0:
352,143,134909,2,0,L|354:217,1,63.5,4|0,0:0|0:0,0:0:0:0:
308,338,135081,2,0,P|373:347|435:305,1,127,8|0,0:0|0:0,0:0:0:0:
466,180,135340,1,0,0:0:0:0:
468,149,135426,6,0,B|479:84|479:84|462:10,1,127,4|0,0:0|0:0,0:0:0:0:
352,143,135771,1,8,0:0:0:0:
296,53,135943,1,0,0:0:0:0:
252,42,136029,1,0,0:0:0:0:
207,45,136115,1,0,0:0:0:0:
166,60,136201,1,0,0:0:0:0:
131,87,136287,1,4,0:0:0:0:
221,276,136460,2,0,L|225:137,1,127,8|0,0:0|0:0,0:0:0:0:
134,268,136719,1,0,0:0:0:0:
129,299,136805,38,0,P|167:355|252:355,1,127,4|0,0:0|0:0,0:0:0:0:
302,219,137150,1,8,0:0:0:0:
491,271,137322,1,0,0:0:0:0:
472,297,137409,2,0,L|321:300,1,127,0|0,0:0|0:0,0:0:0:0:
319,318,137667,1,4,0:0:0:0:
389,187,137840,2,0,P|402:118|344:54,1,127,8|0,0:0|0:0,0:0:0:0:
216,68,138098,1,0,0:0:0:0:
183,68,138185,6,0,L|47:67,1,127,4|0,0:0|0:0,0:0:0:0:
95,160,138529,1,8,0:0:0:0:
30,245,138702,1,0,0:0:0:0:
69,264,138788,1,0,0:0:0:0:
113,265,138874,1,0,0:0:0:0:
154,248,138960,1,0,0:0:0:0:
185,216,139046,1,4,0:0:0:0:
290,149,139219,2,0,P|302:233|277:274,1,127,8|0,0:0|0:0,0:0:0:0:
198,337,139478,1,0,0:0:0:0:
173,356,139564,6,0,L|318:357,1,127,4|0,0:0|0:0,0:0:0:0:
283,267,139909,1,8,0:0:0:0:
429,334,140081,1,0,0:0:0:0:
445,307,140167,2,0,L|440:170,1,127,0|0,0:0|0:0,0:0:0:0:
444,148,140426,2,0,P|481:142|518:154,1,63.5,4|0,0:0|0:0,0:0:0:0:
318,172,140598,2,0,P|226:182|191:245,1,127,8|0,0:0|0:0,0:0:0:0:
171,348,140857,1,0,0:0:0:0:
142,336,140943,38,0,L|-8:339,1,127,4|0,0:0|0:0,0:0:0:0:
174,232,141288,1,8,0:0:0:0:
283,267,141460,1,0,0:0:0:0:
325,274,141546,1,0,0:0:0:0:
368,267,141632,1,0,0:0:0:0:
405,242,141718,1,0,0:0:0:0:
427,204,141804,1,4,0:0:0:0:
310,45,141978,2,0,L|317:171,1,127,8|0,0:0|0:0,0:0:0:0:
199,213,142236,1,0,0:0:0:0:
174,232,142322,6,0,P|75:238|36:215,1,127,4|0,0:0|0:0,0:0:0:0:
121,132,142667,1,8,0:0:0:0:
355,230,142840,2,0,P|357:258|335:304,1,63.5,0|0,0:0|0:0,0:0:0:0:
219,384,143012,2,0,P|217:356|229:312,1,63.5,0|0,0:0|0:0,0:0:0:0:
262,245,143185,1,4,0:0:0:0:
273,217,143271,1,0,0:0:0:0:
287,188,143357,2,0,B|309:136|294:91|263:111|245:52|270:8,1,190.5,8|0,0:0|0:0,0:0:0:0:
352,42,143702,6,0,L|489:49,1,127,12|0,0:0|0:0,0:0:0:0:
355,230,144047,1,8,0:0:0:0:
211,142,144219,1,0,0:0:0:0:
184,159,144305,2,0,L|23:158,1,127,0|0,0:0|0:0,0:0:0:0:
30,176,144564,1,4,0:0:0:0:
54,292,144736,2,0,P|134:294|177:249,1,127,8|0,0:0|0:0,0:0:0:0:
286,261,144995,1,0,0:0:0:0:
312,278,145081,38,0,P|384:303|449:268,1,127,4|0,0:0|0:0,0:0:0:0:
501,121,145426,1,8,0:0:0:0:
338,185,145598,1,0,0:0:0:0:
321,157,145685,2,0,L|325:26,1,127,0|0,0:0|0:0,0:0:0:0:
298,12,145943,1,4,0:0:0:0:
189,83,146116,2,0,P|99:97|47:69,1,127,8|0,0:0|0:0,0:0:0:0:
48,181,146374,1,0,0:0:0:0:
32,208,146460,6,0,L|42:362,1,127,4|0,0:0|0:0,0:0:0:0:
151,292,146805,2,0,B|208:263|282:266|258:315|348:313|395:276,1,254,8|0,0:0|0:0,0:0:0:0:
320,205,147322,1,4,0:0:0:0:
206,372,147495,1,8,0:0:0:0:
389,384,147667,1,0,0:0:0:0:
415,364,147754,1,0,0:0:0:0:
440,345,147840,6,0,P|479:275|451:212,1,127,4|0,0:0|0:0,0:0:0:0:
323,105,148185,1,8,0:0:0:0:
225,164,148357,1,0,0:0:0:0:
192,193,148443,1,0,0:0:0:0:
150,206,148529,1,0,0:0:0:0:
106,200,148615,1,0,0:0:0:0:
70,173,148702,2,0,P|47:130|50:86,1,63.5,4|0,0:0|0:0,0:0:0:0:
216,58,148874,2,0,P|281:64|332:128,1,127,8|0,0:0|0:0,0:0:0:0:
295,231,149133,1,0,0:0:0:0:
267,266,149219,38,0,L|426:254,1,127,4|0,0:0|0:0,0:0:0:0:
271,368,149564,1,8,0:0:0:0:
176,303,149736,1,0,0:0:0:0:
151,283,149822,2,0,L|141:156,1,127,0|0,0:0|0:0,0:0:0:0:
115,136,150081,1,4,0:0:0:0:
62,299,150254,2,0,P|99:359|152:376,1,127,8|0,0:0|0:0,0:0:0:0:
263,294,150512,1,0,0:0:0:0:
291,279,150598,6,0,L|428:285,1,127,4|0,0:0|0:0,0:0:0:0:
512,384,150943,1,8,0:0:0:0:
464,216,151116,1,0,0:0:0:0:
440,194,151202,2,0,L|445:67,1,127,0|0,0:0|0:0,0:0:0:0:
433,37,151460,2,0,L|369:34,1,63.5,4|0,0:0|0:0,0:0:0:0:
243,87,151633,1,8,0:0:0:0:
202,103,151719,1,0,0:0:0:0:
158,108,151805,1,0,0:0:0:0:
114,99,151891,1,0,0:0:0:0:
75,78,151978,6,0,P|44:129|71:227,1,127,4|0,0:0|0:0,0:0:0:0:
194,288,152322,1,8,0:0:0:0:
270,228,152495,1,0,0:0:0:0:
297,211,152581,2,0,L|438:210,1,127,0|0,0:0|0:0,0:0:0:0:
448,188,152840,1,4,0:0:0:0:
291,114,153012,2,0,P|231:90|155:129,1,127,8|0,0:0|0:0,0:0:0:0:
68,193,153271,1,0,0:0:0:0:
46,216,153357,38,0,L|56:369,1,127,4|0,0:0|0:0,0:0:0:0:
215,248,153702,1,8,0:0:0:0:
246,346,153874,1,0,0:0:0:0:
287,361,153960,1,0,0:0:0:0:
331,361,154046,1,0,0:0:0:0:
372,345,154132,1,0,0:0:0:0:
405,315,154218,1,4,0:0:0:0:
338,159,154391,2,0,B|321:119|321:119|275:188|305:258,1,190.5,8|0,0:0|0:0,0:0:0:0:
421,206,154736,6,0,P|459:142|436:71,1,127,4|0,0:0|0:0,0:0:0:0:
385,35,154995,1,0,0:0:0:0:
357,19,155081,1,8,0:0:0:0:
202,111,155254,1,0,0:0:0:0:
183,136,155340,2,0,L|43:134,1,127,0|0,0:0|0:0,0:0:0:0:
33,156,155598,1,4,0:0:0:0:
99,272,155771,2,0,P|179:273|235:235,1,127,8|0,0:0|0:0,0:0:0:0:
311,164,156029,1,0,0:0:0:0:
333,141,156116,6,0,L|353:307,1,127,4|0,0:0|0:0,0:0:0:0:
433,109,156460,1,8,0:0:0:0:
299,56,156633,1,0,0:0:0:0:
269,44,156719,2,0,L|103:64,1,127,0|0,0:0|0:0,0:0:0:0:
115,42,156978,1,4,0:0:0:0:
69,166,157150,2,0,P|70:239|129:287,1,127,8|0,0:0|0:0,0:0:0:0:
247,276,157409,1,0,0:0:0:0:
275,263,157495,38,0,L|273:128,1,127,4|0,0:0|0:0,0:0:0:0:
161,202,157840,1,8,0:0:0:0:
187,79,158012,1,0,0:0:0:0:
218,48,158098,1,0,0:0:0:0:
260,33,158184,1,0,0:0:0:0:
304,37,158270,1,0,0:0:0:0:
342,59,158356,1,4,0:0:0:0:
447,143,158529,2,0,P|461:210|443:280,1,127,8|0,0:0|0:0,0:0:0:0:
355,318,158788,1,0,0:0:0:0:
324,308,158874,6,0,L|179:309,1,127,4|0,0:0|0:0,0:0:0:0:
220,185,159219,1,8,0:0:0:0:
48,195,159391,1,0,0:0:0:0:
29,154,159477,1,0,0:0:0:0:
28,110,159563,1,0,0:0:0:0:
44,69,159649,1,0,0:0:0:0:
76,39,159735,1,4,0:0:0:0:
221,80,159909,2,0,P|303:98|355:64,1,127,8|0,0:0|0:0,0:0:0:0:
454,42,160167,1,0,0:0:0:0:
476,19,160254,6,0,L|476:182,1,127,4|0,0:0|0:0,0:0:0:0:
433,328,160598,1,8,0:0:0:0:
350,271,160771,1,0,0:0:0:0:
324,251,160857,2,0,L|161:251,1,127,0|0,0:0|0:0,0:0:0:0:
171,231,161116,1,4,0:0:0:0:
233,126,161288,2,0,P|238:60|171:17,1,127,8|0,0:0|0:0,0:0:0:0:
55,96,161547,1,0,0:0:0:0:
37,122,161633,38,0,L|45:277,1,127,4|0,0:0|0:0,0:0:0:0:
83,384,161978,1,8,0:0:0:0:
132,251,162150,1,0,0:0:0:0:
171,231,162236,1,0,0:0:0:0:
215,224,162322,1,0,0:0:0:0:
259,230,162408,1,0,0:0:0:0:
297,245,162495,2,0,P|333:259|356:287,1,63.5,4|0,0:0|0:0,0:0:0:0:
278,331,162667,2,0,P|191:350|150:330,1,127,8|0,0:0|0:0,0:0:0:0:
171,231,162926,1,0,0:0:0:0:
187,204,163012,6,0,L|181:69,1,127,4|0,0:0|0:0,0:0:0:0:
60,26,163357,1,8,0:0:0:0:
206,4,163529,1,0,0:0:0:0:
250,1,163615,1,0,0:0:0:0:
291,16,163701,1,0,0:0:0:0:
323,46,163787,1,0,0:0:0:0:
341,86,163873,1,4,0:0:0:0:
312,180,164047,2,0,L|306:306,1,127,8|0,0:0|0:0,0:0:0:0:
434,336,164305,1,0,0:0:0:0:
462,322,164391,6,0,P|441:236|381:206,1,127,4|0,0:0|0:0,0:0:0:0:
260,337,164736,1,8,0:0:0:0:
162,308,164909,1,0,0:0:0:0:
123,287,164995,1,0,0:0:0:0:
98,250,165081,1,0,0:0:0:0:
93,207,165167,1,0,0:0:0:0:
108,165,165253,1,4,0:0:0:0:
201,148,165426,2,0,P|203:172|176:231,1,63.5,0|0,3:0|3:0,0:0:0:0:
75,84,165598,2,0,P|63:54|67:21,1,63.5,0|0,3:0|3:0,0:0:0:0:
249,19,165771,38,0,P|294:60|296:134,1,127,12|0,0:0|0:0,0:0:0:0:
274,302,166116,1,8,0:0:0:0:
357,208,166288,1,0,0:0:0:0:
398,219,166374,1,0,0:0:0:0:
433,245,166460,1,0,0:0:0:0:
456,283,166546,1,0,0:0:0:0:
465,326,166632,1,4,0:0:0:0:
355,318,166805,2,0,L|209:330,1,127,8|0,0:0|0:0,0:0:0:0:
116,286,167064,1,0,0:0:0:0:
93,263,167150,6,0,L|81:118,1,127,4|0,0:0|0:0,0:0:0:0:
179,1,167495,1,8,0:0:0:0:
259,63,167667,1,0,0:0:0:0:
287,77,167754,2,0,L|423:79,1,127,0|0,0:0|0:0,0:0:0:0:
435,101,168012,1,4,0:0:0:0:
312,210,168185,2,0,P|294:289|354:345,1,127,8|0,0:0|0:0,0:0:0:0:
466,329,168443,1,0,0:0:0:0:
484,303,168529,6,0,L|485:154,1,127,4|0,0:0|0:0,0:0:0:0:
365,74,168874,1,8,0:0:0:0:
312,210,169047,1,0,0:0:0:0:
295,236,169133,2,0,L|148:239,1,127,0|0,0:0|0:0,0:0:0:0:
149,264,169391,1,4,0:0:0:0:
61,146,169564,2,0,P|68:75|136:39,1,127,8|0,0:0|0:0,0:0:0:0:
216,41,169822,1,0,0:0:0:0:
243,56,169909,38,0,L|400:47,1,127,4|0,0:0|0:0,0:0:0:0:
500,148,170254,1,8,0:0:0:0:
374,153,170426,1,0,0:0:0:0:
345,186,170512,1,0,0:0:0:0:
335,229,170598,1,0,0:0:0:0:
348,271,170684,1,0,0:0:0:0:
376,304,170771,2,0,P|414:327|440:331,1,63.5,4|0,0:0|0:0,0:0:0:0:
281,358,170943,2,0,P|203:370|136:340,1,127,8|0,0:0|0:0,0:0:0:0:
87,255,171202,1,0,0:0:0:0:
101,227,171288,6,0,L|96:78,1,127,4|0,0:0|0:0,0:0:0:0:
227,0,171633,1,8,0:0:0:0:
287,90,171805,1,0,0:0:0:0:
306,115,171891,2,0,L|455:110,1,127,0|0,0:0|0:0,0:0:0:0:
455,133,172150,1,4,0:0:0:0:
314,218,172322,2,0,P|252:211|212:162,1,127,8|0,0:0|0:0,0:0:0:0:
193,26,172581,1,0,0:0:0:0:
163,37,172667,6,0,L|22:36,1,127,4|0,0:0|0:0,0:0:0:0:
0,169,173012,1,8,0:0:0:0:
104,200,173185,1,0,0:0:0:0:
104,200,173271,1,0,0:0:0:0:
104,200,173357,2,0,L|103:282,1,63.5,0|0,0:0|0:0,0:0:0:0:
21,362,173529,2,0,L|22:280,1,63.5,4|0,0:0|0:0,0:0:0:0:
136,343,173702,1,8,0:0:0:0:
178,355,173788,1,0,0:0:0:0:
222,348,173874,1,0,0:0:0:0:
258,324,173960,1,0,0:0:0:0:
275,285,174047,38,0,P|271:244|260:224,1,63.5,4|4,0:0|0:0,0:0:0:0:
260,224,175426,2,0,P|230:195|209:186,1,63.5,4|4,0:0|0:0,0:0:0:0:
122,145,176460,6,0,B|77:122|77:122|158:80|246:107,1,190.5,8|0,0:0|0:0,0:0:0:0:
304,123,176805,6,0,P|355:128|401:4,1,203.2,2|0,0:0|0:0,0:0:0:0:
403,8,178874,2,0,P|385:63|390:83,1,76.2,2|0,0:0|0:0,0:0:0:0:
388,79,179564,38,0,B|414:132|411:168|386:194|366:207|366:207|391:221|414:253|410:303,1,254,2|0,0:0|0:0,0:0:0:0:
410,301,181633,2,0,P|378:301|333:281,1,76.2,2|0,0:0|0:0,0:0:0:0:
337,284,182322,6,0,B|272:265|211:284|197:345|127:345|66:311,1,279.4,2|0,0:0|0:0,0:0:0:0:
71,313,184391,2,0,P|65:274|82:233,1,76.2,2|0,0:0|0:0,0:0:0:0:
76,240,185081,6,0,P|103:193|82:67,1,177.8,2|0,0:0|0:0,0:0:0:0:
87,74,186460,38,0,L|171:76,1,76.2,2|0,0:0|0:0,0:0:0:0:
163,75,187150,2,0,L|163:101,1,25.4,2|0,0:0|0:0,0:0:0:0:
158,176,187495,2,0,L|157:201,1,25.4,2|0,0:0|0:0,0:0:0:0:
300,320,187840,6,0,P|360:292|358:190,1,177.8,10|0,0:0|0:0,0:0:0:0:
359,191,189219,2,0,P|314:222|304:242,1,76.2,2|0,0:0|0:0,0:0:0:0:
304,240,189909,2,0,P|284:207|252:188,1,76.2,2|0,0:0|0:0,0:0:0:0:
252,188,190598,6,0,B|205:160|166:161|166:161|191:147|226:124|287:164|350:131,1,279.4,2|0,0:0|0:0,0:0:0:0:
348,131,192667,2,0,L|383:122,1,25.4,2|0,0:0|0:0,0:0:0:0:
451,122,193012,2,0,L|475:128,1,25.4,2|0,0:0|0:0,0:0:0:0:
491,200,193357,38,0,P|490:232|371:280,1,177.8,2|0,0:0|0:0,0:0:0:0:
374,282,194736,2,0,P|335:276|291:291,1,76.2,2|0,0:0|0:0,0:0:0:0:
300,285,195426,2,0,L|269:299,1,25.4,2|0,0:0|0:0,0:0:0:0:
207,276,195771,2,0,L|183:265,1,25.4,2|0,0:0|0:0,0:0:0:0:
107,230,196116,6,0,P|77:135|136:96,1,177.8,2|0,0:0|0:0,0:0:0:0:
129,96,197495,6,0,P|148:144|140:168,1,76.2,2|0,0:0|0:0,0:0:0:0:
141,165,198185,1,2,0:0:0:0:
216,207,198357,2,0,B|241:212|241:212|274:205,1,50.8,0|0,0:0|0:0,0:0:0:0:
265,206,198874,38,0,L|294:195,2,25.4,6|0|0,0:0|0:0|0:0,0:0:0:0:
257,117,199391,6,0,P|293:113|360:241,1,203.2,0|0,0:0|0:0,0:0:0:0:
361,237,200943,1,2,0:0:0:0:
295,324,201116,2,0,B|269:333|269:333|243:327,1,50.8,0|0,0:0|0:0,0:0:0:0:
246,327,201633,6,0,B|48:296|48:296|134:278|134:278,1,279.4,2|0,0:0|0:0,0:0:0:0:
124,279,203702,1,2,0:0:0:0:
178,207,203874,2,0,B|176:177|176:177|163:152,1,50.8,0|0,0:0|0:0,0:0:0:0:
166,158,204391,38,0,P|160:140|168:103,1,50.8,2|0,0:0|0:0,0:0:0:0:
164,109,204909,2,0,P|170:90|162:53,1,50.8,0|0,0:0|0:0,0:0:0:0:
166,60,205426,6,0,P|138:29|54:41,1,127,0|0,0:0|0:0,0:0:0:0:
59,36,206460,1,2,0:0:0:0:
60,132,206633,2,0,B|55:152|55:152|59:180,1,38.1,0|0,0:0|0:0,0:0:0:0:
57,192,207150,6,0,B|112:210|112:210|168:192|168:192|232:209,1,177.8,2|0,0:0|0:0,0:0:0:0:
227,207,208529,38,0,L|304:228,1,76.2,2|0,0:0|0:0,0:0:0:0:
300,227,209219,6,0,P|341:233|352:231,1,38.0999988372803,2|0,2:0|2:0,2:0:0:0:
342,140,209564,2,0,P|298:137|271:149,1,50.8,2|0,2:0|2:0,2:0:0:0:
121,190,209909,6,0,P|101:155|145:67,1,127,12|0,0:0|0:0,0:0:0:0:
206,39,210426,1,0,0:0:0:0:
212,223,210598,2,0,L|206:302,2,63.5,0|4|0,0:0|0:0|0:0,0:0:0:0:
302,154,211116,1,0,0:0:0:0:
353,230,211288,38,0,P|390:179|386:117,1,127,2|2,0:0|0:0,0:0:0:0:
216,159,211805,2,0,L|212:223,1,63.5,2|0,0:0|0:0,0:0:0:0:
146,41,212150,1,4,0:0:0:0:
146,41,212667,6,0,P|178:67|192:109,1,63.5,4|0,0:0|0:0,0:0:0:0:
125,176,213012,1,0,0:0:0:0:
125,176,213098,1,0,0:0:0:0:
125,176,213185,2,0,L|88:180,2,31.75,0|0|0,0:0|0:0|0:0,0:0:0:0:
342,253,213529,1,4,0:0:0:0:
342,253,214047,6,0,P|305:294|174:256,1,190.5,4|0,0:0|0:0,0:0:0:0:
88,206,214736,2,0,B|81:241|81:241|93:279,1,63.5,2|4,0:0|0:0,0:0:0:0:
159,156,215081,2,0,B|166:121|166:121|154:83,1,63.5,2|0,0:0|0:0,0:0:0:0:
0,49,215426,38,0,B|48:35|48:35|114:48,1,95.2500036334993,4|0,0:0|0:0,0:0:0:0:
250,89,215771,2,0,B|202:103|202:103|136:90,1,95.2500036334993,4|0,0:0|0:0,0:0:0:0:
327,43,216116,2,0,B|341:91|341:91|328:157,1,107.950002058983,4|0,0:0|0:0,0:0:0:0:
257,284,216460,2,0,B|243:236|243:236|256:170,1,107.950002058983,4|0,0:0|0:0,0:0:0:0:
369,227,216805,6,0,B|390:216|390:216|496:233,1,120.649996778298,4|0,0:0|0:0,0:0:0:0:
455,345,217150,2,0,B|434:356|434:356|328:339,1,120.649996778298,4|0,0:0|0:0,0:0:0:0:
254,179,217495,1,4,0:0:0:0:
147,334,217667,1,4,0:0:0:0:
82,133,217840,5,4,0:0:0:0:
108,96,217926,1,4,0:0:0:0:
151,109,218012,1,4,0:0:0:0:
153,154,218098,1,4,0:0:0:0:
110,169,218185,1,4,0:0:0:0:
256,192,218271,12,0,220254,0:0:0:0:
293,170,220426,38,0,P|216:206|298:183,1,254,0|0,0:0|0:0,0:0:0:0:
256,192,220943,6,0,B|294:182|329:196|329:196|328:134|369:61|467:41|532:90,1,323.850006176949,4|0,0:0|0:0,0:0:0:0:
459,195,221288,6,0,B|451:225|451:225|434:240|434:240|463:295|424:360|342:350,1,203.2,0|0,0:0|0:0,0:0:0:0:
277,322,221719,38,0,B|205:334|205:334|157:318|157:318|117:342|74:336|74:336|98:332|137:304,1,254,0|0,0:0|0:0,0:0:0:0:
300,237,221978,6,0,P|376:312|370:358,1,152.4,0|0,0:0|0:0,0:0:0:0:
168,234,222322,6,0,B|171:169|171:169|150:128|150:128|154:30,1,190.500007266999,0|0,0:0|0:0,0:0:0:0:
370,28,222581,38,0,B|328:29|309:45|309:45|282:30|249:34,1,127,0|0,0:0|0:0,0:0:0:0:
52,12,222754,1,0,0:0:0:0:
52,12,222840,6,0,L|66:114,1,76.1999976745606,0|0,0:0|0:0,0:0:0:0:
86,247,223185,5,4,0:0:0:0:
76,212,223271,1,4,0:0:0:0:
86,176,223357,38,0,B|136:202|206:215|280:131|280:131|209:158|161:114|148:86|148:35,1,381,8|0,0:0|0:0,0:0:0:0:
240,49,223702,6,0,B|342:26|376:138|376:138|341:199|341:199|377:239|344:318,1,323.850006176949,4|0,0:0|0:0,0:0:0:0:
226,370,224047,6,0,P|219:296|287:250,1,152.4,8|0,0:0|0:0,0:0:0:0:
512,271,224391,38,0,P|478:302|396:288,1,107.950002058983,0|0,0:0|0:0,0:0:0:0:
341,199,224564,6,0,P|371:206|396:225,1,63.5,4|0,0:0|0:0,0:0:0:0:
474,131,224736,5,8,3:2:0:0:
494,105,224822,1,0,3:2:0:0:
429,58,224909,37,0,3:2:0:0:
409,32,224995,1,0,3:2:0:0:
315,58,225081,5,4,0:0:0:0:
283,60,225167,1,0,0:0:0:0:
250,61,225254,1,0,0:0:0:0:
218,62,225340,1,4,0:0:0:0:
135,62,225426,6,0,B|-4:63|-4:63|41:95,1,190.500007266999,8|4,0:0|0:0,0:0:0:0:
114,174,225685,1,0,0:0:0:0:
133,198,225771,38,0,P|144:238|133:287,1,63.5,0|0,0:0|0:0,0:0:0:0:
40,326,225943,2,0,P|39:294|49:264,1,63.5,4|0,0:0|0:0,0:0:0:0:
210,316,226116,1,8,0:0:0:0:
142,374,226202,2,0,P|123:291|168:241,1,127,0|0,0:0|0:0,0:0:0:0:
307,199,226460,6,0,B|337:172|405:123|488:173|508:201|508:201|447:191|415:226,1,323.850006176949,4|0,0:0|0:0,0:0:0:0:
222,237,226805,6,0,B|197:161|259:121|259:121|209:77|209:77|178:95|167:113,1,254,8|0,0:0|0:0,0:0:0:0:
139,268,227322,38,0,P|160:302|209:320,1,82.5499962211611,4|0,0:0|0:0,0:0:0:0:
301,291,227495,37,8,0:0:0:0:
307,199,227610,1,0,0:0:0:0:
222,237,227725,1,0,0:0:0:0:
301,291,227840,38,0,B|486:295|486:295|443:288|415:264,1,247.649988663483,4|4,0:0|0:0,0:0:0:0:
394,180,228185,37,8,0:0:0:0:
464,117,228299,1,0,0:0:0:0:
488,206,228414,1,0,0:0:0:0:
394,180,228529,6,0,B|355:133|376:82|376:82|321:77|291:44,1,190.500007266999,0|4,0:0|0:0,0:0:0:0:
202,22,228788,1,0,0:0:0:0:
202,22,228874,6,0,B|190:66|213:109|213:109|122:36|30:140,1,247.649988663483,8|0,0:0|0:0,0:0:0:0:
83,269,229219,6,0,B|96:318|96:318|47:368|47:368|-20:308|-15:229|42:188,1,323.850006176949,4|0,0:0|0:0,0:0:0:0:
196,297,229564,37,8,0:0:0:0:
226,266,229650,1,0,0:0:0:0:
242,311,229736,1,0,0:0:0:0:
270,295,229822,1,0,0:0:0:0:
283,337,229909,5,0,0:0:0:0:
303,331,229995,1,0,0:0:0:0:
308,367,230081,1,4,0:0:0:0:
318,367,230167,1,0,0:0:0:0:
329,371,230254,6,0,P|374:379|412:363,1,63.5,8|0,0:0|0:0,0:0:0:0:
501,305,230426,2,0,P|456:297|418:313,1,63.5,0|0,0:0|0:0,0:0:0:0:
360,221,230598,2,0,P|349:257|363:301,1,63.5,4|0,0:0|0:0,0:0:0:0:
448,178,230771,38,0,B|464:126|464:126|441:57,1,95.2500036334993,0|4,0:0|0:0,0:0:0:0:
325,53,230943,37,8,0:0:0:0:
284,135,231058,1,0,0:0:0:0:
372,131,231173,1,0,0:0:0:0:
286,39,231288,5,0,0:0:0:0:
268,129,231403,1,0,0:0:0:0:
352,103,231518,1,0,0:0:0:0:
249,33,231633,5,8,0:0:0:0:
216,32,231719,1,0,0:0:0:0:
185,40,231805,1,0,0:0:0:0:
158,57,231891,1,0,0:0:0:0:
134,70,231978,6,0,B|92:122|92:122|119:193|119:193|105:228|85:276|85:276|76:222|35:193,1,323.850006176949,4|0,0:0|0:0,0:0:0:0:
3,278,232322,6,0,P|30:339|126:347,1,152.4,8|0,0:0|0:0,0:0:0:0:
186,342,232667,38,0,L|276:340,1,63.5
372,276,232840,2,0,L|282:274,1,63.5,4|0,0:0|0:0,0:0:0:0:
158,246,233012,2,0,L|248:244,1,63.5,8|0,0:0|0:0,0:0:0:0:
364,183,233185,2,0,L|274:181,1,63.5,0|0,0:0|0:0,0:0:0:0:
81,128,233357,6,0,B|121:135|158:102|158:102|208:118|237:107,1,165.099992442322,4|0,0:0|0:0,0:0:0:0:
219,27,233616,1,0,0:0:0:0:
219,27,233702,6,0,P|318:91|290:169,1,190.500007266999,8|4,0:0|0:0,0:0:0:0:
199,232,233960,1,0,0:0:0:0:
199,232,234047,38,0,B|236:222|236:222|302:270|376:223,1,165.099992442322,0|4,0:0|0:0,0:0:0:0:
246,336,234391,5,8,3:2:0:0:
212,352,234478,1,0,3:2:0:0:
142,310,234564,5,0,3:2:0:0:
108,294,234651,1,0,3:2:0:0:
33,358,234736,38,0,B|32:293|6:274|6:274|56:208|28:114|28:114|44:144|85:153,1,323.850006176949,4|0,0:0|0:0,0:0:0:0:
102,68,235081,6,0,B|227:70|227:70|173:110,1,152.4,8|0,0:0|0:0,0:0:0:0:
158,175,235426,6,0,B|145:222|145:222|167:290,1,107.950002058983,0|0,0:0|0:0,0:0:0:0:
249,384,235598,38,0,B|258:350|258:350|247:280,1,63.5,4|0,0:0|0:0,0:0:0:0:
310,160,235771,5,8,3:2:0:0:
341,149,235857,1,0,3:2:0:0:
393,97,235943,5,0,3:2:0:0:
428,90,236029,1,0,3:2:0:0:
489,149,236116,38,0,B|500:185|500:185|497:257,1,63.5,4|0,0:0|0:0,0:0:0:0:
390,347,236288,1,0,0:0:0:0:
356,332,236374,1,4,0:0:0:0:
340,299,236460,2,0,B|329:263|329:263|332:191,1,63.5,8|0,0:0|0:0,0:0:0:0:
223,87,236633,1,4,0:0:0:0:
197,107,236719,1,0,0:0:0:0:
184,139,236805,6,0,B|196:191|196:191|187:244|187:244|204:327,1,165.099992442322,0|4,0:0|0:0,0:0:0:0:
0,94,237064,1,0,0:0:0:0:
0,94,237150,2,0,B|62:13|156:37|156:37|118:62|117:112,1,247.649988663483,8|0,0:0|0:0,0:0:0:0:
48,264,237495,6,0,B|84:260|117:292|117:292|164:264|164:264|213:303|287:314|357:248,1,323.850006176949,4|0,0:0|0:0,0:0:0:0:
422,142,237840,38,0,B|394:170|369:175|369:175|423:197|450:248|439:307|390:343,1,254,8|0,0:0|0:0,0:0:0:0:
325,370,238357,6,0,B|280:377|280:377|199:365,1,82.5499962211611,4|0,0:0|0:0,0:0:0:0:
179,279,238529,21,8,0:0:0:0:
242,206,238644,1,0,0:0:0:0:
278,297,238759,1,0,0:0:0:0:
179,279,238874,54,0,B|57:328|19:237|19:237|67:252|126:216,1,247.649988663483,4|4,0:0|0:0,0:0:0:0:
144,124,239219,21,8,0:0:0:0:
69,68,239334,1,0,0:0:0:0:
53,159,239449,1,0,0:0:0:0:
144,124,239564,6,0,B|227:73|276:140|276:140|253:125|205:133,1,190.500007266999,0|4,0:0|0:0,0:0:0:0:
179,279,239822,1,0,0:0:0:0:
179,279,239909,6,0,B|225:321|278:334|364:299|364:299|327:290|290:250,1,247.649988663483,8|0,0:0|0:0,0:0:0:0:
391,207,240254,6,0,B|428:147|428:147|436:60|436:60|362:33|362:33|368:74|341:108,1,285.750010900498,4|0,0:0|0:0,0:0:0:0:
183,39,240598,37,8,0:0:0:0:
181,77,240685,1,0,0:0:0:0:
134,77,240771,1,0,0:0:0:0:
140,105,240858,1,0,0:0:0:0:
97,117,240943,5,0,0:0:0:0:
105,134,241030,1,0,0:0:0:0:
73,173,241116,1,4,0:0:0:0:
79,180,241203,1,0,0:0:0:0:
86,190,241288,6,0,P|80:225|91:272,1,63.5,8|0,0:0|0:0,0:0:0:0:
150,363,241460,2,0,P|156:328|145:281,1,63.5,0|0,0:0|0:0,0:0:0:0:
238,213,241633,2,0,P|203:207|156:218,1,63.5,4|0,0:0|0:0,0:0:0:0:
286,291,241805,38,0,B|342:303|342:303|415:282,1,107.950002058983,0|4,0:0|0:0,0:0:0:0:
451,197,241978,37,8,0:0:0:0:
391,122,242093,1,0,0:0:0:0:
359,211,242208,1,0,0:0:0:0:
460,158,242322,5,0,0:0:0:0:
382,101,242437,1,0,0:0:0:0:
374,195,242552,1,0,0:0:0:0:
470,121,242667,5,8,0:0:0:0:
464,89,242753,1,0,0:0:0:0:
450,60,242839,1,0,0:0:0:0:
428,36,242925,1,0,0:0:0:0:
391,20,243012,6,0,B|306:66|259:12|259:12|261:70|196:120|196:120|266:84|303:109,1,381,4|0,0:0|0:0,0:0:0:0:
258,190,243357,6,0,B|242:227|242:227|265:319|265:319|253:370,1,158.75,0|0,0:0|0:0,0:0:0:0:
70,314,243874,38,0,B|121:325|121:325|187:306,1,95.2500036334993,0|0,0:0|0:0,0:0:0:0:
258,190,244047,6,0,B|222:180|222:180|118:182|118:182|176:206,1,190.5,0|0,0:0|0:0,0:0:0:0:
344,280,244391,6,0,L|375:281,1,31.75,0|0,0:0|0:0,0:0:0:0:
354,176,244564,38,0,B|353:129|337:94|337:94|351:65|356:14|356:14|395:35|446:34|446:34|409:60,1,285.750010900498,0|0,0:0|0:0,0:0:0:0:
252,102,244909,6,0,P|216:99|183:107,1,47.6250018167496,0|0,0:0|0:0,0:0:0:0:
119,229,245081,2,0,B|157:254|157:254|207:258,1,95.2500036334993,0|0,0:0|0:0,0:0:0:0:
381,120,245426,5,8,0:0:0:0:
407,163,245512,1,8,0:0:0:0:
423,210,245598,1,8,0:0:0:0:
425,261,245685,1,8,0:0:0:0:
410,303,245771,38,0,B|389:351|373:371|373:371|316:317|316:317|362:271|359:217|338:178|307:153,1,323.850006176949,4|0,0:0|0:0,0:0:0:0:
259,239,246116,6,0,B|223:259|223:259|164:258|164:258|120:230,1,152.4,8|0,0:0|0:0,0:0:0:0:
99,150,246460,6,0,P|38:202|45:273,1,107.950002058983,0|0,0:0|0:0,0:0:0:0:
85,361,246633,38,0,L|85:282,1,63.5,0|0,0:0|0:0,0:0:0:0:
216,128,246805,5,8,0:0:0:0:
258,102,246891,1,0,0:0:0:0:
304,75,246978,6,0,B|346:68|346:68|383:80|383:80|446:76,1,114.299996511841,0|0,0:0|0:0,0:0:0:0:
339,177,247150,38,0,B|347:227|328:251|328:251|356:283|350:329,1,158.75,4|0,0:0|0:0,0:0:0:0:
111,316,247322,2,0,B|151:299|151:299|192:299|192:299|226:317|265:311,1,158.75,0|4,0:0|0:0,0:0:0:0:
446,305,247495,6,0,B|448:269|448:269|441:242,1,63.5,8|0,0:0|0:0,0:0:0:0:
386,136,247667,1,4,0:0:0:0:
353,151,247754,1,0,0:0:0:0:
339,176,247840,2,0,B|312:193|312:193|278:195,1,63.5,0|0,0:0|0:0,0:0:0:0:
113,224,248012,2,0,B|140:207|140:207|173:205,1,63.5,4|0,0:0|0:0,0:0:0:0:
247,100,248185,6,0,B|193:72|193:72|107:71|107:71|59:103|-17:114|-17:114|39:110|81:133,1,381,8|0,0:0|0:0,0:0:0:0:
306,280,248529,38,0,B|349:310|411:321|475:305|505:274|505:274|460:242|386:263,1,323.850006176949,4|0,0:0|0:0,0:0:0:0:
176,273,248874,6,0,P|108:274|197:327,1,254,8|0,0:0|0:0,0:0:0:0:
237,213,249391,6,0,B|244:168|244:168|231:105,1,82.5499962211611,4|0,0:0|0:0,0:0:0:0:
190,57,249564,5,8,0:0:0:0:
98,34,249679,1,0,0:0:0:0:
126,123,249794,1,0,0:0:0:0:
190,57,249909,22,0,B|252:9|341:26|386:62|386:62|356:57|305:84,1,247.649988663483,4|4,0:0|0:0,0:0:0:0:
264,150,250254,53,8,0:0:0:0:
319,222,250368,1,0,0:0:0:0:
363,141,250483,1,0,0:0:0:0:
264,150,250598,22,0,B|217:191|216:234|216:234|178:195|97:207,1,190.500007266999,0|4,0:0|0:0,0:0:0:0:
149,298,250857,1,0,0:0:0:0:
69,267,250943,6,0,B|21:213|50:151|87:128|87:128|64:98|64:98|62:47,1,247.649988663483,8|0,0:0|0:0,0:0:0:0:
161,23,251288,38,0,B|228:-2|383:6|404:28|404:28|355:27|305:58,1,323.850006176949,4|0,0:0|0:0,0:0:0:0:
225,172,251633,5,8,0:0:0:0:
237,213,251719,1,0,0:0:0:0:
188,209,251805,1,0,0:0:0:0:
205,235,251891,1,0,0:0:0:0:
162,251,251978,5,0,0:0:0:0:
177,265,252064,1,0,0:0:0:0:
149,298,252150,1,4,0:0:0:0:
154,307,252236,1,0,0:0:0:0:
160,317,252322,38,0,P|213:328|261:322,1,63.5,8|0,0:0|0:0,0:0:0:0:
354,260,252495,2,0,P|301:249|253:255,1,63.5,0|0,0:0|0:0,0:0:0:0:
365,357,252667,2,0,P|418:368|466:362,1,63.5,4|0,0:0|0:0,0:0:0:0:
461,197,252840,6,0,B|470:139|470:139|449:61,1,107.950002058983,0|4,0:0|0:0,0:0:0:0:
372,63,253012,21,8,0:0:0:0:
275,90,253127,1,0,0:0:0:0:
346,157,253242,1,0,0:0:0:0:
334,37,253357,5,0,0:0:0:0:
247,88,253472,1,0,0:0:0:0:
333,134,253587,1,0,0:0:0:0:
220,88,253702,5,8,0:0:0:0:
188,94,253788,1,0,0:0:0:0:
158,107,253874,1,0,0:0:0:0:
133,127,253960,1,0,0:0:0:0:
111,157,254047,6,0,B|45:240|69:329|129:358|129:358|98:305|130:231,1,323.850006176949,4|0,0:0|0:0,0:0:0:0:
203,303,254391,6,0,B|254:308|254:308|302:301|302:301|389:311,1,152.4,8|0,0:0|0:0,0:0:0:0:
373,161,254736,38,0,L|377:243,1,63.5,0|0,0:0|0:0,0:0:0:0:
351,370,254909,2,0,L|354:306,1,63.5,4|0,0:0|0:0,0:0:0:0:
282,161,255081,2,0,L|278:224,1,63.5,8|0,0:0|0:0,0:0:0:0:
252,371,255254,2,0,L|248:307,1,63.5,0|0,0:0|0:0,0:0:0:0:
119,138,255426,6,0,B|84:109|84:109|141:85|233:108,1,165.099992442322,4|0,0:0|0:0,0:0:0:0:
282,161,255685,1,0,0:0:0:0:
282,161,255771,6,0,B|327:121|316:72|316:72|378:93|433:46,1,190.500007266999,8|0,0:0|0:0,0:0:0:0:
393,166,256029,1,0,0:0:0:0:
393,166,256116,38,0,B|403:293|403:293|366:241,1,165.099992442322,0|4,0:0|0:0,0:0:0:0:
226,269,256460,5,8,3:2:0:0:
196,293,256547,1,0,3:2:0:0:
117,338,256633,5,0,3:2:0:0:
87,314,256720,1,0,3:2:0:0:
52,222,256805,38,0,B|54:174|54:174|27:135|27:135|94:104|146:115|120:156|189:166|304:109,1,323.850006176949,4|0,0:0|0:0,0:0:0:0:
277,47,257150,6,0,P|335:104|305:202,1,152.4,8|0,0:0|0:0,0:0:0:0:
281,337,257495,6,0,B|285:278|285:278|265:233,1,107.950002058983,0|0,0:0|0:0,0:0:0:0:
134,288,257667,38,0,B|170:297|170:297|231:286,1,63.5,0|0,0:0|0:0,0:0:0:0:
378,302,257840,5,8,3:2:0:0:
400,269,257926,1,0,3:2:0:0:
352,203,258012,5,0,3:2:0:0:
330,170,258098,1,0,3:2:0:0:
379,98,258185,38,0,B|390:63|390:63|382:13,1,63.5,4|0,0:0|0:0,0:0:0:0:
171,78,258357,1,0,0:0:0:0:
149,106,258443,1,4,0:0:0:0:
125,138,258529,2,0,B|114:175|114:175|123:230,1,63.5,8|0,0:0|0:0,0:0:0:0:
200,323,258702,1,4,0:0:0:0:
196,281,258788,1,0,0:0:0:0:
222,253,258874,6,0,B|284:253|284:253|325:238|325:238|354:268|402:270,1,165.099992442322,0|4,0:0|0:0,0:0:0:0:
338,110,259133,1,0,0:0:0:0:
338,110,259219,2,0,B|257:18|151:62|151:62|176:70|197:97,1,247.649988663483,8|0,0:0|0:0,0:0:0:0:
387,192,259564,6,0,B|411:173|424:163|435:124|435:124|401:379,1,323.850006176949,4|0,0:0|0:0,0:0:0:0:
277,343,259909,38,0,B|213:368|131:358|182:306|91:308|24:332,1,254,8|0,0:0|0:0,0:0:0:0:
67,244,260426,6,0,B|57:205|57:205|70:141,1,63.5,4|0,0:0|0:0,0:0:0:0:
132,92,260598,21,8,0:0:0:0:
222,129,260713,1,0,0:0:0:0:
147,188,260828,1,0,0:0:0:0:
132,92,260943,54,0,B|156:49|156:49|329:46,1,190.5,4|4,0:0|0:0,0:0:0:0:
393,36,261288,21,8,0:0:0:0:
441,118,261403,1,0,0:0:0:0:
349,119,261518,1,0,0:0:0:0:
393,36,261633,6,0,B|426:36|426:36|399:108|399:108|416:207,1,190.500007266999,0|4,0:0|0:0,0:0:0:0:
487,308,261891,1,0,0:0:0:0:
487,308,261978,6,0,B|429:332|429:332|376:293|376:293|322:338|243:306,1,247.649988663483,8|0,0:0|0:0,0:0:0:0:
104,257,262322,6,0,B|70:264|50:250|50:250|35:281|10:294|10:294|60:377|184:375|199:260,1,323.850006176949,4|0,0:0|0:0,0:0:0:0:
180,147,262667,37,8,0:0:0:0:
177,103,262754,1,0,0:0:0:0:
215,127,262840,1,0,0:0:0:0:
220,94,262927,1,0,0:0:0:0:
256,115,263012,5,0,0:0:0:0:
265,95,263099,1,0,0:0:0:0:
294,116,263185,1,4,0:0:0:0:
303,110,263272,1,0,0:0:0:0:
313,103,263357,6,0,P|344:111|376:112,1,63.5,8|0,0:0|0:0,0:0:0:0:
477,34,263529,2,0,P|446:26|414:25,1,63.5,0|0,0:0|0:0,0:0:0:0:
484,130,263702,2,0,L|475:192,1,63.5,4|0,0:0|0:0,0:0:0:0:
387,257,263874,38,0,B|334:281|334:281|208:265,1,107.950002058983,0|4,0:0|0:0,0:0:0:0:
146,245,264047,37,8,0:0:0:0:
150,134,264162,1,0,0:0:0:0:
247,193,264276,1,0,0:0:0:0:
136,214,264391,5,0,0:0:0:0:
168,108,264506,1,0,0:0:0:0:
247,190,264621,1,0,0:0:0:0:
127,182,264736,53,8,0:0:0:0:
189,83,264851,2,0,B|251:98|251:98|304:79|304:79|393:93,1,169.333333333333,0|0,0:0|0:0,0:0:0:0:
448,158,265081,22,0,P|441:251|385:288,1,127,12|0,0:0|0:0,0:0:0:0:
329,153,265426,1,8,0:0:0:0:
247,190,265598,1,0,0:0:0:0:
222,210,265685,2,0,L|223:351,1,127,0|0,0:0|0:0,0:0:0:0:
203,361,265943,1,4,0:0:0:0:
111,202,266116,2,0,P|144:134|208:113,1,127,8|0,0:0|0:0,0:0:0:0:
327,107,266374,1,0,0:0:0:0:
358,108,266460,6,0,L|495:111,1,127,4|0,0:0|0:0,0:0:0:0:
322,210,266805,1,8,0:0:0:0:
212,142,266978,1,0,0:0:0:0:
168,151,267064,1,0,0:0:0:0:
131,176,267150,1,0,0:0:0:0:
106,211,267236,1,0,0:0:0:0:
96,256,267322,2,0,P|95:296|108:330,1,63.5,4|0,0:0|0:0,0:0:0:0:
221,268,267495,2,0,L|210:122,1,127,8|0,0:0|0:0,0:0:0:0:
304,55,267754,1,0,0:0:0:0:
329,73,267840,6,0,L|470:74,1,127,4|0,0:0|0:0,0:0:0:0:
501,244,268185,1,8,0:0:0:0:
399,310,268357,1,0,0:0:0:0:
370,323,268443,2,0,L|223:321,1,127,0|0,0:0|0:0,0:0:0:0:
215,337,268702,1,4,0:0:0:0:
331,189,268874,2,0,P|351:129|318:62,1,127,8|0,0:0|0:0,0:0:0:0:
214,27,269133,1,0,0:0:0:0:
189,46,269219,38,0,P|120:66|42:45,1,127,4|0,0:0|0:0,0:0:0:0:
46,213,269564,1,8,0:0:0:0:
162,194,269736,1,0,0:0:0:0:
188,175,269822,2,0,L|331:182,1,127,0|0,0:0|0:0,0:0:0:0:
340,161,270081,1,4,0:0:0:0:
146,286,270254,2,0,P|84:250|73:181,1,127,8|0,0:0|0:0,0:0:0:0:
170,95,270512,1,0,0:0:0:0:
197,79,270598,6,0,L|340:86,1,127,4|0,0:0|0:0,0:0:0:0:
471,67,270943,1,8,0:0:0:0:
484,177,271116,1,0,0:0:0:0:
496,218,271202,1,0,0:0:0:0:
491,262,271288,1,0,0:0:0:0:
468,300,271374,1,0,0:0:0:0:
432,325,271460,1,4,0:0:0:0:
327,231,271633,2,0,L|317:69,1,127,8|0,0:0|0:0,0:0:0:0:
180,51,271891,1,0,0:0:0:0:
151,65,271978,6,0,P|100:108|105:207,1,127,4|0,0:0|0:0,0:0:0:0:
146,302,272322,1,8,0:0:0:0:
241,242,272495,1,0,0:0:0:0:
283,228,272581,1,0,0:0:0:0:
327,231,272667,1,0,0:0:0:0:
367,251,272753,1,0,0:0:0:0:
396,283,272839,1,4,0:0:0:0:
292,342,273012,2,0,P|215:352|157:318,1,127,8|0,0:0|0:0,0:0:0:0:
137,218,273271,1,0,0:0:0:0:
155,191,273357,38,0,L|149:28,1,127,4|0,0:0|0:0,0:0:0:0:
59,218,273702,1,8,0:0:0:0:
241,242,273874,1,0,0:0:0:0:
283,228,273960,1,0,0:0:0:0:
316,200,274046,1,0,0:0:0:0:
339,162,274132,1,0,0:0:0:0:
346,119,274218,1,4,0:0:0:0:
274,31,274391,2,0,P|233:98|249:162,1,127,8|0,0:0|0:0,0:0:0:0:
363,271,274650,1,0,0:0:0:0:
390,255,274736,6,0,P|495:269|522:318,1,127,4|0,0:0|0:0,0:0:0:0:
309,354,275081,1,8,0:0:0:0:
186,311,275254,1,0,0:0:0:0:
150,284,275340,1,0,0:0:0:0:
131,245,275426,1,0,0:0:0:0:
133,201,275512,1,0,0:0:0:0:
156,163,275598,1,4,0:0:0:0:
247,234,275771,2,0,B|342:199|389:253|389:253|368:252|342:261,1,190.5,8|0,0:0|0:0,0:0:0:0:
382,340,276116,6,0,P|453:323|479:235,1,127,12|0,0:0|0:0,0:0:0:0:
483,96,276460,1,8,0:0:0:0:
376,39,276633,1,0,0:0:0:0:
351,58,276719,2,0,L|210:57,1,127,0|0,0:0|0:0,0:0:0:0:
193,66,276978,1,4,0:0:0:0:
271,182,277150,2,0,P|275:260|227:315,1,127,8|0,0:0|0:0,0:0:0:0:
58,255,277409,1,0,0:0:0:0:
40,228,277495,38,0,L|197:225,1,127,4|0,0:0|0:0,0:0:0:0:
294,383,277840,1,8,0:0:0:0:
389,328,278012,1,0,0:0:0:0:
412,306,278098,2,0,L|406:156,1,127,0|0,0:0|0:0,0:0:0:0:
421,150,278357,1,4,0:0:0:0:
311,20,278529,2,0,P|247:26|198:113,1,127,8|0,0:0|0:0,0:0:0:0:
171,198,278788,1,0,0:0:0:0:
194,222,278874,6,0,L|320:222,1,127,4|0,0:0|0:0,0:0:0:0:
481,229,279219,1,8,0:0:0:0:
412,306,279391,1,0,0:0:0:0:
381,338,279477,1,0,0:0:0:0:
341,355,279563,1,0,0:0:0:0:
297,357,279649,1,0,0:0:0:0:
255,341,279735,1,4,0:0:0:0:
320,222,279909,2,0,P|317:161|250:104,1,127,8|0,0:0|0:0,0:0:0:0:
138,100,280167,1,0,0:0:0:0:
110,117,280254,6,0,L|108:270,1,127,4|0,0:0|0:0,0:0:0:0:
163,353,280598,1,8,0:0:0:0:
240,256,280771,1,0,0:0:0:0:
277,232,280857,1,0,0:0:0:0:
320,222,280943,1,0,0:0:0:0:
364,227,281029,1,0,0:0:0:0:
404,246,281115,1,4,0:0:0:0:
451,350,281288,2,0,P|374:356|315:315,1,127,8|0,0:0|0:0,0:0:0:0:
290,189,281547,1,0,0:0:0:0:
309,164,281633,38,0,L|304:21,1,127,4|0,0:0|0:0,0:0:0:0:
131,27,281978,1,8,0:0:0:0:
76,113,282150,1,0,0:0:0:0:
70,156,282236,1,0,0:0:0:0:
86,197,282322,1,0,0:0:0:0:
119,227,282408,1,0,0:0:0:0:
161,238,282494,1,4,0:0:0:0:
290,189,282667,2,0,P|351:166|440:187,1,127,8|0,0:0|0:0,0:0:0:0:
479,273,282926,1,0,0:0:0:0:
471,303,283012,6,0,L|321:315,1,127,4|0,0:0|0:0,0:0:0:0:
224,133,283357,1,8,0:0:0:0:
123,187,283529,1,0,0:0:0:0:
103,212,283616,2,0,L|111:395,1,127,0|0,0:0|0:0,0:0:0:0:
106,370,283874,2,0,L|190:364,1,63.5,4|0,0:0|0:0,0:0:0:0:
301,217,284047,2,0,P|303:137|267:89,1,127,8|0,0:0|0:0,0:0:0:0:
199,229,284305,1,0,0:0:0:0:
212,256,284391,6,0,P|257:307|319:311,1,127,4|0,0:0|0:0,0:0:0:0:
438,118,284736,1,8,0:0:0:0:
340,38,284909,1,0,0:0:0:0:
321,63,284995,2,0,L|318:200,1,127,0|0,0:0|0:0,0:0:0:0:
301,217,285254,1,4,0:0:0:0:
182,116,285426,2,0,P|93:106|52:131,1,127,8|0,0:0|0:0,0:0:0:0:
50,233,285685,1,0,0:0:0:0:
59,263,285771,38,0,L|206:265,1,127,4|0,0:0|0:0,0:0:0:0:
381,222,286116,1,8,0:0:0:0:
437,334,286288,1,0,0:0:0:0:
393,341,286374,1,0,0:0:0:0:
349,335,286460,1,0,0:0:0:0:
309,316,286546,1,0,0:0:0:0:
277,286,286632,1,4,0:0:0:0:
381,222,286805,2,0,B|408:165|376:91|376:91|377:129|351:165,1,190.5,8|0,0:0|0:0,0:0:0:0:
289,88,287150,6,0,P|330:20|403:9,1,127,12|0,0:0|0:0,0:0:0:0:
461,58,287409,1,0,0:0:0:0:
476,84,287495,1,8,0:0:0:0:
290,189,287667,1,0,0:0:0:0:
266,211,287754,2,0,L|94:207,1,127,0|0,0:0|0:0,0:0:0:0:
111,223,288012,1,4,0:0:0:0:
79,19,288185,2,0,P|138:49|155:145,1,127,8|0,0:0|0:0,0:0:0:0:
111,223,288443,1,0,0:0:0:0:
88,245,288529,6,0,L|91:378,1,127,4|0,0:0|0:0,0:0:0:0:
250,242,288874,1,8,0:0:0:0:
187,159,289047,1,0,0:0:0:0:
164,136,289133,2,0,L|29:135,1,127,0|0,0:0|0:0,0:0:0:0:
16,110,289391,1,4,0:0:0:0:
211,63,289564,2,0,P|277:113|276:193,1,127,8|0,0:0|0:0,0:0:0:0:
211,312,289822,1,0,0:0:0:0:
186,332,289909,38,0,L|356:338,1,127,4|0,0:0|0:0,0:0:0:0:
488,309,290254,1,8,0:0:0:0:
402,233,290426,1,0,0:0:0:0:
380,210,290512,2,0,L|379:62,1,127,0|0,0:0|0:0,0:0:0:0:
359,57,290771,1,4,0:0:0:0:
272,128,290943,2,0,P|213:153|134:112,1,127,8|0,0:0|0:0,0:0:0:0:
75,48,291202,1,0,0:0:0:0:
45,59,291288,6,0,L|37:230,1,127,4|0,0:0|0:0,0:0:0:0:
92,309,291633,1,8,0:0:0:0:
178,247,291805,1,0,0:0:0:0:
206,233,291891,2,0,L|357:232,1,127,0|0,0:0|0:0,0:0:0:0:
360,215,292150,1,4,0:0:0:0:
475,340,292322,2,0,P|376:342|344:305,1,127,8|0,0:0|0:0,0:0:0:0:
447,203,292581,1,0,0:0:0:0:
463,175,292667,6,0,L|461:27,1,127,4|0,0:0|0:0,0:0:0:0:
314,71,293012,1,8,0:0:0:0:
208,17,293185,1,0,0:0:0:0:
189,42,293271,2,0,L|192:194,1,127,0|0,0:0|0:0,0:0:0:0:
171,193,293529,1,4,0:0:0:0:
90,356,293702,2,0,P|68:304|97:212,1,127,8|0,0:0|0:0,0:0:0:0:
186,294,293960,1,0,0:0:0:0:
211,312,294047,38,0,L|354:307,1,127,4|0,0:0|0:0,0:0:0:0:
446,220,294391,1,8,0:0:0:0:
399,113,294564,1,0,0:0:0:0:
363,86,294650,1,0,0:0:0:0:
320,76,294736,1,0,0:0:0:0:
277,84,294822,1,0,0:0:0:0:
241,109,294908,1,4,0:0:0:0:
171,193,295081,2,0,P|240:219|308:197,1,127,8|0,0:0|0:0,0:0:0:0:
419,147,295340,1,0,0:0:0:0:
435,174,295426,6,0,L|436:310,1,127,4|0,0:0|0:0,0:0:0:0:
326,365,295771,1,8,0:0:0:0:
249,309,295943,1,0,0:0:0:0:
223,290,296029,2,0,L|70:295,1,127,0|0,0:0|0:0,0:0:0:0:
70,274,296288,1,4,0:0:0:0:
179,141,296460,2,0,P|182:71|109:20,1,127,8|0,0:0|0:0,0:0:0:0:
10,54,296719,1,0,0:0:0:0:
19,84,296805,6,0,L|15:225,1,127,4|0,0:0|0:0,0:0:0:0:
140,338,297150,1,8,0:0:0:0:
189,233,297322,1,0,0:0:0:0:
208,207,297409,2,0,L|361:205,1,127,0|0,0:0|0:0,0:0:0:0:
359,184,297667,2,0,L|356:97,1,63.5,4|0,0:0|0:0,0:0:0:0:
265,31,297840,1,8,0:0:0:0:
229,58,297926,1,0,0:0:0:0:
188,72,298012,1,0,0:0:0:0:
143,72,298098,1,0,0:0:0:0:
105,49,298185,38,0,L|98:231,1,127,12|0,0:0|0:0,0:0:0:0:
102,269,298443,1,0,0:0:0:0:
101,300,298529,1,8,0:0:0:0:
225,228,298702,1,0,0:0:0:0:
252,211,298788,2,0,L|378:215,1,127,0|0,0:0|0:0,0:0:0:0:
402,194,299047,1,4,0:0:0:0:
370,5,299219,2,0,P|314:103|327:136,1,127,8|0,0:0|0:0,0:0:0:0:
402,194,299478,1,0,0:0:0:0:
420,219,299564,6,0,L|415:345,1,127,12|0,0:0|0:0,0:0:0:0:
239,281,299909,1,8,0:0:0:0:
114,299,300081,1,0,0:0:0:0:
83,269,300167,1,0,0:0:0:0:
69,230,300254,1,0,0:0:0:0:
72,184,300340,1,0,0:0:0:0:
94,145,300426,2,0,P|125:101|154:91,1,63.5,4|0,0:0|0:0,0:0:0:0:
186,180,300598,2,0,P|210:199|224:227,1,63.5,8|0,0:0|0:0,0:0:0:0:
231,103,300771,2,0,P|255:83|269:55,1,63.5
368,64,300943,6,0,P|416:123|394:198,1,127,4|0,0:0|0:0,0:0:0:0:
327,293,301288,1,8,0:0:0:0:
260,193,301460,1,0,0:0:0:0:
236,171,301547,2,0,L|98:170,1,127,0|0,0:0|0:0,0:0:0:0:
88,145,301805,1,4,0:0:0:0:
25,264,301978,2,0,P|37:328|116:366,1,127,8|0,0:0|0:0,0:0:0:0:
171,274,302236,1,0,0:0:0:0:
194,252,302322,38,0,P|264:230|354:279,1,127,4|0,0:0|0:0,0:0:0:0:
425,349,302667,1,8,0:0:0:0:
476,268,302840,1,0,0:0:0:0:
493,227,302926,1,0,0:0:0:0:
495,183,303012,1,0,0:0:0:0:
481,141,303098,1,0,0:0:0:0:
453,107,303184,1,4,0:0:0:0:
368,16,303357,2,0,P|331:67|337:160,1,127,8|0,0:0|0:0,0:0:0:0:
375,262,303616,1,0,0:0:0:0:
351,282,303702,6,0,L|171:280,1,127,4|0,0:0|0:0,0:0:0:0:
153,154,304047,1,8,0:0:0:0:
229,101,304219,1,0,0:0:0:0:
257,86,304305,2,0,L|383:87,1,127,0|0,0:0|0:0,0:0:0:0:
406,65,304564,2,0,L|411:1,1,63.5,4|0,0:0|0:0,0:0:0:0:
466,140,304736,1,8,0:0:0:0:
472,183,304822,1,0,0:0:0:0:
463,226,304908,1,0,0:0:0:0:
437,262,304994,1,0,0:0:0:0:
400,286,305081,6,0,P|338:299|247:263,1,127,4|0,0:0|0:0,0:0:0:0:
85,181,305426,1,8,0:0:0:0:
164,120,305598,1,0,0:0:0:0:
193,106,305685,2,0,L|334:108,1,127,0|0,0:0|0:0,0:0:0:0:
349,95,305943,2,0,L|348:31,1,63.5,4|0,0:0|0:0,0:0:0:0:
209,183,306116,1,8,0:0:0:0:
176,212,306202,1,0,0:0:0:0:
160,253,306288,1,0,0:0:0:0:
164,297,306374,1,0,0:0:0:0:
185,336,306460,38,0,B|244:326|244:326|284:346|284:346|341:340,1,152.399995349121,4|0,0:0|0:0,0:0:0:0:
375,275,307322,2,0,L|355:188,1,76.1999976745606,4|0,0:0|0:0,0:0:0:0:
293,126,307840,6,0,P|345:105|438:142,1,152.399995349121,4|0,0:0|0:0,0:0:0:0:
476,218,308702,1,4,0:0:0:0:
512,28,308874,6,0,B|379:27|379:27|419:34|455:60,1,190.5,8|0,0:0|0:0,0:0:0:0:
432,46,309219,5,12,0:0:0:0:
