osu file format v14

[General]
AudioFilename: audio.mp3
AudioLeadIn: 0
PreviewTime: 160186
Countdown: 0
SampleSet: None
StackLeniency: 0.2
Mode: 0
LetterboxInBreaks: 0
WidescreenStoryboard: 0

[Editor]
Bookmarks: 22254
DistanceSpacing: 2.5
BeatDivisor: 2
GridSize: 8
TimelineZoom: 1.7

[Metadata]
Title:2D Universe
TitleUnicode:2D Universe
Artist:Street
ArtistUnicode:Street
Creator:DeviousPanda
Version:Hitsound Convert
Source:
Tags:Metal Force Doujin Music AB-Sounds Jewel Records
BeatmapID:1987239
BeatmapSetID:937676

[Difficulty]
HPDrainRate:6
CircleSize:5
OverallDifficulty:9
ApproachRate:9
SliderMultiplier:2.5
SliderTickRate:1

[Events]
//Background and Video events
0,0,"69729758_p0.jpg",0,0
//Break Periods
//Storyboard Layer 0 (Background)
//Storyboard Layer 1 (Fail)
//Storyboard Layer 2 (Pass)
//Storyboard Layer 3 (Foreground)
//Storyboard Sound Samples

[TimingPoints]
186,344.827586206897,4,2,1,50,1,0
11220,-100,4,2,2,50,0,0
11306,-100,4,2,1,50,0,0
11392,-100,4,2,2,50,0,0
11479,-100,4,2,1,50,0,0
11737,-100,4,2,2,50,0,0
11823,-100,4,2,1,50,0,0
11910,-100,4,2,2,50,0,0
12082,-100,4,2,1,50,0,0
12254,-100,4,2,2,50,0,0
12341,-100,4,2,1,50,0,0
12427,-100,4,2,2,50,0,0
12513,-100,4,2,1,50,0,0
12772,-100,4,2,2,50,0,0
12858,-100,4,2,1,50,0,0
12944,-100,4,2,2,50,0,0
13117,-100,4,2,1,50,0,0
13289,-100,4,2,2,50,0,0
13461,-100,4,2,1,50,0,0
13634,-100,4,2,2,50,0,0
13720,-100,4,2,1,50,0,0
13979,-100,4,2,2,50,0,0
14065,-100,4,2,1,50,0,0
14151,-100,4,2,2,50,0,0
14237,-100,4,2,1,50,0,0
14323,-100,4,2,2,50,0,0
14582,-100,4,2,1,50,0,0
14668,-100,4,2,2,50,0,0
14927,-100,4,2,1,50,0,0
15013,-100,4,2,2,50,0,0
15099,-100,4,2,1,50,0,0
15186,-100,4,2,2,50,0,0
15272,-100,4,2,1,50,0,0
15531,-100,4,2,2,50,0,0
15617,-100,4,2,1,50,0,0
15703,-100,4,2,2,50,0,0
15875,-100,4,2,1,50,0,0
16048,-100,4,2,2,50,0,0
16134,-100,4,2,1,50,0,0
16393,-100,4,2,2,50,0,0
16479,-100,4,2,1,50,0,0
16565,-100,4,2,2,50,0,0
16651,-100,4,2,1,50,0,0
16737,-100,4,2,3,50,0,0
16823,-100,4,2,1,50,0,0
16909,-100,4,2,2,50,0,0
16996,-100,4,2,1,50,0,0
17082,-100,4,2,2,50,0,0
17341,-100,4,2,1,50,0,0
17427,-100,4,2,2,50,0,0
17686,-100,4,2,1,50,0,0
17771,-100,4,2,2,50,0,0
17858,-100,4,2,1,50,0,0
17944,-100,4,2,2,50,0,0
18030,-100,4,2,1,50,0,0
18289,-100,4,2,4,50,0,0
18375,-100,4,2,1,50,0,0
18461,-100,4,2,2,50,0,0
18634,-100,4,2,1,50,0,0
18806,-100,4,2,2,50,0,0
19065,-100,4,2,1,50,0,0
19151,-100,4,2,2,50,0,0
19237,-100,4,2,1,50,0,0
19496,-100,4,2,3,50,0,0
19582,-100,4,2,1,50,0,0
19668,-100,4,2,2,50,0,0
19754,-100,4,2,1,50,0,0
20013,-100,4,2,2,50,0,0
20444,-100,4,2,1,50,0,0
20530,-100,4,2,2,50,0,0
20617,-100,4,2,1,50,0,0
20703,-100,4,2,2,50,0,0
20789,-100,4,2,1,50,0,0
21048,-100,4,2,2,50,0,0
21134,-100,4,2,1,50,0,0
22254,-100,4,2,5,80,0,0
22513,-100,4,2,6,80,0,0
22599,-100,4,2,1,80,0,0
22772,-100,4,2,2,80,0,0
22858,-100,4,2,1,80,0,0
23030,-100,4,2,2,80,0,0
23117,-100,4,2,1,80,0,0
23289,-100,4,2,3,80,0,0
23375,-100,4,2,1,80,0,0
23461,-100,4,2,6,80,0,0
23720,-100,4,2,1,80,0,0
23806,-100,4,2,5,80,0,0
23892,-100,4,2,6,80,0,0
23979,-100,4,2,1,80,0,0
24151,-100,4,2,6,80,0,0
24237,-100,4,2,1,80,0,0
24410,-100,4,2,2,80,0,0
24496,-100,4,2,1,80,0,0
24668,-100,4,2,4,80,0,0
24754,-100,4,2,1,80,0,0
24841,-100,4,2,6,80,0,0
25013,-100,4,2,7,80,0,0
25272,-100,4,2,6,80,0,0
25358,-100,4,2,1,80,0,0
25531,-100,4,2,2,80,0,0
25617,-100,4,2,1,80,0,0
25789,-100,4,2,2,80,0,0
25876,-100,4,2,1,80,0,0
26048,-100,4,2,3,80,0,0
26134,-100,4,2,1,80,0,0
26220,-100,4,2,6,80,0,0
26306,-100,4,2,1,80,0,0
26393,-100,4,2,6,80,0,0
26479,-100,4,2,1,80,0,0
26565,-100,4,2,5,80,0,0
26651,-100,4,2,6,80,0,0
26738,-100,4,2,1,80,0,0
26910,-100,4,2,6,80,0,0
26996,-100,4,2,1,80,0,0
27169,-100,4,2,2,80,0,0
27255,-100,4,2,1,80,0,0
27427,-100,4,2,4,80,0,0
27513,-100,4,2,1,80,0,0
27600,-100,4,2,6,80,0,0
27772,-100,4,2,7,80,0,0
28031,-100,4,2,6,80,0,0
28117,-100,4,2,1,80,0,0
28290,-100,4,2,2,80,0,0
28376,-100,4,2,1,80,0,0
28548,-100,4,2,2,80,0,0
28635,-100,4,2,1,80,0,0
28807,-100,4,2,3,80,0,0
28893,-100,4,2,1,80,0,0
28979,-100,4,2,6,80,0,0
29065,-100,4,2,1,80,0,0
29152,-100,4,2,6,80,0,0
29238,-100,4,2,1,80,0,0
29324,-100,4,2,5,80,0,0
29410,-100,4,2,6,80,0,0
29497,-100,4,2,1,80,0,0
29669,-100,4,2,6,80,0,0
29755,-100,4,2,1,80,0,0
29928,-100,4,2,2,80,0,0
30014,-100,4,2,1,80,0,0
30186,-100,4,2,4,80,0,0
30272,-100,4,2,1,80,0,0
30359,-100,4,2,6,80,0,0
30530,-100,4,2,7,80,0,0
30789,-100,4,2,6,80,0,0
30875,-100,4,2,1,80,0,0
31048,-100,4,2,2,80,0,0
31134,-100,4,2,1,80,0,0
31306,-100,4,2,2,80,0,0
31393,-100,4,2,1,80,0,0
31565,-100,4,2,3,80,0,0
31651,-100,4,2,1,80,0,0
31737,-100,4,2,6,80,0,0
31823,-100,4,2,1,80,0,0
31910,-100,4,2,6,80,0,0
31996,-100,4,2,1,80,0,0
32082,-100,4,2,5,80,0,0
32168,-100,4,2,6,80,0,0
32255,-100,4,2,1,80,0,0
32427,-100,4,2,6,80,0,0
32513,-100,4,2,1,80,0,0
32686,-100,4,2,2,80,0,0
32772,-100,4,2,1,80,0,0
32944,-100,4,2,4,80,0,0
33030,-100,4,2,1,80,0,0
33117,-100,4,2,6,80,0,0
33289,-100,4,2,8,80,0,0
33375,-100,4,2,1,80,0,0
33548,-100,4,2,9,80,0,0
33634,-100,4,2,1,80,0,0
33807,-100,4,2,2,80,0,0
33893,-100,4,2,1,80,0,0
33979,-100,4,2,9,80,0,0
34065,-100,4,2,2,80,0,0
34238,-100,4,2,1,80,0,0
34324,-100,4,2,3,80,0,0
34410,-100,4,2,2,80,0,0
34496,-100,4,2,9,80,0,0
34582,-100,4,2,1,80,0,0
34669,-100,4,2,6,80,0,0
34755,-100,4,2,9,80,0,0
34841,-100,4,2,5,80,0,0
34927,-100,4,2,9,80,0,0
35013,-100,4,2,1,80,0,0
35186,-100,4,2,9,80,0,0
35272,-100,4,2,1,80,0,0
35358,-100,4,2,9,80,0,0
35445,-100,4,2,2,80,0,0
35617,-100,4,2,9,80,0,0
35703,-100,4,2,4,80,0,0
35789,-100,4,2,2,80,0,0
35876,-100,4,2,9,80,0,0
35961,-100,4,2,1,80,0,0
36048,-100,4,2,10,80,0,0
36134,-100,4,2,1,80,0,0
36307,-100,4,2,9,80,0,0
36393,-100,4,2,1,80,0,0
36566,-100,4,2,2,80,0,0
36652,-100,4,2,1,80,0,0
36738,-100,4,2,9,80,0,0
36824,-100,4,2,2,80,0,0
36997,-100,4,2,1,80,0,0
37083,-100,4,2,3,80,0,0
37169,-100,4,2,2,80,0,0
37255,-100,4,2,9,80,0,0
37341,-100,4,2,2,80,0,0
37428,-100,4,2,6,80,0,0
37514,-100,4,2,9,80,0,0
37600,-100,4,2,5,80,0,0
37686,-100,4,2,9,80,0,0
37772,-100,4,2,1,80,0,0
37945,-100,4,2,9,80,0,0
38031,-100,4,2,1,80,0,0
38117,-100,4,2,9,80,0,0
38204,-100,4,2,2,80,0,0
38376,-100,4,2,9,80,0,0
38462,-100,4,2,4,80,0,0
38548,-100,4,2,2,80,0,0
38635,-100,4,2,9,80,0,0
38720,-100,4,2,1,80,0,0
38807,-100,4,2,10,80,0,0
38892,-100,4,2,1,80,0,0
39066,-100,4,2,9,80,0,0
39151,-100,4,2,1,80,0,0
39325,-100,4,2,2,80,0,0
39411,-100,4,2,1,80,0,0
39497,-100,4,2,9,80,0,0
39583,-100,4,2,2,80,0,0
39756,-100,4,2,1,80,0,0
39842,-100,4,2,3,80,0,0
39928,-100,4,2,2,80,0,0
40014,-100,4,2,9,80,0,0
40100,-100,4,2,2,80,0,0
40187,-100,4,2,6,80,0,0
40273,-100,4,2,9,80,0,0
40359,-100,4,2,5,80,0,0
40445,-100,4,2,9,80,0,0
40530,-100,4,2,1,80,0,0
40704,-100,4,2,9,80,0,0
40790,-100,4,2,1,80,0,0
40876,-100,4,2,9,80,0,0
40963,-100,4,2,2,80,0,0
41135,-100,4,2,9,80,0,0
41221,-100,4,2,4,80,0,0
41307,-100,4,2,2,80,0,0
41394,-100,4,2,9,80,0,0
41478,-100,4,2,1,80,0,0
41565,-100,4,2,10,80,0,0
41651,-100,4,2,1,80,0,0
41824,-100,4,2,9,80,0,0
41910,-100,4,2,1,80,0,0
42083,-100,4,2,2,80,0,0
42169,-100,4,2,1,80,0,0
42255,-100,4,2,9,80,0,0
42341,-100,4,2,2,80,0,0
42514,-100,4,2,1,80,0,0
42600,-100,4,2,3,80,0,0
42686,-100,4,2,2,80,0,0
42772,-100,4,2,9,80,0,0
42858,-100,4,2,2,80,0,0
42945,-100,4,2,6,80,0,0
43031,-100,4,2,9,80,0,0
43117,-100,4,2,5,80,0,0
43203,-100,4,2,9,80,0,0
43289,-100,4,2,1,80,0,0
43462,-100,4,2,9,80,0,0
43548,-100,4,2,1,80,0,0
43634,-100,4,2,9,80,0,0
43721,-100,4,2,2,80,0,0
43893,-100,4,2,9,80,0,0
43979,-100,4,2,4,80,0,0
44065,-100,4,2,2,80,0,0
44152,-100,4,2,9,80,0,0
44237,-100,4,2,1,80,0,0
44323,-100,4,2,11,60,0,0
44582,-100,4,2,2,60,0,0
44841,-100,4,2,6,60,0,0
45099,-100,4,2,2,60,0,0
45186,-100,4,2,1,60,0,0
45358,-100,4,2,6,60,0,0
45617,-100,4,2,2,60,0,0
46737,-100,4,2,1,60,0,0
46910,-100,4,2,6,60,0,0
46996,-100,4,2,1,60,0,0
47082,-100,4,2,6,60,0,0
47341,-100,4,2,2,60,0,0
48634,-100,4,2,6,60,0,0
48720,-100,4,2,1,60,0,0
48892,-100,4,2,6,60,0,0
48979,-100,4,2,1,60,0,0
49151,-100,4,2,6,60,0,0
49237,-100,4,2,1,60,0,0
49410,-100,4,2,6,60,0,0
49496,-100,4,2,1,60,0,0
49668,-100,4,2,6,60,0,0
50099,-100,4,2,2,60,0,0
50358,-100,4,2,6,60,0,0
50617,-100,4,2,2,60,0,0
50703,-100,4,2,1,60,0,0
50875,-100,4,2,6,60,0,0
51134,-100,4,2,2,60,0,0
52254,-100,4,2,1,60,0,0
52427,-100,4,2,6,60,0,0
52513,-100,4,2,1,60,0,0
52599,-100,4,2,6,60,0,0
52857,-100,4,2,2,60,0,0
54151,-100,4,2,6,60,0,0
54237,-100,4,2,1,60,0,0
54410,-100,4,2,6,60,0,0
54496,-100,4,2,1,60,0,0
54668,-100,4,2,6,60,0,0
54754,-100,4,2,1,60,0,0
54927,-100,4,2,6,60,0,0
55013,-100,4,2,1,60,0,0
55186,-100,4,2,6,60,0,0
55358,-100,4,2,9,60,0,0
55444,-100,4,2,1,60,0,0
55616,-100,4,2,2,60,0,0
55703,-100,4,2,1,60,0,0
55876,-100,4,2,6,60,0,0
56048,-100,4,2,1,60,0,0
56134,-100,4,2,2,60,0,0
56221,-100,4,2,9,60,0,0
56306,-100,4,2,1,60,0,0
56393,-100,4,2,6,60,0,0
56479,-100,4,2,1,60,0,0
56651,-100,4,2,2,60,0,0
56823,-100,4,2,1,60,0,0
56910,-100,4,2,2,60,0,0
56996,-100,4,2,1,60,0,0
57168,-100,4,2,2,60,0,0
57255,-100,4,2,1,60,0,0
57427,-100,4,2,2,60,0,0
57599,-100,4,2,1,60,0,0
57686,-100,4,2,2,60,0,0
57772,-100,4,2,1,60,0,0
57945,-100,4,2,9,60,0,0
58203,-100,4,2,1,60,0,0
58375,-100,4,2,2,60,0,0
58462,-100,4,2,1,60,0,0
58634,-100,4,2,2,60,0,0
58807,-100,4,2,1,60,0,0
58893,-100,4,2,2,60,0,0
58979,-100,4,2,1,60,0,0
59151,-100,4,2,2,60,0,0
59238,-100,4,2,1,60,0,0
59410,-100,4,2,2,60,0,0
59582,-100,4,2,1,60,0,0
59669,-100,4,2,6,60,0,0
59755,-100,4,2,9,60,0,0
59927,-100,4,2,6,60,0,0
60014,-100,4,2,9,60,0,0
60272,-100,4,2,1,60,0,0
60358,-100,4,2,9,60,0,0
60531,-100,4,2,1,60,0,0
60617,-100,4,2,9,60,0,0
60789,-100,4,2,1,60,0,0
60876,-100,4,2,9,60,0,0
60961,-100,4,2,1,60,0,0
61133,-100,4,2,2,60,0,0
61220,-100,4,2,1,60,0,0
61393,-100,4,2,6,60,0,0
61565,-100,4,2,1,60,0,0
61651,-100,4,2,2,60,0,0
61738,-100,4,2,9,60,0,0
61823,-100,4,2,1,60,0,0
61910,-100,4,2,6,60,0,0
61996,-100,4,2,1,60,0,0
62168,-100,4,2,2,60,0,0
62340,-100,4,2,1,60,0,0
62427,-100,4,2,2,60,0,0
62513,-100,4,2,1,60,0,0
62685,-100,4,2,2,60,0,0
62772,-100,4,2,1,60,0,0
62944,-100,4,2,2,60,0,0
63116,-100,4,2,1,60,0,0
63202,-100,4,2,2,60,0,0
63289,-100,4,2,1,60,0,0
63462,-100,4,2,9,60,0,0
63720,-100,4,2,1,60,0,0
63892,-100,4,2,2,60,0,0
63979,-100,4,2,1,60,0,0
64151,-100,4,2,2,60,0,0
64324,-100,4,2,1,60,0,0
64410,-100,4,2,2,60,0,0
64496,-100,4,2,1,60,0,0
64668,-100,4,2,2,60,0,0
64755,-100,4,2,1,60,0,0
64927,-100,4,2,2,60,0,0
65013,-100,4,2,1,60,0,0
65186,-100,4,2,2,60,0,0
65272,-100,4,2,1,60,0,0
65444,-100,4,2,2,60,0,0
65531,-100,4,2,1,60,0,0
65703,-100,4,2,2,60,0,0
65875,-100,4,2,1,60,0,0
65961,-100,4,2,2,60,0,0
66134,-100,4,2,1,60,0,0
66220,-100,4,2,2,60,0,0
66306,-100,4,2,1,60,0,0
66392,-100,4,2,2,60,0,0
66478,-100,4,2,1,60,0,0
66909,-100,4,2,2,60,0,0
67082,-100,4,2,1,60,0,0
67168,-100,4,2,2,60,0,0
67254,-100,4,2,1,60,0,0
67426,-100,4,2,2,60,0,0
67513,-100,4,2,1,60,0,0
67685,-100,4,2,2,60,0,0
67772,-100,4,2,1,60,0,0
67944,-100,4,2,2,60,0,0
68030,-100,4,2,1,60,0,0
68117,-100,4,2,2,60,0,0
68289,-100,4,2,1,60,0,0
68461,-100,4,2,2,60,0,0
68548,-100,4,2,1,60,0,0
68720,-100,4,2,2,60,0,0
68806,-100,4,2,1,60,0,0
68979,-100,4,2,2,60,0,0
69064,-100,4,2,1,60,0,0
69151,-100,4,2,2,60,0,0
69237,-100,4,2,1,60,0,0
69410,-100,4,2,2,60,0,0
70013,-100,4,2,1,60,0,0
70185,-100,4,2,2,60,0,0
70272,-100,4,2,1,60,0,0
70444,-100,4,2,2,60,0,0
70530,-100,4,2,1,60,0,0
70703,-100,4,2,2,60,0,0
70789,-100,4,2,1,60,0,0
70875,-100,4,2,2,60,0,0
71048,-100,4,2,1,60,0,0
71220,-100,4,2,2,60,0,0
71306,-100,4,2,1,60,0,0
71392,-100,4,2,2,60,0,0
71565,-100,4,2,1,60,0,0
71737,-100,4,2,2,60,0,0
71823,-100,4,2,1,60,0,0
71910,-100,4,2,2,60,0,0
71996,-100,4,2,1,60,0,0
72169,-100,4,2,2,60,0,0
72513,-100,4,2,1,60,0,0
72599,-100,4,2,2,60,0,0
72772,-100,4,2,1,60,0,0
72944,-100,4,2,2,60,0,0
73031,-100,4,2,1,60,0,0
73117,-100,4,2,2,60,0,0
73289,-100,4,2,1,60,0,0
73462,-100,4,2,2,60,0,0
73548,-100,4,2,1,60,0,0
73634,-100,4,2,2,60,0,0
73807,-100,4,2,1,60,0,0
73979,-100,4,2,2,60,0,0
74065,-100,4,2,1,60,0,0
74237,-100,4,2,2,60,0,0
74323,-100,4,2,1,60,0,0
74496,-100,4,2,2,60,0,0
74582,-100,4,2,1,60,0,0
74668,-100,4,2,2,60,0,0
74755,-100,4,2,1,60,0,0
74927,-100,4,2,2,60,0,0
75272,-100,4,2,1,60,0,0
75358,-100,4,2,2,60,0,0
75617,-100,4,2,1,60,0,0
75702,-100,4,2,2,60,0,0
75790,-100,4,2,1,60,0,0
75961,-100,4,2,2,60,0,0
76048,-100,4,2,1,60,0,0
76220,-100,4,2,2,60,0,0
76307,-100,4,2,1,60,0,0
76392,-100,4,2,2,60,0,0
76566,-100,4,2,1,60,0,0
76737,-100,4,2,2,60,0,0
76823,-100,4,2,1,60,0,0
76996,-100,4,2,2,60,0,0
77082,-100,4,2,1,60,0,0
77254,-100,4,2,2,60,0,0
77341,-100,4,2,1,60,0,0
77427,-100,4,2,4,60,0,0
77686,-100,4,2,2,60,0,0
78289,-100,4,2,1,60,0,0
78461,-100,4,2,4,60,0,0
78548,-100,4,2,1,60,0,0
78720,-100,4,2,2,60,0,0
78892,-100,4,2,1,60,0,0
78979,-100,4,2,2,60,0,0
79065,-100,4,2,1,60,0,0
79151,-100,4,2,2,60,0,0
79323,-100,4,2,1,60,0,0
79496,-100,4,2,3,60,0,0
79668,-100,4,2,1,60,0,0
79754,-100,4,2,2,60,0,0
79841,-100,4,2,1,60,0,0
80013,-100,4,2,2,60,0,0
80099,-100,4,2,1,60,0,0
80186,-100,4,2,3,60,0,0
80272,-100,4,2,1,60,0,0
80444,-100,4,2,2,60,0,0
81048,-100,4,2,1,60,0,0
81220,-100,4,2,4,60,0,0
81306,-100,4,2,1,60,0,0
81479,-100,4,2,2,60,0,0
81565,-100,4,2,1,60,0,0
81738,-100,4,2,2,60,0,0
81823,-100,4,2,1,60,0,0
81910,-100,4,2,2,60,0,0
82082,-100,4,2,1,60,0,0
82255,-100,4,2,3,60,0,0
82427,-100,4,2,1,60,0,0
82513,-100,4,2,2,60,0,0
82599,-100,4,2,1,60,0,0
82772,-100,4,2,2,60,0,0
82858,-100,4,2,1,60,0,0
83289,-100,4,2,2,60,0,0
83677,-100,4,2,1,60,0,0
83806,-100,4,2,2,60,0,0
83849,-100,4,2,1,60,0,0
83892,-100,4,2,2,60,0,0
83936,-100,4,2,1,60,0,0
84237,-100,4,2,2,60,0,0
84280,-100,4,2,1,60,0,0
84410,-100,4,2,2,60,0,0
84453,-100,4,2,1,60,0,0
84668,-100,4,2,2,60,0,0
84754,-100,4,2,1,60,0,0
84841,-100,4,2,2,60,0,0
84927,-100,4,2,1,60,0,0
85530,-100,4,2,2,60,0,0
85617,-100,4,2,1,60,0,0
85961,-100,4,2,2,60,0,0
86048,-100,4,2,1,60,0,0
86220,-100,4,2,2,60,0,0
86306,-100,4,2,1,60,0,0
86392,-100,4,2,2,60,0,0
86479,-100,4,2,1,60,0,0
86651,-100,4,2,2,60,0,0
86737,-100,4,2,1,60,0,0
86996,-100,4,2,2,60,0,0
87082,-100,4,2,12,100,0,0
88117,-100,4,2,5,100,0,0
88461,-100,4,2,87,90,0,0
88720,-100,4,2,13,90,0,0
88979,-100,4,2,14,90,0,0
89323,-100,4,2,5,90,0,0
89496,-100,4,2,12,90,0,0
89668,-100,4,2,2,90,0,0
90013,-100,4,2,5,90,0,0
90186,-100,4,2,12,90,0,0
90272,-100,4,2,5,90,0,0
90358,-100,4,2,15,90,0,0
90703,-100,4,2,5,90,0,0
90875,-100,4,2,7,90,0,0
90961,-100,4,2,5,90,0,0
91220,-100,4,2,14,90,0,0
91479,-100,4,2,13,90,0,0
91737,-100,4,2,87,90,0,0
92082,-100,4,2,5,90,0,0
92254,-100,4,2,12,90,0,0
92426,-100,4,2,2,90,0,0
92772,-100,4,2,5,90,0,0
92944,-100,4,2,12,90,0,0
93030,-100,4,2,5,90,0,0
93117,-100,4,2,15,90,0,0
93461,-100,4,2,5,90,0,0
93634,-100,4,2,7,90,0,0
93720,-100,4,2,5,90,0,0
93979,-100,4,2,87,90,0,0
94238,-100,4,2,13,90,0,0
94497,-100,4,2,14,90,0,0
94841,-100,4,2,5,90,0,0
95013,-100,4,2,12,90,0,0
95185,-100,4,2,2,90,0,0
95530,-100,4,2,5,90,0,0
95703,-100,4,2,12,90,0,0
95789,-100,4,2,5,90,0,0
95875,-100,4,2,15,90,0,0
96220,-100,4,2,5,90,0,0
96392,-100,4,2,7,90,0,0
96479,-100,4,2,5,90,0,0
96737,-100,4,2,14,90,0,0
96996,-100,4,2,13,90,0,0
97254,-100,4,2,87,90,0,0
97599,-100,4,2,5,90,0,0
97772,-100,4,2,12,90,0,0
97944,-100,4,2,2,90,0,0
98289,-100,4,2,5,90,0,0
98462,-100,4,2,12,90,0,0
98548,-100,4,2,5,90,0,0
98634,-100,4,2,15,90,0,0
98979,-100,4,2,5,90,0,0
99151,-100,4,2,7,90,0,0
99237,-100,4,2,5,90,0,0
99496,-100,4,2,87,90,0,0
99755,-100,4,2,13,90,0,0
100014,-100,4,2,14,90,0,0
100358,-100,4,2,5,90,0,0
100530,-100,4,2,12,90,0,0
100702,-100,4,2,2,90,0,0
101048,-100,4,2,5,90,0,0
101220,-100,4,2,12,90,0,0
101306,-100,4,2,5,90,0,0
101393,-100,4,2,15,90,0,0
101737,-100,4,2,5,90,0,0
101910,-100,4,2,7,90,0,0
101996,-100,4,2,5,90,0,0
102254,-100,4,2,14,90,0,0
102513,-100,4,2,13,90,0,0
102772,-100,4,2,87,90,0,0
103117,-100,4,2,5,90,0,0
103289,-100,4,2,12,90,0,0
103461,-100,4,2,2,90,0,0
103806,-100,4,2,5,90,0,0
103979,-100,4,2,12,90,0,0
104065,-100,4,2,5,90,0,0
104151,-100,4,2,15,90,0,0
104496,-100,4,2,5,90,0,0
104668,-100,4,2,7,90,0,0
104755,-100,4,2,5,90,0,0
105013,-100,4,2,87,90,0,0
105272,-100,4,2,13,90,0,0
105531,-100,4,2,14,90,0,0
105875,-100,4,2,5,90,0,0
106048,-100,4,2,12,90,0,0
106220,-100,4,2,2,90,0,0
106565,-100,4,2,5,90,0,0
106738,-100,4,2,12,90,0,0
106824,-100,4,2,5,90,0,0
106910,-100,4,2,15,90,0,0
107255,-100,4,2,5,90,0,0
107427,-100,4,2,7,90,0,0
107513,-100,4,2,5,90,0,0
107772,-100,4,2,14,90,0,0
108031,-100,4,2,13,90,0,0
108289,-100,4,2,87,90,0,0
108634,-100,4,2,5,90,0,0
108806,-100,4,2,12,90,0,0
108978,-100,4,2,2,90,0,0
109324,-100,4,2,5,90,0,0
109496,-100,4,2,12,90,0,0
109582,-100,4,2,5,90,0,0
109669,-100,4,2,15,90,0,0
110013,-100,4,2,5,90,0,0
110186,-100,4,2,7,90,0,0
110272,-100,4,2,5,90,0,0
110530,-100,4,2,87,90,0,0
110789,-100,4,2,13,90,0,0
111048,-100,4,2,14,90,0,0
111393,-100,4,2,5,90,0,0
111737,-100,4,2,16,90,0,0
112082,-100,4,2,5,90,0,0
112427,-100,4,2,16,90,0,0
112772,-100,4,2,7,90,0,0
112858,-100,4,2,5,90,0,0
112944,-100,4,2,12,90,0,0
113031,-100,4,2,5,90,0,0
113117,-100,4,2,2,90,0,0
113203,-100,4,2,5,90,0,0
113289,-100,4,2,14,90,0,0
113548,-100,4,2,13,90,0,0
113806,-100,4,2,87,90,0,0
114151,-100,4,2,5,90,0,0
114324,-100,4,2,12,90,0,0
114495,-100,4,2,2,90,0,0
114841,-100,4,2,5,90,0,0
115014,-100,4,2,12,90,0,0
115100,-100,4,2,5,90,0,0
115186,-100,4,2,15,90,0,0
115531,-100,4,2,5,90,0,0
115703,-100,4,2,7,90,0,0
115789,-100,4,2,5,90,0,0
116048,-100,4,2,87,90,0,0
116307,-100,4,2,13,90,0,0
116566,-100,4,2,14,90,0,0
116910,-100,4,2,5,90,0,0
117083,-100,4,2,12,90,0,0
117255,-100,4,2,2,90,0,0
117600,-100,4,2,5,90,0,0
117773,-100,4,2,12,90,0,0
117859,-100,4,2,5,90,0,0
117945,-100,4,2,15,90,0,0
118290,-100,4,2,5,90,0,0
118462,-100,4,2,7,90,0,0
118548,-100,4,2,5,90,0,0
118806,-100,4,2,14,90,0,0
119065,-100,4,2,13,90,0,0
119323,-100,4,2,87,90,0,0
119669,-100,4,2,5,90,0,0
119841,-100,4,2,12,90,0,0
120013,-100,4,2,2,90,0,0
120359,-100,4,2,5,90,0,0
120531,-100,4,2,12,90,0,0
120617,-100,4,2,5,90,0,0
120704,-100,4,2,15,90,0,0
121048,-100,4,2,5,90,0,0
121221,-100,4,2,7,90,0,0
121307,-100,4,2,5,90,0,0
121565,-100,4,2,87,90,0,0
121824,-100,4,2,13,90,0,0
122083,-100,4,2,14,90,0,0
122426,-100,4,2,5,90,0,0
122599,-100,4,2,12,90,0,0
122771,-100,4,2,2,90,0,0
123116,-100,4,2,5,90,0,0
123289,-100,4,2,12,90,0,0
123375,-100,4,2,5,90,0,0
123461,-100,4,2,15,90,0,0
123806,-100,4,2,5,90,0,0
123978,-100,4,2,7,90,0,0
124064,-100,4,2,5,90,0,0
124323,-100,4,2,14,90,0,0
124582,-100,4,2,13,90,0,0
124841,-100,4,2,87,90,0,0
125185,-100,4,2,5,90,0,0
125357,-100,4,2,12,90,0,0
125530,-100,4,2,2,90,0,0
125875,-100,4,2,5,90,0,0
126047,-100,4,2,12,90,0,0
126133,-100,4,2,5,90,0,0
126220,-100,4,2,15,90,0,0
126564,-100,4,2,5,90,0,0
126737,-100,4,2,7,90,0,0
126823,-100,4,2,5,90,0,0
127082,-100,4,2,87,90,0,0
127341,-100,4,2,13,90,0,0
127600,-100,4,2,14,90,0,0
127944,-100,4,2,5,90,0,0
128116,-100,4,2,12,90,0,0
128289,-100,4,2,2,90,0,0
128633,-100,4,2,5,90,0,0
128806,-100,4,2,12,90,0,0
128892,-100,4,2,5,90,0,0
128978,-100,4,2,15,90,0,0
129323,-100,4,2,5,90,0,0
129495,-100,4,2,7,90,0,0
129582,-100,4,2,5,90,0,0
129841,-100,4,2,14,90,0,0
130100,-100,4,2,13,90,0,0
130358,-100,4,2,87,90,0,0
130702,-100,4,2,5,90,0,0
130875,-100,4,2,12,90,0,0
131047,-100,4,2,2,90,0,0
131392,-100,4,2,5,90,0,0
131565,-100,4,2,12,90,0,0
131651,-100,4,2,5,90,0,0
131737,-100,4,2,15,90,0,0
132082,-100,4,2,5,90,0,0
132254,-100,4,2,7,90,0,0
132298,-100,4,2,5,90,0,0
132858,-100,4,2,2,90,0,0
133117,-100,4,2,17,90,0,0
133203,-100,4,2,1,90,0,0
133375,-100,4,2,2,90,0,0
133461,-100,4,2,1,90,0,0
133634,-100,4,2,4,90,0,0
133806,-100,4,2,7,90,0,0
133892,-100,4,2,1,90,0,0
133979,-100,4,2,7,90,0,0
134065,-100,4,2,1,90,0,0
134237,-100,4,2,6,90,0,0
134323,-100,4,2,3,90,0,0
134410,-100,4,2,1,90,0,0
134496,-100,4,2,7,90,0,0
134582,-100,4,2,1,90,0,0
134754,-100,4,2,6,90,0,0
134841,-100,4,2,1,90,0,0
135013,-100,4,2,17,90,0,0
135099,-100,4,2,1,90,0,0
135186,-100,4,2,6,90,0,0
135272,-100,4,2,1,90,0,0
135358,-100,4,2,5,90,0,0
135617,-100,4,2,2,90,0,0
135875,-100,4,2,17,90,0,0
135961,-100,4,2,1,90,0,0
136134,-100,4,2,2,90,0,0
136220,-100,4,2,1,90,0,0
136393,-100,4,2,4,90,0,0
136479,-100,4,2,1,90,0,0
136565,-100,4,2,7,90,0,0
136651,-100,4,2,1,90,0,0
136738,-100,4,2,4,90,0,0
136823,-100,4,2,1,90,0,0
136996,-100,4,2,6,90,0,0
137082,-100,4,2,13,90,0,0
137168,-100,4,2,1,90,0,0
137254,-100,4,2,17,90,0,0
137427,-100,4,2,1,90,0,0
137513,-100,4,2,6,90,0,0
137599,-100,4,2,1,90,0,0
137772,-100,4,2,4,90,0,0
137858,-100,4,2,1,90,0,0
137944,-100,4,2,6,90,0,0
138002,-100,4,2,1,90,0,0
138117,-100,4,2,5,90,0,0
138375,-100,4,2,2,90,0,0
138634,-100,4,2,17,90,0,0
138720,-100,4,2,1,90,0,0
138892,-100,4,2,6,90,0,0
138979,-100,4,2,1,90,0,0
139151,-100,4,2,17,90,0,0
139237,-100,4,2,1,90,0,0
139323,-100,4,2,7,90,0,0
139410,-100,4,2,1,90,0,0
139496,-100,4,2,4,90,0,0
139582,-100,4,2,1,90,0,0
139754,-100,4,2,6,90,0,0
139841,-100,4,2,11,90,0,0
139927,-100,4,2,1,90,0,0
140013,-100,4,2,7,90,0,0
140186,-100,4,2,1,90,0,0
140272,-100,4,2,6,90,0,0
140358,-100,4,2,1,90,0,0
140530,-100,4,2,4,90,0,0
140617,-100,4,2,1,90,0,0
140703,-100,4,2,6,90,0,0
140760,-100,4,2,1,90,0,0
140875,-100,4,2,5,90,0,0
140961,-100,4,2,1,90,0,0
141134,-100,4,2,2,90,0,0
141392,-100,4,2,17,90,0,0
141479,-100,4,2,1,90,0,0
141651,-100,4,2,6,90,0,0
141737,-100,4,2,1,90,0,0
141910,-100,4,2,4,90,0,0
141996,-100,4,2,1,90,0,0
142082,-100,4,2,7,90,0,0
142168,-100,4,2,1,90,0,0
142254,-100,4,2,7,90,0,0
142427,-100,4,2,1,90,0,0
142513,-100,4,2,6,90,0,0
142599,-100,4,2,13,90,0,0
142772,-100,4,2,17,90,0,0
142858,-100,4,2,1,90,0,0
143030,-100,4,2,6,90,0,0
143117,-100,4,2,1,90,0,0
143289,-100,4,2,17,90,0,0
143375,-100,4,2,1,90,0,0
143461,-100,4,2,6,90,0,0
143519,-100,4,2,1,90,0,0
143634,-100,4,2,18,90,0,0
143892,-100,4,2,2,90,0,0
144151,-100,4,2,4,90,0,0
144409,-100,4,2,2,90,0,0
144495,-100,4,2,1,90,0,0
144668,-100,4,2,4,90,0,0
144841,-100,4,2,7,90,0,0
144927,-100,4,2,1,90,0,0
145013,-100,4,2,7,90,0,0
145186,-100,4,2,1,90,0,0
145272,-100,4,2,6,90,0,0
145357,-100,4,2,14,90,0,0
145444,-100,4,2,1,90,0,0
145529,-100,4,2,4,90,0,0
145617,-100,4,2,1,90,0,0
145789,-100,4,2,6,90,0,0
145875,-100,4,2,1,90,0,0
146048,-100,4,2,17,90,0,0
146163,-100,4,2,1,90,0,0
146220,-100,4,2,6,90,0,0
146277,-100,4,2,1,90,0,0
146392,-100,4,2,18,90,0,0
146651,-100,4,2,2,90,0,0
146910,-100,4,2,17,90,0,0
146996,-100,4,2,1,90,0,0
147168,-100,4,2,6,90,0,0
147254,-100,4,2,1,90,0,0
147427,-100,4,2,4,90,0,0
147513,-100,4,2,1,90,0,0
147599,-100,4,2,4,90,0,0
147686,-100,4,2,1,90,0,0
147772,-100,4,2,4,90,0,0
147858,-100,4,2,1,90,0,0
148030,-100,4,2,6,90,0,0
148117,-100,4,2,13,90,0,0
148289,-100,4,2,17,90,0,0
148461,-100,4,2,1,90,0,0
148548,-100,4,2,6,90,0,0
148634,-100,4,2,1,90,0,0
148806,-100,4,2,17,90,0,0
148979,-100,4,2,6,90,0,0
149036,-100,4,2,1,90,0,0
149151,-100,4,2,18,90,0,0
149410,-100,4,2,2,90,0,0
149669,-100,4,2,4,90,0,0
149927,-100,4,2,2,90,0,0
150013,-100,4,2,1,90,0,0
150186,-100,4,2,17,90,0,0
150272,-100,4,2,1,90,0,0
150358,-100,4,2,7,90,0,0
150531,-100,4,2,4,90,0,0
150703,-100,4,2,1,90,0,0
150789,-100,4,2,2,90,0,0
150875,-100,4,2,14,90,0,0
151048,-100,4,2,17,90,0,0
151134,-100,4,2,1,90,0,0
151306,-100,4,2,2,90,0,0
151392,-100,4,2,1,90,0,0
151565,-100,4,2,17,90,0,0
151622,-100,4,2,1,90,0,0
151737,-100,4,2,6,90,0,0
151795,-100,4,2,1,90,0,0
151910,-100,4,2,18,90,0,0
152168,-100,4,2,2,90,0,0
152427,-100,4,2,4,90,0,0
152685,-100,4,2,2,90,0,0
152772,-100,4,2,1,90,0,0
152944,-100,4,2,17,90,0,0
153030,-100,4,2,1,90,0,0
153117,-100,4,2,7,90,0,0
153203,-100,4,2,1,90,0,0
153289,-100,4,2,6,90,0,0
153375,-100,4,2,1,90,0,0
153548,-100,4,2,6,90,0,0
153634,-100,4,2,13,90,0,0
153720,-100,4,2,1,90,0,0
153806,-100,4,2,17,90,0,0
153892,-100,4,2,1,90,0,0
154065,-100,4,2,6,90,0,0
154151,-100,4,2,1,90,0,0
154323,-100,4,2,17,90,0,0
154381,-100,4,2,1,90,0,0
154496,-100,4,2,6,90,0,0
154553,-100,4,2,1,90,0,0
154668,-100,4,2,18,60,0,0
154927,-100,4,2,2,60,0,0
165789,-100,4,2,1,60,0,0
165961,-100,4,2,2,60,0,0
166048,-100,4,2,1,60,0,0
166220,-100,4,2,2,60,0,0
166393,-100,4,2,1,60,0,0
166479,-100,4,2,2,60,0,0
166565,-100,4,2,1,60,0,0
166737,-100,4,2,2,60,0,0
166824,-100,4,2,1,60,0,0
166996,-100,4,2,2,60,0,0
167168,-100,4,2,1,60,0,0
167255,-100,4,2,2,60,0,0
167341,-100,4,2,1,60,0,0
167513,-100,4,2,2,60,0,0
167600,-100,4,2,1,60,0,0
167772,-100,4,2,2,60,0,0
167944,-100,4,2,1,60,0,0
168031,-100,4,2,2,60,0,0
168203,-100,4,2,1,60,0,0
168289,-100,4,2,2,60,0,0
168375,-100,4,2,1,60,0,0
168462,-100,4,2,2,60,0,0
168548,-100,4,2,1,60,0,0
168720,-100,4,2,2,60,0,0
168807,-100,4,2,1,60,0,0
168979,-100,4,2,2,60,0,0
169152,-100,4,2,1,60,0,0
169238,-100,4,2,2,60,0,0
169324,-100,4,2,1,60,0,0
169496,-100,4,2,2,60,0,0
169583,-100,4,2,1,60,0,0
169755,-100,4,2,2,60,0,0
169927,-100,4,2,1,60,0,0
170014,-100,4,2,2,60,0,0
170100,-100,4,2,1,60,0,0
170272,-100,4,2,2,60,0,0
170359,-100,4,2,1,60,0,0
170531,-100,4,2,2,60,0,0
170703,-100,4,2,1,60,0,0
170789,-100,4,2,2,60,0,0
170962,-100,4,2,1,60,0,0
171048,-100,4,2,2,60,0,0
171134,-100,4,2,1,60,0,0
171220,-100,4,2,2,60,0,0
171306,-100,4,2,1,60,0,0
171478,-100,4,2,2,60,0,0
171565,-100,4,2,1,60,0,0
171737,-100,4,2,2,60,0,0
171910,-100,4,2,1,60,0,0
171996,-100,4,2,2,60,0,0
172082,-100,4,2,1,60,0,0
172254,-100,4,2,2,60,0,0
172341,-100,4,2,1,60,0,0
172513,-100,4,2,2,60,0,0
172685,-100,4,2,1,60,0,0
172772,-100,4,2,2,60,0,0
172858,-100,4,2,1,60,0,0
173030,-100,4,2,2,60,0,0
173117,-100,4,2,1,60,0,0
173289,-100,4,2,2,60,0,0
173461,-100,4,2,1,60,0,0
173547,-100,4,2,2,60,0,0
173720,-100,4,2,1,60,0,0
173806,-100,4,2,2,60,0,0
173892,-100,4,2,1,60,0,0
173979,-100,4,2,3,60,0,0
174065,-100,4,2,1,60,0,0
174237,-100,4,2,3,60,0,0
174323,-100,4,2,1,60,0,0
174496,-100,4,2,4,60,0,0
174669,-100,4,2,1,60,0,0
174754,-100,4,2,4,60,0,0
174841,-100,4,2,1,60,0,0
175013,-100,4,2,4,60,0,0
175100,-100,4,2,1,60,0,0
175272,-100,4,2,3,60,0,0
175444,-100,4,2,1,60,0,0
175530,-100,4,2,4,60,0,0
175617,-100,4,2,1,60,0,0
175789,-100,4,2,4,60,0,0
175876,-100,4,2,1,60,0,0
176048,-100,4,2,3,60,0,0
176220,-100,4,2,1,60,0,0
176306,-100,4,2,2,60,0,0
176392,-100,4,2,1,60,0,0
176737,-100,4,2,19,60,0,0
177427,-100,4,2,8,60,0,0
177513,-100,4,2,19,60,0,0
177599,-100,4,2,15,60,0,0
177772,-100,4,2,19,60,0,0
179151,-100,4,2,15,60,0,0
179323,-100,4,2,19,60,0,0
179410,-100,4,2,15,60,0,0
179496,-100,4,2,19,60,0,0
180186,-100,4,2,8,60,0,0
180531,-100,4,2,19,60,0,0
181134,-100,4,2,15,60,0,0
181306,-100,4,2,19,60,0,0
181392,-100,4,2,15,60,0,0
181565,-100,4,2,19,60,0,0
181651,-100,4,2,15,60,0,0
181823,-100,4,2,19,60,0,0
181910,-100,4,2,15,60,0,0
182082,-100,4,2,19,60,0,0
182944,-100,4,2,8,60,0,0
183030,-100,4,2,19,60,0,0
183117,-100,4,2,15,60,0,0
183289,-100,4,2,19,60,0,0
184668,-100,4,2,15,60,0,0
184841,-100,4,2,19,60,0,0
184927,-100,4,2,15,60,0,0
185013,-100,4,2,19,60,0,0
185703,-100,4,2,8,60,0,0
186048,-100,4,2,19,60,0,0
186651,-100,4,2,15,60,0,0
186823,-100,4,2,19,60,0,0
186910,-100,4,2,15,60,0,0
187082,-100,4,2,19,60,0,0
187168,-100,4,2,15,60,0,0
187341,-100,4,2,19,60,0,0
187427,-100,4,2,15,60,0,0
187599,-100,4,2,19,60,0,0
188462,-100,4,2,8,60,0,0
188548,-100,4,2,19,60,0,0
188634,-100,4,2,15,60,0,0
188807,-100,4,2,19,60,0,0
190186,-100,4,2,15,60,0,0
190358,-100,4,2,19,60,0,0
190445,-100,4,2,15,60,0,0
190531,-100,4,2,19,60,0,0
191221,-100,4,2,8,60,0,0
191566,-100,4,2,19,60,0,0
192169,-100,4,2,15,60,0,0
192341,-100,4,2,19,60,0,0
192427,-100,4,2,15,60,0,0
192600,-100,4,2,19,60,0,0
192686,-100,4,2,15,60,0,0
192858,-100,4,2,19,60,0,0
192945,-100,4,2,15,60,0,0
193117,-100,4,2,19,60,0,0
193979,-100,4,2,8,60,0,0
194065,-100,4,2,19,60,0,0
194152,-100,4,2,15,60,0,0
194324,-100,4,2,19,60,0,0
195703,-100,4,2,15,60,0,0
195876,-100,4,2,19,60,0,0
195962,-100,4,2,15,60,0,0
196048,-100,4,2,19,60,0,0
197427,-100,4,2,15,60,0,0
197600,-100,4,2,19,60,0,0
197686,-100,4,2,15,60,0,0
197858,-100,4,2,19,60,0,0
197945,-100,4,2,15,60,0,0
198117,-100,4,2,19,60,0,0
198806,-100,4,2,2,60,0,0
198892,-100,4,2,1,60,0,0
199323,-100,4,2,2,60,0,0
199496,-100,4,2,1,60,0,0
199582,-100,4,2,2,60,0,0
199668,-100,4,2,1,60,0,0
199840,-100,4,2,2,60,0,0
199927,-100,4,2,1,60,0,0
200099,-100,4,2,2,60,0,0
200186,-100,4,2,1,60,0,0
200358,-100,4,2,2,60,0,0
200444,-100,4,2,1,60,0,0
200531,-100,4,2,2,60,0,0
200703,-100,4,2,1,60,0,0
200875,-100,4,2,2,60,0,0
200962,-100,4,2,1,60,0,0
201134,-100,4,2,2,60,0,0
201220,-100,4,2,1,60,0,0
201393,-100,4,2,2,60,0,0
201478,-100,4,2,1,60,0,0
201565,-100,4,2,2,60,0,0
201651,-100,4,2,1,60,0,0
201824,-100,4,2,2,60,0,0
202427,-100,4,2,1,60,0,0
202599,-100,4,2,2,60,0,0
202686,-100,4,2,1,60,0,0
202858,-100,4,2,2,60,0,0
202944,-100,4,2,1,60,0,0
203117,-100,4,2,2,60,0,0
203203,-100,4,2,1,60,0,0
203289,-100,4,2,2,60,0,0
203462,-100,4,2,1,60,0,0
203634,-100,4,2,2,60,0,0
203720,-100,4,2,1,60,0,0
203806,-100,4,2,2,60,0,0
203979,-100,4,2,1,60,0,0
204151,-100,4,2,2,60,0,0
204237,-100,4,2,1,60,0,0
204324,-100,4,2,2,60,0,0
204410,-100,4,2,1,60,0,0
204583,-100,4,2,2,60,0,0
204927,-100,4,2,1,60,0,0
205013,-100,4,2,2,60,0,0
205186,-100,4,2,1,60,0,0
205358,-100,4,2,2,60,0,0
205445,-100,4,2,1,60,0,0
205531,-100,4,2,2,60,0,0
205703,-100,4,2,1,60,0,0
205876,-100,4,2,2,60,0,0
205962,-100,4,2,1,60,0,0
206048,-100,4,2,2,60,0,0
206221,-100,4,2,1,60,0,0
206393,-100,4,2,2,60,0,0
206479,-100,4,2,1,60,0,0
206651,-100,4,2,2,60,0,0
206737,-100,4,2,1,60,0,0
206910,-100,4,2,2,60,0,0
206996,-100,4,2,1,60,0,0
207082,-100,4,2,2,60,0,0
207169,-100,4,2,1,60,0,0
207341,-100,4,2,2,60,0,0
207686,-100,4,2,1,60,0,0
207772,-100,4,2,2,60,0,0
208031,-100,4,2,1,60,0,0
208116,-100,4,2,2,60,0,0
208204,-100,4,2,1,60,0,0
208375,-100,4,2,2,60,0,0
208462,-100,4,2,1,60,0,0
208634,-100,4,2,2,60,0,0
208721,-100,4,2,1,60,0,0
208806,-100,4,2,2,60,0,0
208980,-100,4,2,1,60,0,0
209151,-100,4,2,2,60,0,0
209237,-100,4,2,1,60,0,0
209410,-100,4,2,2,60,0,0
209496,-100,4,2,1,60,0,0
209668,-100,4,2,2,60,0,0
209755,-100,4,2,1,60,0,0
209841,-100,4,2,4,60,0,0
210100,-100,4,2,2,60,0,0
210703,-100,4,2,1,60,0,0
210875,-100,4,2,4,60,0,0
210962,-100,4,2,1,60,0,0
211134,-100,4,2,2,60,0,0
211306,-100,4,2,1,60,0,0
211393,-100,4,2,2,60,0,0
211479,-100,4,2,1,60,0,0
211565,-100,4,2,2,60,0,0
211737,-100,4,2,1,60,0,0
211910,-100,4,2,3,60,0,0
212082,-100,4,2,1,60,0,0
212168,-100,4,2,2,60,0,0
212255,-100,4,2,1,60,0,0
212427,-100,4,2,2,60,0,0
212513,-100,4,2,1,60,0,0
212600,-100,4,2,3,60,0,0
212686,-100,4,2,1,60,0,0
212858,-100,4,2,2,60,0,0
213462,-100,4,2,1,60,0,0
213634,-100,4,2,4,60,0,0
213720,-100,4,2,1,60,0,0
213893,-100,4,2,2,60,0,0
213979,-100,4,2,1,60,0,0
214152,-100,4,2,2,60,0,0
214237,-100,4,2,1,60,0,0
214324,-100,4,2,2,60,0,0
214496,-100,4,2,1,60,0,0
214669,-100,4,2,3,60,0,0
214841,-100,4,2,1,60,0,0
214927,-100,4,2,2,60,0,0
215013,-100,4,2,1,60,0,0
215186,-100,4,2,2,60,0,0
215272,-100,4,2,1,60,0,0
215703,-100,4,2,2,60,0,0
216091,-100,4,2,1,60,0,0
216220,-100,4,2,2,60,0,0
216263,-100,4,2,1,60,0,0
216306,-100,4,2,2,60,0,0
216350,-100,4,2,1,60,0,0
216651,-100,4,2,2,60,0,0
216694,-100,4,2,1,60,0,0
216824,-100,4,2,2,60,0,0
216867,-100,4,2,1,60,0,0
217082,-100,4,2,2,60,0,0
217168,-100,4,2,1,60,0,0
217255,-100,4,2,2,60,0,0
217341,-100,4,2,1,60,0,0
217944,-100,4,2,2,60,0,0
218031,-100,4,2,1,60,0,0
218375,-100,4,2,2,60,0,0
218462,-100,4,2,1,60,0,0
218634,-100,4,2,2,60,0,0
218720,-100,4,2,1,60,0,0
218806,-100,4,2,2,60,0,0
218893,-100,4,2,1,60,0,0
219065,-100,4,2,2,60,0,0
219151,-100,4,2,1,60,0,0
219410,-100,4,2,2,60,0,0
219496,-100,4,2,12,90,0,0
220487,-100,4,2,5,90,0,0
221134,-100,4,2,6,90,0,0
221220,-100,4,2,1,90,0,0
221392,-100,4,2,6,90,0,0
221479,-100,4,2,1,90,0,0
221651,-100,4,2,6,90,0,0
221737,-100,4,2,1,90,0,0
221910,-100,4,2,4,90,0,0
222082,-100,4,2,1,90,0,0
222168,-100,4,2,2,90,0,0
222254,-100,4,2,1,90,0,0
222427,-100,4,2,6,90,0,0
222513,-100,4,2,1,90,0,0
222599,-100,4,2,17,90,0,0
222686,-100,4,2,6,90,0,0
222772,-100,4,2,1,90,0,0
222944,-100,4,2,6,90,0,0
223030,-100,4,2,1,90,0,0
223117,-100,4,2,5,90,0,0
223203,-100,4,2,2,90,0,0
223289,-100,4,2,1,90,0,0
223461,-100,4,2,6,90,0,0
223548,-100,4,2,1,90,0,0
223634,-100,4,2,5,90,0,0
223892,-100,4,2,6,90,0,0
223979,-100,4,2,1,90,0,0
224151,-100,4,2,6,90,0,0
224237,-100,4,2,1,90,0,0
224410,-100,4,2,6,90,0,0
224496,-100,4,2,1,90,0,0
224668,-100,4,2,17,90,0,0
224841,-100,4,2,1,90,0,0
224927,-100,4,2,6,90,0,0
225013,-100,4,2,14,90,0,0
225099,-100,4,2,1,90,0,0
225186,-100,4,2,6,90,0,0
225272,-100,4,2,1,90,0,0
225358,-100,4,2,11,90,0,0
225444,-100,4,2,6,90,0,0
225530,-100,4,2,1,90,0,0
225703,-100,4,2,6,90,0,0
225789,-100,4,2,1,90,0,0
225875,-100,4,2,5,90,0,0
225961,-100,4,2,6,90,0,0
226048,-100,4,2,11,90,0,0
226105,-100,4,2,1,90,0,0
226220,-100,4,2,6,90,0,0
226277,-100,4,2,1,90,0,0
226392,-100,4,2,5,90,0,0
226651,-100,4,2,6,90,0,0
226737,-100,4,2,1,90,0,0
226910,-100,4,2,6,90,0,0
226996,-100,4,2,1,90,0,0
227168,-100,4,2,6,90,0,0
227255,-100,4,2,1,90,0,0
227427,-100,4,2,4,90,0,0
227599,-100,4,2,1,90,0,0
227686,-100,4,2,2,90,0,0
227772,-100,4,2,1,90,0,0
227944,-100,4,2,6,90,0,0
228030,-100,4,2,1,90,0,0
228117,-100,4,2,17,90,0,0
228203,-100,4,2,6,90,0,0
228289,-100,4,2,1,90,0,0
228461,-100,4,2,6,90,0,0
228548,-100,4,2,1,90,0,0
228634,-100,4,2,5,90,0,0
228720,-100,4,2,6,90,0,0
228806,-100,4,2,17,90,0,0
228892,-100,4,2,1,90,0,0
228979,-100,4,2,6,90,0,0
229065,-100,4,2,1,90,0,0
229151,-100,4,2,5,90,0,0
229410,-100,4,2,2,90,0,0
229496,-100,4,2,17,90,0,0
229582,-100,4,2,1,90,0,0
229668,-100,4,2,6,90,0,0
229754,-100,4,2,1,90,0,0
229927,-100,4,2,2,90,0,0
230013,-100,4,2,5,90,0,0
230099,-100,4,2,1,90,0,0
230186,-100,4,2,17,90,0,0
230243,-100,4,2,1,90,0,0
230445,-100,4,2,2,90,0,0
230473,-100,4,2,1,90,0,0
230530,-100,4,2,5,90,0,0
230617,-100,4,2,1,90,0,0
230703,-100,4,2,6,90,0,0
230789,-100,4,2,1,90,0,0
230875,-100,4,2,17,90,0,0
230961,-100,4,2,6,90,0,0
231048,-100,4,2,1,90,0,0
231220,-100,4,2,6,90,0,0
231277,-100,4,2,1,90,0,0
231392,-100,4,2,5,90,0,0
231450,-100,4,2,1,90,0,0
231479,-100,4,2,2,90,0,0
231507,-100,4,2,1,90,0,0
231565,-100,4,2,17,90,0,0
231622,-100,4,2,1,90,0,0
231737,-100,4,2,6,90,0,0
231795,-100,4,2,1,90,0,0
231910,-100,4,2,5,90,0,0
232169,-100,4,2,2,90,0,0
232255,-100,4,2,1,90,0,0
232427,-100,4,2,2,90,0,0
232513,-100,4,2,1,90,0,0
232686,-100,4,2,2,90,0,0
232772,-100,4,2,5,90,0,0
232944,-100,4,2,17,90,0,0
233117,-100,4,2,1,90,0,0
233203,-100,4,2,2,90,0,0
233289,-100,4,2,1,90,0,0
233461,-100,4,2,6,90,0,0
233548,-100,4,2,1,90,0,0
233634,-100,4,2,17,90,0,0
233720,-100,4,2,6,90,0,0
233806,-100,4,2,1,90,0,0
233979,-100,4,2,2,90,0,0
234151,-100,4,2,5,90,0,0
234237,-100,4,2,6,90,0,0
234323,-100,4,2,17,90,0,0
234410,-100,4,2,1,90,0,0
234496,-100,4,2,6,90,0,0
234582,-100,4,2,1,90,0,0
234668,-100,4,2,5,90,0,0
234754,-100,4,2,1,90,0,0
234927,-100,4,2,6,90,0,0
235013,-100,4,2,17,90,0,0
235099,-100,4,2,1,90,0,0
235186,-100,4,2,6,90,0,0
235272,-100,4,2,1,90,0,0
235445,-100,4,2,2,90,0,0
235473,-100,4,2,1,90,0,0
235530,-100,4,2,5,90,0,0
235588,-100,4,2,1,90,0,0
235703,-100,4,2,17,90,0,0
235760,-100,4,2,1,90,0,0
235962,-100,4,2,2,90,0,0
235990,-100,4,2,1,90,0,0
236048,-100,4,2,5,90,0,0
236134,-100,4,2,1,90,0,0
236220,-100,4,2,6,90,0,0
236306,-100,4,2,1,90,0,0
236392,-100,4,2,17,90,0,0
236479,-100,4,2,6,90,0,0
236565,-100,4,2,1,90,0,0
236737,-100,4,2,6,90,0,0
236823,-100,4,2,1,90,0,0
236910,-100,4,2,5,90,0,0
236996,-100,4,2,6,90,0,0
237082,-100,4,2,17,90,0,0
237140,-100,4,2,1,90,0,0
237254,-100,4,2,6,90,0,0
237312,-100,4,2,1,90,0,0
237427,-100,4,2,5,90,0,0
237686,-100,4,2,2,90,0,0
237772,-100,4,2,17,90,0,0
237858,-100,4,2,1,90,0,0
237944,-100,4,2,2,90,0,0
238030,-100,4,2,1,90,0,0
238203,-100,4,2,2,90,0,0
238289,-100,4,2,5,90,0,0
238375,-100,4,2,1,90,0,0
238461,-100,4,2,6,90,0,0
238548,-100,4,2,1,90,0,0
238720,-100,4,2,2,90,0,0
238806,-100,4,2,1,90,0,0
238979,-100,4,2,2,90,0,0
239065,-100,4,2,1,90,0,0
239151,-100,4,2,17,90,0,0
239237,-100,4,2,6,90,0,0
239323,-100,4,2,1,90,0,0
239496,-100,4,2,2,90,0,0
239668,-100,4,2,5,90,0,0
239754,-100,4,2,6,90,0,0
239841,-100,4,2,17,90,0,0
239927,-100,4,2,1,90,0,0
240013,-100,4,2,6,90,0,0
240099,-100,4,2,1,90,0,0
240186,-100,4,2,5,90,0,0
240358,-100,4,2,1,90,0,0
240444,-100,4,2,6,90,0,0
240530,-100,4,2,17,90,0,0
240617,-100,4,2,1,90,0,0
240703,-100,4,2,6,90,0,0
240789,-100,4,2,1,90,0,0
240961,-100,4,2,6,90,0,0
241048,-100,4,2,5,90,0,0
241220,-100,4,2,17,90,0,0
241392,-100,4,2,1,90,0,0
241479,-100,4,2,2,90,0,0
241565,-100,4,2,13,90,0,0
241651,-100,4,2,1,90,0,0
241737,-100,4,2,6,90,0,0
241823,-100,4,2,1,90,0,0
241910,-100,4,2,11,90,0,0
241996,-100,4,2,6,90,0,0
242082,-100,4,2,1,90,0,0
242254,-100,4,2,6,90,0,0
242341,-100,4,2,1,90,0,0
242513,-100,4,2,6,90,0,0
242600,-100,4,2,3,90,0,0
242642,-100,4,2,5,90,0,0
243203,-100,4,2,6,90,0,0
243289,-100,4,2,1,90,0,0
243461,-100,4,2,6,90,0,0
243548,-100,4,2,1,90,0,0
243720,-100,4,2,6,90,0,0
243806,-100,4,2,1,90,0,0
243979,-100,4,2,4,90,0,0
244151,-100,4,2,1,90,0,0
244237,-100,4,2,2,90,0,0
244323,-100,4,2,1,90,0,0
244496,-100,4,2,6,90,0,0
244582,-100,4,2,1,90,0,0
244668,-100,4,2,17,90,0,0
244755,-100,4,2,6,90,0,0
244841,-100,4,2,1,90,0,0
245013,-100,4,2,6,90,0,0
245099,-100,4,2,1,90,0,0
245186,-100,4,2,5,90,0,0
245272,-100,4,2,2,90,0,0
245358,-100,4,2,1,90,0,0
245530,-100,4,2,6,90,0,0
245617,-100,4,2,1,90,0,0
245703,-100,4,2,5,90,0,0
245961,-100,4,2,6,90,0,0
246048,-100,4,2,1,90,0,0
246220,-100,4,2,6,90,0,0
246306,-100,4,2,1,90,0,0
246479,-100,4,2,6,90,0,0
246565,-100,4,2,1,90,0,0
246737,-100,4,2,17,90,0,0
246910,-100,4,2,1,90,0,0
246996,-100,4,2,6,90,0,0
247082,-100,4,2,14,90,0,0
247168,-100,4,2,1,90,0,0
247255,-100,4,2,6,90,0,0
247341,-100,4,2,1,90,0,0
247427,-100,4,2,11,90,0,0
247513,-100,4,2,6,90,0,0
247599,-100,4,2,1,90,0,0
247772,-100,4,2,6,90,0,0
247858,-100,4,2,1,90,0,0
247944,-100,4,2,5,90,0,0
248030,-100,4,2,6,90,0,0
248117,-100,4,2,11,90,0,0
248174,-100,4,2,1,90,0,0
248289,-100,4,2,6,90,0,0
248346,-100,4,2,1,90,0,0
248461,-100,4,2,5,90,0,0
248720,-100,4,2,6,90,0,0
248806,-100,4,2,1,90,0,0
248979,-100,4,2,6,90,0,0
249065,-100,4,2,1,90,0,0
249237,-100,4,2,6,90,0,0
249324,-100,4,2,1,90,0,0
249496,-100,4,2,4,90,0,0
249668,-100,4,2,1,90,0,0
249755,-100,4,2,2,90,0,0
249841,-100,4,2,1,90,0,0
250013,-100,4,2,6,90,0,0
250099,-100,4,2,1,90,0,0
250186,-100,4,2,17,90,0,0
250272,-100,4,2,6,90,0,0
250358,-100,4,2,1,90,0,0
250530,-100,4,2,6,90,0,0
250617,-100,4,2,1,90,0,0
250703,-100,4,2,5,90,0,0
250789,-100,4,2,6,90,0,0
250875,-100,4,2,17,90,0,0
250961,-100,4,2,1,90,0,0
251048,-100,4,2,6,90,0,0
251134,-100,4,2,1,90,0,0
251220,-100,4,2,5,90,0,0
251479,-100,4,2,2,90,0,0
251565,-100,4,2,17,90,0,0
251651,-100,4,2,1,90,0,0
251737,-100,4,2,6,90,0,0
251823,-100,4,2,1,90,0,0
251996,-100,4,2,2,90,0,0
252082,-100,4,2,5,90,0,0
252168,-100,4,2,1,90,0,0
252255,-100,4,2,17,90,0,0
252312,-100,4,2,1,90,0,0
252514,-100,4,2,2,90,0,0
252542,-100,4,2,1,90,0,0
252599,-100,4,2,5,90,0,0
252686,-100,4,2,1,90,0,0
252772,-100,4,2,6,90,0,0
252858,-100,4,2,1,90,0,0
252944,-100,4,2,17,90,0,0
253030,-100,4,2,6,90,0,0
253117,-100,4,2,1,90,0,0
253289,-100,4,2,6,90,0,0
253346,-100,4,2,1,90,0,0
253461,-100,4,2,5,90,0,0
253519,-100,4,2,1,90,0,0
253548,-100,4,2,2,90,0,0
253576,-100,4,2,1,90,0,0
253634,-100,4,2,17,90,0,0
253691,-100,4,2,1,90,0,0
253806,-100,4,2,6,90,0,0
253864,-100,4,2,1,90,0,0
253979,-100,4,2,5,90,0,0
254238,-100,4,2,2,90,0,0
254324,-100,4,2,1,90,0,0
254496,-100,4,2,2,90,0,0
254582,-100,4,2,1,90,0,0
254755,-100,4,2,2,90,0,0
254841,-100,4,2,5,90,0,0
255013,-100,4,2,17,90,0,0
255186,-100,4,2,1,90,0,0
255272,-100,4,2,2,90,0,0
255358,-100,4,2,1,90,0,0
255530,-100,4,2,6,90,0,0
255617,-100,4,2,1,90,0,0
255703,-100,4,2,17,90,0,0
255789,-100,4,2,6,90,0,0
255875,-100,4,2,1,90,0,0
256048,-100,4,2,2,90,0,0
256220,-100,4,2,5,90,0,0
256306,-100,4,2,6,90,0,0
256392,-100,4,2,17,90,0,0
256479,-100,4,2,1,90,0,0
256565,-100,4,2,6,90,0,0
256651,-100,4,2,1,90,0,0
256737,-100,4,2,5,90,0,0
256823,-100,4,2,1,90,0,0
256996,-100,4,2,6,90,0,0
257082,-100,4,2,17,90,0,0
257168,-100,4,2,1,90,0,0
257255,-100,4,2,6,90,0,0
257341,-100,4,2,1,90,0,0
257514,-100,4,2,2,90,0,0
257542,-100,4,2,1,90,0,0
257599,-100,4,2,5,90,0,0
257657,-100,4,2,1,90,0,0
257772,-100,4,2,17,90,0,0
257829,-100,4,2,1,90,0,0
258031,-100,4,2,2,90,0,0
258059,-100,4,2,1,90,0,0
258117,-100,4,2,5,90,0,0
258203,-100,4,2,1,90,0,0
258289,-100,4,2,6,90,0,0
258375,-100,4,2,1,90,0,0
258461,-100,4,2,17,90,0,0
258548,-100,4,2,6,90,0,0
258634,-100,4,2,1,90,0,0
258806,-100,4,2,6,90,0,0
258892,-100,4,2,1,90,0,0
258979,-100,4,2,5,90,0,0
259065,-100,4,2,6,90,0,0
259151,-100,4,2,17,90,0,0
259209,-100,4,2,1,90,0,0
259323,-100,4,2,6,90,0,0
259381,-100,4,2,1,90,0,0
259496,-100,4,2,18,90,0,0
259755,-100,4,2,2,90,0,0
259841,-100,4,2,17,90,0,0
260013,-100,4,2,6,90,0,0
260099,-100,4,2,1,90,0,0
260272,-100,4,2,6,90,0,0
260358,-100,4,2,5,90,0,0
260444,-100,4,2,1,90,0,0
260530,-100,4,2,6,90,0,0
260617,-100,4,2,1,90,0,0
260789,-100,4,2,2,90,0,0
260875,-100,4,2,1,90,0,0
261048,-100,4,2,6,90,0,0
261134,-100,4,2,1,90,0,0
261220,-100,4,2,17,90,0,0
261306,-100,4,2,6,90,0,0
261392,-100,4,2,1,90,0,0
261565,-100,4,2,6,90,0,0
261622,-100,4,2,1,90,0,0
261737,-100,4,2,5,90,0,0
261795,-100,4,2,1,90,0,0
261824,-100,4,2,2,90,0,0
261852,-100,4,2,1,90,0,0
261910,-100,4,2,17,90,0,0
261967,-100,4,2,1,90,0,0
262082,-100,4,2,2,90,0,0
262140,-100,4,2,1,90,0,0
262254,-100,4,2,5,90,0,0
262427,-100,4,2,1,90,0,0
262513,-100,4,2,6,90,0,0
262599,-100,4,2,17,90,0,0
262686,-100,4,2,1,90,0,0
262772,-100,4,2,6,90,0,0
262858,-100,4,2,1,90,0,0
263030,-100,4,2,6,90,0,0
263117,-100,4,2,5,90,0,0
263289,-100,4,2,17,90,0,0
263461,-100,4,2,1,90,0,0
263548,-100,4,2,6,90,0,0
263634,-100,4,2,13,90,0,0
263720,-100,4,2,1,90,0,0
263806,-100,4,2,6,90,0,0
263892,-100,4,2,1,90,0,0
263979,-100,4,2,11,90,0,0
264065,-100,4,2,6,90,0,0
264151,-100,4,2,1,90,0,0
264324,-100,4,2,2,90,0,0
264410,-100,4,2,1,90,0,0
264496,-100,4,2,5,90,0,0
264582,-100,4,2,6,90,0,0
264668,-100,4,2,5,90,0,0
265013,-100,4,2,5,80,0,0
265272,-100,4,2,6,80,0,0
265358,-100,4,2,1,80,0,0
265531,-100,4,2,2,80,0,0
265617,-100,4,2,1,80,0,0
265789,-100,4,2,2,80,0,0
265876,-100,4,2,1,80,0,0
266048,-100,4,2,3,80,0,0
266134,-100,4,2,1,80,0,0
266220,-100,4,2,6,80,0,0
266479,-100,4,2,1,80,0,0
266565,-100,4,2,5,80,0,0
266651,-100,4,2,6,80,0,0
266738,-100,4,2,1,80,0,0
266910,-100,4,2,6,80,0,0
266996,-100,4,2,1,80,0,0
267169,-100,4,2,2,80,0,0
267255,-100,4,2,1,80,0,0
267427,-100,4,2,4,80,0,0
267513,-100,4,2,1,80,0,0
267600,-100,4,2,6,80,0,0
267772,-100,4,2,7,80,0,0
268031,-100,4,2,6,80,0,0
268117,-100,4,2,1,80,0,0
268290,-100,4,2,2,80,0,0
268376,-100,4,2,1,80,0,0
268548,-100,4,2,2,80,0,0
268635,-100,4,2,1,80,0,0
268807,-100,4,2,3,80,0,0
268893,-100,4,2,1,80,0,0
268979,-100,4,2,6,80,0,0
269065,-100,4,2,1,80,0,0
269152,-100,4,2,6,80,0,0
269238,-100,4,2,1,80,0,0
269324,-100,4,2,5,80,0,0
269410,-100,4,2,6,80,0,0
269497,-100,4,2,1,80,0,0
269669,-100,4,2,6,80,0,0
269755,-100,4,2,1,80,0,0
269928,-100,4,2,2,80,0,0
270014,-100,4,2,1,80,0,0
270186,-100,4,2,4,80,0,0
270272,-100,4,2,1,80,0,0
270359,-100,4,2,6,80,0,0
270531,-100,4,2,7,80,0,0
270790,-100,4,2,6,80,0,0
270876,-100,4,2,1,80,0,0
271049,-100,4,2,2,80,0,0
271135,-100,4,2,1,80,0,0
271307,-100,4,2,2,80,0,0
271394,-100,4,2,1,80,0,0
271566,-100,4,2,3,80,0,0
271652,-100,4,2,1,80,0,0
271738,-100,4,2,6,80,0,0
271824,-100,4,2,1,80,0,0
271911,-100,4,2,6,80,0,0
271997,-100,4,2,1,80,0,0
272083,-100,4,2,5,80,0,0
272169,-100,4,2,6,80,0,0
272256,-100,4,2,1,80,0,0
272428,-100,4,2,6,80,0,0
272514,-100,4,2,1,80,0,0
272687,-100,4,2,2,80,0,0
272773,-100,4,2,1,80,0,0
272945,-100,4,2,4,80,0,0
273031,-100,4,2,1,80,0,0
273118,-100,4,2,6,80,0,0
273289,-100,4,2,7,80,0,0
273548,-100,4,2,6,80,0,0
273634,-100,4,2,1,80,0,0
273807,-100,4,2,2,80,0,0
273893,-100,4,2,1,80,0,0
274065,-100,4,2,2,80,0,0
274152,-100,4,2,1,80,0,0
274324,-100,4,2,3,80,0,0
274410,-100,4,2,1,80,0,0
274496,-100,4,2,6,80,0,0
274582,-100,4,2,1,80,0,0
274669,-100,4,2,6,80,0,0
274755,-100,4,2,1,80,0,0
274841,-100,4,2,5,80,0,0
274927,-100,4,2,6,80,0,0
275014,-100,4,2,1,80,0,0
275186,-100,4,2,6,80,0,0
275272,-100,4,2,1,80,0,0
275445,-100,4,2,2,80,0,0
275531,-100,4,2,1,80,0,0
275703,-100,4,2,4,80,0,0
275789,-100,4,2,1,80,0,0
275876,-100,4,2,6,80,0,0
276048,-100,4,2,8,80,0,0
276134,-100,4,2,1,80,0,0
276307,-100,4,2,9,80,0,0
276393,-100,4,2,1,80,0,0
276566,-100,4,2,2,80,0,0
276652,-100,4,2,1,80,0,0
276738,-100,4,2,9,80,0,0
276824,-100,4,2,2,80,0,0
276997,-100,4,2,1,80,0,0
277083,-100,4,2,3,80,0,0
277169,-100,4,2,2,80,0,0
277255,-100,4,2,9,80,0,0
277341,-100,4,2,1,80,0,0
277428,-100,4,2,6,80,0,0
277514,-100,4,2,9,80,0,0
277600,-100,4,2,5,80,0,0
277686,-100,4,2,9,80,0,0
277772,-100,4,2,1,80,0,0
277945,-100,4,2,9,80,0,0
278031,-100,4,2,1,80,0,0
278117,-100,4,2,9,80,0,0
278204,-100,4,2,2,80,0,0
278376,-100,4,2,9,80,0,0
278462,-100,4,2,4,80,0,0
278548,-100,4,2,2,80,0,0
278635,-100,4,2,9,80,0,0
278720,-100,4,2,1,80,0,0
278807,-100,4,2,10,80,0,0
278893,-100,4,2,1,80,0,0
279066,-100,4,2,9,80,0,0
279152,-100,4,2,1,80,0,0
279325,-100,4,2,2,80,0,0
279411,-100,4,2,1,80,0,0
279497,-100,4,2,9,80,0,0
279583,-100,4,2,2,80,0,0
279756,-100,4,2,1,80,0,0
279842,-100,4,2,3,80,0,0
279928,-100,4,2,2,80,0,0
280014,-100,4,2,9,80,0,0
280100,-100,4,2,2,80,0,0
280187,-100,4,2,6,80,0,0
280273,-100,4,2,9,80,0,0
280359,-100,4,2,5,80,0,0
280445,-100,4,2,9,80,0,0
280531,-100,4,2,1,80,0,0
280704,-100,4,2,9,80,0,0
280790,-100,4,2,1,80,0,0
280876,-100,4,2,9,80,0,0
280963,-100,4,2,2,80,0,0
281135,-100,4,2,9,80,0,0
281221,-100,4,2,4,80,0,0
281307,-100,4,2,2,80,0,0
281394,-100,4,2,9,80,0,0
281479,-100,4,2,1,80,0,0
281566,-100,4,2,10,80,0,0
281651,-100,4,2,1,80,0,0
281825,-100,4,2,9,80,0,0
281910,-100,4,2,1,80,0,0
282084,-100,4,2,2,80,0,0
282170,-100,4,2,1,80,0,0
282256,-100,4,2,9,80,0,0
282342,-100,4,2,2,80,0,0
282515,-100,4,2,1,80,0,0
282601,-100,4,2,3,80,0,0
282687,-100,4,2,2,80,0,0
282773,-100,4,2,9,80,0,0
282859,-100,4,2,2,80,0,0
282946,-100,4,2,6,80,0,0
283032,-100,4,2,9,80,0,0
283118,-100,4,2,5,80,0,0
283204,-100,4,2,9,80,0,0
283289,-100,4,2,1,80,0,0
283463,-100,4,2,9,80,0,0
283549,-100,4,2,1,80,0,0
283635,-100,4,2,9,80,0,0
283722,-100,4,2,2,80,0,0
283894,-100,4,2,9,80,0,0
283980,-100,4,2,4,80,0,0
284066,-100,4,2,2,80,0,0
284153,-100,4,2,9,80,0,0
284237,-100,4,2,1,80,0,0
284324,-100,4,2,10,80,0,0
284410,-100,4,2,1,80,0,0
284583,-100,4,2,9,80,0,0
284669,-100,4,2,1,80,0,0
284842,-100,4,2,2,80,0,0
284928,-100,4,2,1,80,0,0
285014,-100,4,2,9,80,0,0
285100,-100,4,2,2,80,0,0
285273,-100,4,2,1,80,0,0
285359,-100,4,2,3,80,0,0
285445,-100,4,2,2,80,0,0
285531,-100,4,2,9,80,0,0
285617,-100,4,2,2,80,0,0
285704,-100,4,2,6,80,0,0
285790,-100,4,2,9,80,0,0
285876,-100,4,2,5,80,0,0
285962,-100,4,2,9,80,0,0
286048,-100,4,2,1,80,0,0
286221,-100,4,2,9,80,0,0
286307,-100,4,2,1,80,0,0
286393,-100,4,2,9,80,0,0
286480,-100,4,2,2,80,0,0
286652,-100,4,2,9,80,0,0
286738,-100,4,2,4,80,0,0
286824,-100,4,2,2,80,0,0
286911,-100,4,2,9,80,0,0
286996,-100,4,2,1,80,0,0
287082,-100,4,2,5,80,0,0
287341,-100,4,2,1,80,0,0
287944,-100,4,2,2,80,0,0
288030,-100,4,2,1,80,0,0
288634,-100,4,2,2,80,0,0
288720,-100,4,2,1,80,0,0
289323,-100,4,2,2,80,0,0
289410,-100,4,2,1,80,0,0
290703,-100,4,2,2,80,0,0
290789,-100,4,2,1,80,0,0
291393,-100,4,2,2,80,0,0
291479,-100,4,2,1,80,0,0
292082,-100,4,2,2,80,0,0
292169,-100,4,2,1,80,0,0
293461,-100,4,2,2,80,0,0
293547,-100,4,2,1,80,0,0
294151,-100,4,2,2,80,0,0
294237,-100,4,2,1,80,0,0
294840,-100,4,2,2,80,0,0
294927,-100,4,2,1,80,0,0
296220,-100,4,2,2,80,0,0
296306,-100,4,2,1,80,0,0
296910,-100,4,2,2,80,0,0
296996,-100,4,2,1,80,0,0
297599,-100,4,2,2,80,0,0
297686,-100,4,2,1,80,0,0
298979,-100,4,2,2,80,0,0
299065,-100,4,2,1,80,0,0
299669,-100,4,2,2,80,0,0
299755,-100,4,2,1,80,0,0
300358,-100,4,2,2,80,0,0
300445,-100,4,2,1,80,0,0
301737,-100,4,2,2,80,0,0
301823,-100,4,2,1,80,0,0
302427,-100,4,2,2,80,0,0
302513,-100,4,2,1,80,0,0
303116,-100,4,2,2,80,0,0
303203,-100,4,2,1,80,0,0
304496,-100,4,2,2,80,0,0
304582,-100,4,2,1,80,0,0
305186,-100,4,2,2,80,0,0
305272,-100,4,2,1,80,0,0
305875,-100,4,2,2,80,0,0
305962,-100,4,2,1,80,0,0
307254,-100,4,2,2,80,0,0
307340,-100,4,2,1,80,0,0
307772,-100,4,2,2,80,0,0
307858,-100,4,2,1,80,0,0
307944,-100,4,2,2,80,0,0
308030,-100,4,2,1,80,0,0
308117,-100,4,2,3,80,0,0
308203,-100,4,2,1,80,0,0
308461,-100,4,2,2,80,0,0
308548,-100,4,2,1,80,0,0
308634,-100,4,2,20,80,0,0
308720,-100,4,2,2,80,0,0
308806,-100,4,2,3,80,0,0
308892,-100,4,2,2,80,0,0
308979,-100,4,2,5,90,0,0

[Colours]
Combo1 : 255,128,255
Combo2 : 255,121,121
Combo3 : 128,0,128
Combo4 : 242,24,57

[HitObjects]
256,192,186,5,2,0:2:0:0:
256,192,530,5,6,0:2:0:0:
256,192,875,5,2,0:2:0:0:
256,192,1220,5,2,0:2:0:0:
256,192,1565,5,2,0:2:0:0:
256,192,1910,5,2,0:2:0:0:
256,192,2254,5,2,0:2:0:0:
256,192,2599,5,2,0:2:0:0:
256,192,2944,5,2,0:2:0:0:
256,192,3289,5,2,0:2:0:0:
256,192,3634,5,2,0:2:0:0:
256,192,3979,5,2,0:2:0:0:
256,192,4323,5,2,0:2:0:0:
256,192,4668,5,2,0:2:0:0:
256,192,5013,5,2,0:2:0:0:
256,192,5358,5,2,0:2:0:0:
256,192,5703,5,2,0:2:0:0:
256,192,5875,5,8,0:2:0:0:
256,192,6048,5,2,0:2:0:0:
256,192,6220,5,8,0:2:0:0:
256,192,6306,5,8,0:2:0:0:
256,192,6392,5,2,0:2:0:0:
256,192,6565,5,8,0:2:0:0:
256,192,6737,5,2,0:2:0:0:
256,192,6910,5,8,0:2:0:0:
256,192,7082,5,2,0:2:0:0:
256,192,7168,5,8,0:2:0:0:
256,192,7254,5,8,0:2:0:0:
256,192,7341,5,8,0:2:0:0:
256,192,7427,5,2,0:2:0:0:
256,192,7599,5,8,0:2:0:0:
256,192,7686,5,8,0:2:0:0:
256,192,7772,5,2,0:2:0:0:
256,192,7858,5,8,0:2:0:0:
256,192,7944,5,8,0:2:0:0:
256,192,8117,5,2,0:2:0:0:
256,192,8289,5,8,0:2:0:0:
256,192,8461,5,2,0:2:0:0:
256,192,8634,5,8,0:2:0:0:
256,192,8806,5,2,0:2:0:0:
256,192,8979,5,8,0:2:0:0:
256,192,9065,5,8,0:2:0:0:
256,192,9151,5,2,0:2:0:0:
256,192,9323,5,8,0:2:0:0:
256,192,9496,5,2,0:2:0:0:
256,192,9668,5,8,0:2:0:0:
256,192,9841,5,2,0:2:0:0:
256,192,9927,5,8,0:2:0:0:
256,192,10013,5,8,0:2:0:0:
256,192,10099,5,8,0:2:0:0:
256,192,10186,5,2,0:2:0:0:
256,192,10358,5,8,0:2:0:0:
256,192,10444,5,8,0:2:0:0:
256,192,10530,5,2,0:2:0:0:
256,192,10617,5,8,0:2:0:0:
256,192,10703,5,8,0:2:0:0:
256,192,10789,5,8,0:2:0:0:
256,192,10875,5,2,0:2:0:0:
256,192,11048,5,8,0:2:0:0:
256,192,11220,5,6,0:2:0:0:
256,192,11306,5,2,0:3:0:0:
256,192,11392,5,4,0:2:0:0:
256,192,11479,5,2,0:3:0:0:
256,192,11565,5,2,0:3:0:0:
256,192,11737,5,14,0:2:0:0:
256,192,11823,5,8,0:2:0:0:
256,192,11910,5,14,0:2:0:0:
256,192,12082,5,2,0:3:0:0:
256,192,12168,5,2,0:3:0:0:
256,192,12254,5,4,0:2:0:0:
256,192,12341,5,2,0:3:0:0:
256,192,12427,5,4,0:2:0:0:
256,192,12513,5,2,0:3:0:0:
256,192,12599,5,8,0:2:0:0:
256,192,12686,5,2,0:3:0:0:
256,192,12772,5,4,0:2:0:0:
256,192,12858,5,2,0:3:0:0:
256,192,12944,5,6,0:2:0:0:
256,192,13117,5,2,0:3:0:0:
256,192,13203,5,8,0:2:0:0:
256,192,13289,5,4,0:2:0:0:
256,192,13375,5,10,0:2:0:0:
256,192,13461,5,2,0:3:0:0:
256,192,13548,5,8,0:2:0:0:
256,192,13634,5,4,0:2:0:0:
256,192,13720,5,2,0:3:0:0:
256,192,13806,5,2,0:3:0:0:
256,192,13892,5,2,0:3:0:0:
256,192,13979,5,6,0:2:0:0:
256,192,14065,5,2,0:3:0:0:
256,192,14151,5,4,0:2:0:0:
256,192,14237,5,2,0:3:0:0:
256,192,14323,5,10,0:2:0:0:
256,192,14496,5,6,0:2:0:0:
256,192,14582,5,8,0:2:0:0:
256,192,14668,5,6,0:2:0:0:
256,192,14841,5,10,0:2:0:0:
256,192,14927,5,2,0:3:0:0:
256,192,15013,5,4,0:2:0:0:
256,192,15099,5,2,0:3:0:0:
256,192,15186,5,4,0:2:0:0:
256,192,15272,5,2,0:3:0:0:
256,192,15358,5,8,0:2:0:0:
256,192,15444,5,2,0:3:0:0:
256,192,15531,5,4,0:2:0:0:
256,192,15617,5,2,0:3:0:0:
256,192,15703,5,6,0:2:0:0:
256,192,15875,5,2,0:3:0:0:
256,192,15961,5,8,0:2:0:0:
256,192,16048,5,6,0:2:0:0:
256,192,16134,5,8,0:2:0:0:
256,192,16220,5,2,0:3:0:0:
256,192,16306,5,2,0:3:0:0:
256,192,16393,5,4,0:2:0:0:
256,192,16479,5,2,0:3:0:0:
256,192,16565,5,10,0:2:0:0:
256,192,16651,5,2,0:3:0:0:
256,192,16737,5,6,0:2:0:0:
256,192,16823,5,2,0:3:0:0:
256,192,16909,5,4,0:2:0:0:
256,192,16996,5,2,0:3:0:0:
256,192,17082,5,10,0:2:0:0:
256,192,17254,5,6,0:2:0:0:
256,192,17341,5,8,0:2:0:0:
256,192,17427,5,6,0:2:0:0:
256,192,17599,5,2,0:3:0:0:
256,192,17686,5,2,0:3:0:0:
256,192,17771,5,4,0:2:0:0:
256,192,17858,5,2,0:3:0:0:
256,192,17944,5,4,0:2:0:0:
256,192,18030,5,2,0:3:0:0:
256,192,18117,5,8,0:2:0:0:
256,192,18203,5,2,0:3:0:0:
256,192,18289,5,6,0:2:0:0:
256,192,18375,5,2,0:3:0:0:
256,192,18461,5,6,0:2:0:0:
256,192,18634,5,2,0:3:0:0:
256,192,18806,5,6,0:2:0:0:
256,192,18979,5,2,0:3:0:0:
256,192,19065,5,2,0:3:0:0:
256,192,19151,5,4,0:2:0:0:
256,192,19237,5,2,0:3:0:0:
256,192,19323,5,2,0:3:0:0:
256,192,19410,5,2,0:3:0:0:
256,192,19496,5,6,0:2:0:0:
256,192,19582,5,2,0:3:0:0:
256,192,19668,5,4,0:2:0:0:
256,192,19754,5,2,0:3:0:0:
256,192,19841,5,2,0:3:0:0:
256,192,20013,5,6,0:2:0:0:
256,192,20186,5,6,0:2:0:0:
256,192,20358,5,2,0:3:0:0:
256,192,20444,5,2,0:3:0:0:
256,192,20530,5,4,0:2:0:0:
256,192,20617,5,2,0:3:0:0:
256,192,20703,5,4,0:2:0:0:
256,192,20789,5,2,0:3:0:0:
256,192,20875,5,8,0:1:0:0:
256,192,20961,5,2,0:3:0:0:
256,192,21048,5,4,0:2:0:0:
256,192,21134,5,4,0:3:0:0:
256,192,21220,5,8,0:2:0:0:
256,192,21306,5,8,0:2:0:0:
256,192,21392,5,8,0:1:0:0:
256,192,21479,5,8,0:2:0:0:
256,192,21565,5,8,0:1:0:0:
256,192,21651,5,8,0:2:0:0:
256,192,21737,5,2,0:2:0:0:
256,192,21823,5,8,0:2:0:0:
256,192,21910,5,8,0:1:0:0:
256,192,22082,5,8,0:2:0:0:
256,192,22254,5,6,0:2:0:0:
256,192,22513,5,6,0:2:0:0:
256,192,22599,5,8,0:1:0:0:
256,192,22772,5,4,0:2:0:0:
256,192,22858,5,8,0:2:0:0:
256,192,22944,5,2,0:2:0:0:
256,192,23030,5,4,0:2:0:0:
256,192,23117,5,2,0:1:0:0:
256,192,23203,5,2,0:2:0:0:
256,192,23289,5,12,0:2:0:0:
256,192,23375,5,8,0:2:0:0:
256,192,23461,5,14,0:2:0:0:
256,192,23634,5,6,0:2:0:0:
256,192,23720,5,2,0:2:0:0:
256,192,23806,5,2,0:2:0:0:
256,192,23892,5,6,0:2:0:0:
256,192,23979,5,8,0:1:0:0:
256,192,24065,5,8,0:2:0:0:
256,192,24151,5,6,0:2:0:0:
256,192,24237,5,8,0:2:0:0:
256,192,24323,5,2,0:2:0:0:
256,192,24410,5,4,0:2:0:0:
256,192,24496,5,2,0:1:0:0:
256,192,24582,5,2,0:2:0:0:
256,192,24668,5,12,0:2:0:0:
256,192,24754,5,8,0:2:0:0:
256,192,24841,5,6,0:2:0:0:
256,192,25013,5,6,0:2:0:0:
256,192,25272,5,6,0:2:0:0:
256,192,25358,5,8,0:1:0:0:
256,192,25531,5,4,0:2:0:0:
256,192,25617,5,8,0:2:0:0:
256,192,25703,5,2,0:2:0:0:
256,192,25789,5,4,0:2:0:0:
256,192,25876,5,2,0:1:0:0:
256,192,25962,5,2,0:2:0:0:
256,192,26048,5,12,0:2:0:0:
256,192,26134,5,8,0:2:0:0:
256,192,26220,5,14,0:2:0:0:
256,192,26306,5,8,0:2:0:0:
256,192,26393,5,6,0:2:0:0:
256,192,26479,5,2,0:2:0:0:
256,192,26565,5,2,0:2:0:0:
256,192,26651,5,6,0:2:0:0:
256,192,26738,5,8,0:1:0:0:
256,192,26824,5,8,0:2:0:0:
256,192,26910,5,6,0:2:0:0:
256,192,26996,5,8,0:2:0:0:
256,192,27082,5,2,0:2:0:0:
256,192,27169,5,4,0:2:0:0:
256,192,27255,5,2,0:1:0:0:
256,192,27341,5,2,0:2:0:0:
256,192,27427,5,12,0:2:0:0:
256,192,27513,5,8,0:2:0:0:
256,192,27600,5,6,0:2:0:0:
256,192,27772,5,6,0:2:0:0:
256,192,28031,5,6,0:2:0:0:
256,192,28117,5,8,0:1:0:0:
256,192,28290,5,4,0:2:0:0:
256,192,28376,5,8,0:2:0:0:
256,192,28462,5,2,0:2:0:0:
256,192,28548,5,4,0:2:0:0:
256,192,28635,5,2,0:1:0:0:
256,192,28721,5,2,0:2:0:0:
256,192,28807,5,12,0:2:0:0:
256,192,28893,5,8,0:2:0:0:
256,192,28979,5,14,0:2:0:0:
256,192,29065,5,8,0:2:0:0:
256,192,29152,5,6,0:2:0:0:
256,192,29238,5,2,0:2:0:0:
256,192,29324,5,2,0:2:0:0:
256,192,29410,5,6,0:2:0:0:
256,192,29497,5,8,0:1:0:0:
256,192,29583,5,8,0:2:0:0:
256,192,29669,5,6,0:2:0:0:
256,192,29755,5,8,0:2:0:0:
256,192,29841,5,2,0:2:0:0:
256,192,29928,5,4,0:2:0:0:
256,192,30014,5,2,0:1:0:0:
256,192,30100,5,2,0:2:0:0:
256,192,30186,5,12,0:2:0:0:
256,192,30272,5,8,0:2:0:0:
256,192,30359,5,6,0:2:0:0:
256,192,30530,5,6,0:2:0:0:
256,192,30789,5,6,0:2:0:0:
256,192,30875,5,8,0:1:0:0:
256,192,31048,5,4,0:2:0:0:
256,192,31134,5,8,0:2:0:0:
256,192,31220,5,2,0:2:0:0:
256,192,31306,5,4,0:2:0:0:
256,192,31393,5,2,0:1:0:0:
256,192,31479,5,2,0:2:0:0:
256,192,31565,5,12,0:2:0:0:
256,192,31651,5,8,0:2:0:0:
256,192,31737,5,14,0:2:0:0:
256,192,31823,5,8,0:2:0:0:
256,192,31910,5,6,0:2:0:0:
256,192,31996,5,2,0:2:0:0:
256,192,32082,5,2,0:2:0:0:
256,192,32168,5,6,0:2:0:0:
256,192,32255,5,8,0:1:0:0:
256,192,32341,5,8,0:2:0:0:
256,192,32427,5,6,0:2:0:0:
256,192,32513,5,8,0:2:0:0:
256,192,32599,5,2,0:2:0:0:
256,192,32686,5,4,0:2:0:0:
256,192,32772,5,2,0:1:0:0:
256,192,32858,5,2,0:2:0:0:
256,192,32944,5,12,0:2:0:0:
256,192,33030,5,8,0:2:0:0:
256,192,33117,5,6,0:2:0:0:
256,192,33289,5,6,0:2:0:0:
256,192,33375,5,2,0:3:0:0:
256,192,33548,5,6,0:2:0:0:
256,192,33634,5,10,0:3:0:0:
256,192,33807,5,4,0:2:0:0:
256,192,33893,5,8,0:2:0:0:
256,192,33979,5,2,0:2:0:0:
256,192,34065,5,4,0:2:0:0:
256,192,34151,5,2,0:3:0:0:
256,192,34238,5,2,0:2:0:0:
256,192,34324,5,12,0:2:0:0:
256,192,34410,5,10,0:2:0:0:
256,192,34496,5,14,0:2:0:0:
256,192,34582,5,2,0:3:0:0:
256,192,34669,5,6,0:2:0:0:
256,192,34755,5,2,0:2:0:0:
256,192,34841,5,2,0:2:0:0:
256,192,34927,5,6,0:2:0:0:
256,192,35013,5,10,0:3:0:0:
256,192,35100,5,8,0:2:0:0:
256,192,35186,5,6,0:2:0:0:
256,192,35272,5,8,0:2:0:0:
256,192,35358,5,2,0:2:0:0:
256,192,35445,5,4,0:2:0:0:
256,192,35530,5,2,0:3:0:0:
256,192,35617,5,2,0:2:0:0:
256,192,35703,5,12,0:2:0:0:
256,192,35789,5,10,0:2:0:0:
256,192,35876,5,6,0:2:0:0:
256,192,35961,5,2,0:3:0:0:
256,192,36048,5,6,0:2:0:0:
256,192,36134,5,2,0:3:0:0:
256,192,36307,5,6,0:2:0:0:
256,192,36393,5,10,0:3:0:0:
256,192,36566,5,4,0:2:0:0:
256,192,36652,5,8,0:2:0:0:
256,192,36738,5,2,0:2:0:0:
256,192,36824,5,4,0:2:0:0:
256,192,36910,5,2,0:3:0:0:
256,192,36997,5,2,0:2:0:0:
256,192,37083,5,12,0:2:0:0:
256,192,37169,5,10,0:2:0:0:
256,192,37255,5,14,0:2:0:0:
256,192,37341,5,10,0:2:0:0:
256,192,37428,5,6,0:2:0:0:
256,192,37514,5,2,0:2:0:0:
256,192,37600,5,2,0:2:0:0:
256,192,37686,5,6,0:2:0:0:
256,192,37772,5,10,0:3:0:0:
256,192,37859,5,8,0:2:0:0:
256,192,37945,5,6,0:2:0:0:
256,192,38031,5,8,0:2:0:0:
256,192,38117,5,2,0:2:0:0:
256,192,38204,5,4,0:2:0:0:
256,192,38289,5,2,0:3:0:0:
256,192,38376,5,2,0:2:0:0:
256,192,38462,5,12,0:2:0:0:
256,192,38548,5,10,0:2:0:0:
256,192,38635,5,6,0:2:0:0:
256,192,38720,5,2,0:3:0:0:
256,192,38807,5,6,0:2:0:0:
256,192,38892,5,2,0:3:0:0:
256,192,39066,5,6,0:2:0:0:
256,192,39151,5,10,0:3:0:0:
256,192,39325,5,4,0:2:0:0:
256,192,39411,5,8,0:2:0:0:
256,192,39497,5,2,0:2:0:0:
256,192,39583,5,4,0:2:0:0:
256,192,39668,5,2,0:3:0:0:
256,192,39756,5,2,0:2:0:0:
256,192,39842,5,12,0:2:0:0:
256,192,39928,5,10,0:2:0:0:
256,192,40014,5,14,0:2:0:0:
256,192,40100,5,10,0:2:0:0:
256,192,40187,5,6,0:2:0:0:
256,192,40273,5,2,0:2:0:0:
256,192,40359,5,2,0:2:0:0:
256,192,40445,5,6,0:2:0:0:
256,192,40530,5,10,0:3:0:0:
256,192,40618,5,8,0:2:0:0:
256,192,40704,5,6,0:2:0:0:
256,192,40790,5,8,0:2:0:0:
256,192,40876,5,2,0:2:0:0:
256,192,40963,5,4,0:2:0:0:
256,192,41047,5,2,0:3:0:0:
256,192,41135,5,2,0:2:0:0:
256,192,41221,5,12,0:2:0:0:
256,192,41307,5,10,0:2:0:0:
256,192,41394,5,6,0:2:0:0:
256,192,41478,5,2,0:3:0:0:
256,192,41565,5,6,0:2:0:0:
256,192,41651,5,2,0:3:0:0:
256,192,41824,5,6,0:2:0:0:
256,192,41910,5,10,0:3:0:0:
256,192,42083,5,4,0:2:0:0:
256,192,42169,5,8,0:2:0:0:
256,192,42255,5,2,0:2:0:0:
256,192,42341,5,4,0:2:0:0:
256,192,42427,5,2,0:3:0:0:
256,192,42514,5,2,0:2:0:0:
256,192,42600,5,12,0:2:0:0:
256,192,42686,5,10,0:2:0:0:
256,192,42772,5,14,0:2:0:0:
256,192,42858,5,10,0:2:0:0:
256,192,42945,5,6,0:2:0:0:
256,192,43031,5,2,0:2:0:0:
256,192,43117,5,2,0:2:0:0:
256,192,43203,5,6,0:2:0:0:
256,192,43289,5,10,0:3:0:0:
256,192,43376,5,8,0:2:0:0:
256,192,43462,5,6,0:2:0:0:
256,192,43548,5,8,0:2:0:0:
256,192,43634,5,2,0:2:0:0:
256,192,43721,5,4,0:2:0:0:
256,192,43806,5,2,0:3:0:0:
256,192,43893,5,2,0:2:0:0:
256,192,43979,5,12,0:2:0:0:
256,192,44065,5,10,0:2:0:0:
256,192,44152,5,6,0:2:0:0:
256,192,44237,5,2,0:3:0:0:
256,192,44323,5,6,0:2:0:0:
256,192,44582,5,4,0:2:0:0:
256,192,44841,5,6,0:2:0:0:
256,192,45099,5,4,0:2:0:0:
256,192,45186,5,2,0:2:0:0:
256,192,45358,5,6,0:2:0:0:
256,192,45617,5,4,0:2:0:0:
256,192,45875,5,4,0:2:0:0:
256,192,46134,5,4,0:2:0:0:
256,192,46392,5,4,0:2:0:0:
256,192,46651,5,4,0:2:0:0:
256,192,46737,5,2,0:2:0:0:
256,192,46910,5,6,0:2:0:0:
256,192,46996,5,2,0:2:0:0:
256,192,47082,5,6,0:2:0:0:
256,192,47341,5,4,0:2:0:0:
256,192,47600,5,4,0:2:0:0:
256,192,47858,5,4,0:2:0:0:
256,192,48117,5,4,0:2:0:0:
256,192,48376,5,4,0:2:0:0:
256,192,48634,5,6,0:2:0:0:
256,192,48720,5,2,0:2:0:0:
256,192,48806,5,2,0:2:0:0:
256,192,48892,5,6,0:2:0:0:
256,192,48979,5,2,0:2:0:0:
256,192,49151,5,6,0:2:0:0:
256,192,49237,5,2,0:2:0:0:
256,192,49323,5,2,0:2:0:0:
256,192,49410,5,6,0:2:0:0:
256,192,49496,5,2,0:2:0:0:
256,192,49582,5,2,0:2:0:0:
256,192,49668,5,6,0:2:0:0:
256,192,49841,5,6,0:2:0:0:
256,192,50099,5,4,0:2:0:0:
256,192,50358,5,6,0:2:0:0:
256,192,50617,5,4,0:2:0:0:
256,192,50703,5,2,0:2:0:0:
256,192,50875,5,6,0:2:0:0:
256,192,51134,5,4,0:2:0:0:
256,192,51393,5,4,0:2:0:0:
256,192,51651,5,4,0:2:0:0:
256,192,51910,5,4,0:2:0:0:
256,192,52168,5,4,0:2:0:0:
256,192,52254,5,2,0:2:0:0:
256,192,52427,5,6,0:2:0:0:
256,192,52513,5,2,0:2:0:0:
256,192,52599,5,6,0:2:0:0:
256,192,52857,5,4,0:2:0:0:
256,192,53116,5,4,0:2:0:0:
256,192,53375,5,4,0:2:0:0:
256,192,53633,5,4,0:2:0:0:
256,192,53892,5,4,0:2:0:0:
256,192,54151,5,6,0:2:0:0:
256,192,54237,5,2,0:2:0:0:
256,192,54323,5,2,0:2:0:0:
256,192,54410,5,6,0:2:0:0:
256,192,54496,5,2,0:2:0:0:
256,192,54668,5,6,0:2:0:0:
256,192,54754,5,2,0:2:0:0:
256,192,54841,5,2,0:2:0:0:
256,192,54927,5,6,0:2:0:0:
256,192,55013,5,2,0:2:0:0:
256,192,55099,5,2,0:2:0:0:
256,192,55186,5,6,0:2:0:0:
256,192,55358,5,6,0:2:0:0:
256,192,55444,5,2,0:3:0:0:
256,192,55616,5,6,0:2:0:0:
256,192,55703,5,2,0:3:0:0:
256,192,55876,5,6,0:2:0:0:
256,192,56048,5,2,0:3:0:0:
256,192,56134,5,4,0:2:0:0:
256,192,56221,5,2,0:2:0:0:
256,192,56306,5,2,0:3:0:0:
256,192,56393,5,6,0:2:0:0:
256,192,56479,5,2,0:3:0:0:
256,192,56565,5,2,0:3:0:0:
256,192,56651,5,6,0:2:0:0:
256,192,56823,5,2,0:3:0:0:
256,192,56910,5,4,0:2:0:0:
256,192,56996,5,2,0:3:0:0:
256,192,57082,5,2,0:3:0:0:
256,192,57168,5,4,0:2:0:0:
256,192,57255,5,2,0:3:0:0:
256,192,57427,5,6,0:2:0:0:
256,192,57599,5,2,0:3:0:0:
256,192,57686,5,6,0:2:0:0:
256,192,57772,5,2,0:2:0:0:
256,192,57858,5,2,0:3:0:0:
256,192,57945,5,6,0:2:0:0:
256,192,58031,5,2,0:2:0:0:
256,192,58117,5,6,0:2:0:0:
256,192,58203,5,2,0:3:0:0:
256,192,58375,5,6,0:2:0:0:
256,192,58462,5,2,0:3:0:0:
256,192,58634,5,4,0:2:0:0:
256,192,58807,5,2,0:3:0:0:
256,192,58893,5,4,0:2:0:0:
256,192,58979,5,2,0:3:0:0:
256,192,59065,5,2,0:3:0:0:
256,192,59151,5,4,0:2:0:0:
256,192,59238,5,2,0:3:0:0:
256,192,59410,5,6,0:2:0:0:
256,192,59582,5,2,0:3:0:0:
256,192,59669,5,6,0:2:0:0:
256,192,59755,5,2,0:2:0:0:
256,192,59841,5,2,0:2:0:0:
256,192,59927,5,6,0:2:0:0:
256,192,60014,5,2,0:2:0:0:
256,192,60186,5,6,0:2:0:0:
256,192,60272,5,2,0:2:0:0:
256,192,60358,5,2,0:2:0:0:
256,192,60445,5,6,0:2:0:0:
256,192,60531,5,2,0:2:0:0:
256,192,60617,5,2,0:2:0:0:
256,192,60703,5,6,0:2:0:0:
256,192,60789,5,2,0:3:0:0:
256,192,60876,5,6,0:2:0:0:
256,192,60961,5,2,0:3:0:0:
256,192,61133,5,6,0:2:0:0:
256,192,61220,5,2,0:3:0:0:
256,192,61393,5,6,0:2:0:0:
256,192,61565,5,2,0:3:0:0:
256,192,61651,5,4,0:2:0:0:
256,192,61738,5,2,0:2:0:0:
256,192,61823,5,2,0:3:0:0:
256,192,61910,5,6,0:2:0:0:
256,192,61996,5,2,0:3:0:0:
256,192,62082,5,2,0:3:0:0:
256,192,62168,5,6,0:2:0:0:
256,192,62340,5,2,0:3:0:0:
256,192,62427,5,4,0:2:0:0:
256,192,62513,5,2,0:3:0:0:
256,192,62599,5,2,0:3:0:0:
256,192,62685,5,4,0:2:0:0:
256,192,62772,5,2,0:3:0:0:
256,192,62944,5,6,0:2:0:0:
256,192,63116,5,2,0:3:0:0:
256,192,63202,5,6,0:2:0:0:
256,192,63289,5,2,0:2:0:0:
256,192,63375,5,2,0:3:0:0:
256,192,63462,5,6,0:2:0:0:
256,192,63548,5,2,0:2:0:0:
256,192,63634,5,6,0:2:0:0:
256,192,63720,5,2,0:3:0:0:
256,192,63892,5,6,0:2:0:0:
256,192,63979,5,2,0:3:0:0:
256,192,64151,5,4,0:2:0:0:
256,192,64324,5,2,0:3:0:0:
256,192,64410,5,4,0:2:0:0:
256,192,64496,5,2,0:3:0:0:
256,192,64582,5,2,0:3:0:0:
256,192,64668,5,4,0:2:0:0:
256,192,64755,5,2,0:3:0:0:
256,192,64927,5,6,0:2:0:0:
256,192,65013,5,2,0:2:0:0:
256,192,65099,5,2,0:3:0:0:
256,192,65186,5,4,0:2:0:0:
256,192,65272,5,2,0:3:0:0:
256,192,65358,5,2,0:3:0:0:
256,192,65444,5,4,0:2:0:0:
256,192,65531,5,2,0:3:0:0:
256,192,65703,5,6,0:2:0:0:
256,192,65875,5,2,0:3:0:0:
256,192,65961,5,6,0:2:0:0:
256,192,66134,5,2,0:3:0:0:
256,192,66220,5,6,0:2:0:0:
256,192,66306,5,2,0:3:0:0:
256,192,66392,5,2,0:3:0:0:
256,192,66478,5,2,0:3:0:0:
256,192,66651,5,2,0:3:0:0:
256,192,66737,5,2,0:3:0:0:
256,192,66909,5,4,0:2:0:0:
256,192,67082,5,2,0:3:0:0:
256,192,67168,5,4,0:2:0:0:
256,192,67254,5,2,0:3:0:0:
256,192,67340,5,2,0:3:0:0:
256,192,67426,5,4,0:2:0:0:
256,192,67513,5,2,0:3:0:0:
256,192,67599,5,2,0:3:0:0:
256,192,67685,5,6,0:2:0:0:
256,192,67772,5,8,0:2:0:0:
256,192,67857,5,2,0:3:0:0:
256,192,67944,5,4,0:2:0:0:
256,192,68030,5,2,0:3:0:0:
256,192,68117,5,10,0:2:0:0:
256,192,68202,5,4,0:2:0:0:
256,192,68289,5,2,0:3:0:0:
256,192,68375,5,8,0:2:0:0:
256,192,68461,5,14,0:2:0:0:
256,192,68548,5,8,0:2:0:0:
256,192,68633,5,2,0:3:0:0:
256,192,68720,5,14,0:2:0:0:
256,192,68806,5,8,0:2:0:0:
256,192,68892,5,2,0:3:0:0:
256,192,68979,5,14,0:2:0:0:
256,192,69064,5,2,0:3:0:0:
256,192,69151,5,6,0:2:0:0:
256,192,69237,5,2,0:3:0:0:
256,192,69410,5,6,0:2:0:0:
256,192,69496,5,10,0:2:0:0:
256,192,69668,5,4,0:2:0:0:
256,192,69841,5,10,0:2:0:0:
256,192,69927,5,4,0:2:0:0:
256,192,70013,5,2,0:3:0:0:
256,192,70099,5,2,0:3:0:0:
256,192,70185,5,4,0:2:0:0:
256,192,70272,5,2,0:3:0:0:
256,192,70358,5,8,0:2:0:0:
256,192,70444,5,14,0:2:0:0:
256,192,70530,5,8,0:2:0:0:
256,192,70616,5,2,0:3:0:0:
256,192,70703,5,4,0:2:0:0:
256,192,70789,5,2,0:3:0:0:
256,192,70875,5,10,0:2:0:0:
256,192,70961,5,4,0:2:0:0:
256,192,71048,5,2,0:3:0:0:
256,192,71134,5,8,0:2:0:0:
256,192,71220,5,14,0:2:0:0:
256,192,71306,5,8,0:2:0:0:
256,192,71392,5,10,0:2:0:0:
256,192,71478,5,6,0:2:0:0:
256,192,71565,5,8,0:2:0:0:
256,192,71651,5,2,0:3:0:0:
256,192,71737,5,14,0:2:0:0:
256,192,71823,5,2,0:3:0:0:
256,192,71910,5,6,0:2:0:0:
256,192,71996,5,2,0:3:0:0:
256,192,72082,5,8,0:2:0:0:
256,192,72169,5,6,0:2:0:0:
256,192,72254,5,10,0:2:0:0:
256,192,72427,5,4,0:2:0:0:
256,192,72513,5,8,0:2:0:0:
256,192,72599,5,10,0:2:0:0:
256,192,72686,5,4,0:2:0:0:
256,192,72772,5,2,0:3:0:0:
256,192,72858,5,2,0:3:0:0:
256,192,72944,5,4,0:2:0:0:
256,192,73031,5,2,0:3:0:0:
256,192,73117,5,10,0:2:0:0:
256,192,73203,5,6,0:2:0:0:
256,192,73289,5,8,0:2:0:0:
256,192,73375,5,2,0:3:0:0:
256,192,73462,5,4,0:2:0:0:
256,192,73548,5,2,0:3:0:0:
256,192,73634,5,10,0:2:0:0:
256,192,73720,5,4,0:2:0:0:
256,192,73807,5,2,0:3:0:0:
256,192,73892,5,8,0:2:0:0:
256,192,73979,5,6,0:2:0:0:
256,192,74065,5,8,0:2:0:0:
256,192,74151,5,2,0:3:0:0:
256,192,74237,5,14,0:2:0:0:
256,192,74323,5,8,0:2:0:0:
256,192,74410,5,2,0:3:0:0:
256,192,74496,5,6,0:2:0:0:
256,192,74582,5,2,0:3:0:0:
256,192,74668,5,6,0:2:0:0:
256,192,74755,5,2,0:3:0:0:
256,192,74841,5,8,0:2:0:0:
256,192,74927,5,6,0:2:0:0:
256,192,75013,5,10,0:2:0:0:
256,192,75185,5,4,0:2:0:0:
256,192,75272,5,8,0:2:0:0:
256,192,75358,5,10,0:2:0:0:
256,192,75444,5,12,0:2:0:0:
256,192,75530,5,10,0:2:0:0:
256,192,75617,5,2,0:3:0:0:
256,192,75702,5,4,0:2:0:0:
256,192,75790,5,2,0:3:0:0:
256,192,75875,5,8,0:2:0:0:
256,192,75961,5,6,0:2:0:0:
256,192,76048,5,8,0:2:0:0:
256,192,76134,5,2,0:3:0:0:
256,192,76220,5,4,0:2:0:0:
256,192,76307,5,2,0:3:0:0:
256,192,76392,5,10,0:2:0:0:
256,192,76478,5,4,0:2:0:0:
256,192,76566,5,2,0:3:0:0:
256,192,76651,5,8,0:2:0:0:
256,192,76737,5,6,0:2:0:0:
256,192,76823,5,8,0:2:0:0:
256,192,76910,5,2,0:3:0:0:
256,192,76996,5,14,0:2:0:0:
256,192,77082,5,8,0:2:0:0:
256,192,77169,5,2,0:3:0:0:
256,192,77254,5,6,0:2:0:0:
256,192,77341,5,2,0:3:0:0:
256,192,77427,5,6,0:2:0:0:
256,192,77686,5,6,0:2:0:0:
256,192,77772,5,2,0:3:0:0:
256,192,77944,5,6,0:2:0:0:
256,192,78117,5,2,0:3:0:0:
256,192,78203,5,4,0:2:0:0:
256,192,78289,5,2,0:3:0:0:
256,192,78375,5,2,0:3:0:0:
256,192,78461,5,6,0:2:0:0:
256,192,78548,5,2,0:3:0:0:
256,192,78720,5,6,0:2:0:0:
256,192,78806,5,2,0:3:0:0:
256,192,78892,5,2,0:3:0:0:
256,192,78979,5,4,0:2:0:0:
256,192,79065,5,2,0:3:0:0:
256,192,79151,5,2,0:3:0:0:
256,192,79237,5,4,0:2:0:0:
256,192,79323,5,2,0:3:0:0:
256,192,79496,5,6,0:2:0:0:
256,192,79668,5,2,0:3:0:0:
256,192,79754,5,4,0:2:0:0:
256,192,79841,5,2,0:1:0:0:
256,192,79927,5,2,0:3:0:0:
256,192,80013,5,4,0:2:0:0:
256,192,80099,5,2,0:3:0:0:
256,192,80186,5,6,0:2:0:0:
256,192,80272,5,2,0:3:0:0:
256,192,80444,5,6,0:2:0:0:
256,192,80530,5,2,0:3:0:0:
256,192,80703,5,4,0:2:0:0:
256,192,80875,5,2,0:3:0:0:
256,192,80962,5,4,0:2:0:0:
256,192,81048,5,2,0:3:0:0:
256,192,81134,5,2,0:3:0:0:
256,192,81220,5,6,0:2:0:0:
256,192,81306,5,2,0:3:0:0:
256,192,81479,5,4,0:2:0:0:
256,192,81565,5,2,0:1:0:0:
256,192,81651,5,2,0:3:0:0:
256,192,81738,5,4,0:2:0:0:
256,192,81823,5,2,0:3:0:0:
256,192,81910,5,2,0:3:0:0:
256,192,81996,5,4,0:2:0:0:
256,192,82082,5,2,0:3:0:0:
256,192,82255,5,6,0:2:0:0:
256,192,82427,5,2,0:3:0:0:
256,192,82513,5,4,0:2:0:0:
256,192,82599,5,2,0:1:0:0:
256,192,82686,5,2,0:3:0:0:
256,192,82772,5,4,0:2:0:0:
256,192,82858,5,2,0:3:0:0:
256,192,82944,5,2,0:1:0:0:
256,192,83030,5,2,0:3:0:0:
256,192,83117,5,2,0:1:0:0:
256,192,83203,5,2,0:3:0:0:
256,192,83289,5,2,0:3:0:0:
256,192,83461,5,2,0:3:0:0:
256,192,83634,5,2,0:3:0:0:
256,192,83677,5,2,0:1:0:0:
256,192,83720,5,2,0:1:0:0:
256,192,83763,5,2,0:1:0:0:
256,192,83806,5,2,0:3:0:0:
256,192,83849,5,2,0:1:0:0:
256,192,83892,5,2,0:3:0:0:
256,192,83936,5,2,0:1:0:0:
256,192,83979,5,2,0:1:0:0:
256,192,84065,5,2,0:3:0:0:
256,192,84151,5,2,0:1:0:0:
256,192,84194,5,2,0:1:0:0:
256,192,84237,5,2,0:3:0:0:
256,192,84280,5,2,0:1:0:0:
256,192,84323,5,2,0:1:0:0:
256,192,84367,5,2,0:1:0:0:
256,192,84410,5,2,0:3:0:0:
256,192,84453,5,2,0:1:0:0:
256,192,84496,5,2,0:1:0:0:
256,192,84582,5,2,0:3:0:0:
256,192,84668,5,2,0:3:0:0:
256,192,84754,5,2,0:1:0:0:
256,192,84841,5,2,0:3:0:0:
256,192,84927,5,2,0:1:0:0:
256,192,85013,5,8,0:1:0:0:
256,192,85186,5,10,0:3:0:0:
256,192,85358,5,2,0:1:0:0:
256,192,85444,5,2,0:3:0:0:
256,192,85530,5,2,0:3:0:0:
256,192,85617,5,2,0:3:0:0:
256,192,85703,5,8,0:1:0:0:
256,192,85875,5,2,0:1:0:0:
256,192,85961,5,2,0:3:0:0:
256,192,86048,5,10,0:3:0:0:
256,192,86134,5,2,0:1:0:0:
256,192,86220,5,2,0:3:0:0:
256,192,86306,5,8,0:1:0:0:
256,192,86392,5,2,0:3:0:0:
256,192,86479,5,2,0:1:0:0:
256,192,86565,5,8,0:1:0:0:
256,192,86651,5,2,0:3:0:0:
256,192,86737,5,2,0:1:0:0:
256,192,86823,5,10,0:3:0:0:
256,192,86910,5,2,0:1:0:0:
256,192,86996,5,2,0:3:0:0:
256,192,87082,5,12,0:2:0:0:
256,192,88117,5,8,0:2:0:0:
256,192,88160,5,8,0:2:0:0:
256,192,88203,5,8,0:2:0:0:
256,192,88246,5,8,0:2:0:0:
256,192,88289,5,8,0:2:0:0:
256,192,88332,5,8,0:2:0:0:
256,192,88375,5,8,0:2:0:0:
256,192,88418,5,8,0:2:0:0:
256,192,88461,5,4,0:2:0:0:
256,192,88720,5,4,0:2:0:0:
256,192,88979,5,4,0:2:0:0:
256,192,89323,5,8,0:2:0:0:
256,192,89410,5,8,0:2:0:0:
256,192,89496,5,10,0:2:0:0:
256,192,89668,5,12,0:1:0:0:
256,192,90013,5,8,0:2:0:0:
256,192,90099,5,8,0:2:0:0:
256,192,90186,5,10,0:2:0:0:
256,192,90272,5,8,0:2:0:0:
256,192,90358,5,12,0:2:0:0:
256,192,90703,5,8,0:2:0:0:
256,192,90789,5,8,0:2:0:0:
256,192,90875,5,8,0:2:0:0:
256,192,90961,5,8,0:2:0:0:
256,192,91134,5,8,0:2:0:0:
256,192,91220,5,4,0:2:0:0:
256,192,91479,5,4,0:2:0:0:
256,192,91737,5,4,0:2:0:0:
256,192,92082,5,8,0:2:0:0:
256,192,92168,5,8,0:2:0:0:
256,192,92254,5,10,0:2:0:0:
256,192,92426,5,12,0:1:0:0:
256,192,92772,5,8,0:2:0:0:
256,192,92858,5,8,0:2:0:0:
256,192,92944,5,10,0:2:0:0:
256,192,93030,5,8,0:2:0:0:
256,192,93117,5,12,0:2:0:0:
256,192,93461,5,8,0:2:0:0:
256,192,93548,5,8,0:2:0:0:
256,192,93634,5,8,0:2:0:0:
256,192,93720,5,8,0:2:0:0:
256,192,93806,5,8,0:2:0:0:
256,192,93979,5,4,0:2:0:0:
256,192,94238,5,4,0:2:0:0:
256,192,94497,5,4,0:2:0:0:
256,192,94841,5,8,0:2:0:0:
256,192,94927,5,8,0:2:0:0:
256,192,95013,5,10,0:2:0:0:
256,192,95185,5,12,0:1:0:0:
256,192,95530,5,8,0:2:0:0:
256,192,95617,5,8,0:2:0:0:
256,192,95703,5,10,0:2:0:0:
256,192,95789,5,8,0:2:0:0:
256,192,95875,5,12,0:2:0:0:
256,192,96220,5,8,0:2:0:0:
256,192,96306,5,8,0:2:0:0:
256,192,96392,5,8,0:2:0:0:
256,192,96479,5,8,0:2:0:0:
256,192,96651,5,8,0:2:0:0:
256,192,96737,5,4,0:2:0:0:
256,192,96996,5,4,0:2:0:0:
256,192,97254,5,4,0:2:0:0:
256,192,97599,5,8,0:2:0:0:
256,192,97686,5,8,0:2:0:0:
256,192,97772,5,10,0:2:0:0:
256,192,97944,5,12,0:1:0:0:
256,192,98289,5,8,0:2:0:0:
256,192,98375,5,8,0:2:0:0:
256,192,98462,5,10,0:2:0:0:
256,192,98548,5,8,0:2:0:0:
256,192,98634,5,12,0:2:0:0:
256,192,98979,5,8,0:2:0:0:
256,192,99065,5,8,0:2:0:0:
256,192,99151,5,8,0:2:0:0:
256,192,99237,5,8,0:2:0:0:
256,192,99323,5,8,0:2:0:0:
256,192,99496,5,4,0:2:0:0:
256,192,99755,5,4,0:2:0:0:
256,192,100014,5,4,0:2:0:0:
256,192,100358,5,8,0:2:0:0:
256,192,100444,5,8,0:2:0:0:
256,192,100530,5,10,0:2:0:0:
256,192,100702,5,12,0:1:0:0:
256,192,101048,5,8,0:2:0:0:
256,192,101134,5,8,0:2:0:0:
256,192,101220,5,10,0:2:0:0:
256,192,101306,5,8,0:2:0:0:
256,192,101393,5,12,0:2:0:0:
256,192,101737,5,8,0:2:0:0:
256,192,101824,5,8,0:2:0:0:
256,192,101910,5,8,0:2:0:0:
256,192,101996,5,8,0:2:0:0:
256,192,102168,5,8,0:2:0:0:
256,192,102254,5,4,0:2:0:0:
256,192,102513,5,4,0:2:0:0:
256,192,102772,5,4,0:2:0:0:
256,192,103117,5,8,0:2:0:0:
256,192,103203,5,8,0:2:0:0:
256,192,103289,5,10,0:2:0:0:
256,192,103461,5,12,0:1:0:0:
256,192,103806,5,8,0:2:0:0:
256,192,103893,5,8,0:2:0:0:
256,192,103979,5,10,0:2:0:0:
256,192,104065,5,8,0:2:0:0:
256,192,104151,5,12,0:2:0:0:
256,192,104496,5,8,0:2:0:0:
256,192,104582,5,8,0:2:0:0:
256,192,104668,5,8,0:2:0:0:
256,192,104755,5,8,0:2:0:0:
256,192,104841,5,8,0:2:0:0:
256,192,105013,5,4,0:2:0:0:
256,192,105272,5,4,0:2:0:0:
256,192,105531,5,4,0:2:0:0:
256,192,105875,5,8,0:2:0:0:
256,192,105962,5,8,0:2:0:0:
256,192,106048,5,10,0:2:0:0:
256,192,106220,5,12,0:1:0:0:
256,192,106565,5,8,0:2:0:0:
256,192,106651,5,8,0:2:0:0:
256,192,106738,5,10,0:2:0:0:
256,192,106824,5,8,0:2:0:0:
256,192,106910,5,12,0:2:0:0:
256,192,107255,5,8,0:2:0:0:
256,192,107341,5,8,0:2:0:0:
256,192,107427,5,8,0:2:0:0:
256,192,107513,5,8,0:2:0:0:
256,192,107686,5,8,0:2:0:0:
256,192,107772,5,4,0:2:0:0:
256,192,108031,5,4,0:2:0:0:
256,192,108289,5,4,0:2:0:0:
256,192,108634,5,8,0:2:0:0:
256,192,108720,5,8,0:2:0:0:
256,192,108806,5,10,0:2:0:0:
256,192,108978,5,12,0:1:0:0:
256,192,109324,5,8,0:2:0:0:
256,192,109410,5,8,0:2:0:0:
256,192,109496,5,10,0:2:0:0:
256,192,109582,5,8,0:2:0:0:
256,192,109669,5,12,0:2:0:0:
256,192,110013,5,8,0:2:0:0:
256,192,110100,5,8,0:2:0:0:
256,192,110186,5,8,0:2:0:0:
256,192,110272,5,8,0:2:0:0:
256,192,110358,5,8,0:2:0:0:
256,192,110530,5,4,0:2:0:0:
256,192,110789,5,4,0:2:0:0:
256,192,111048,5,4,0:2:0:0:
256,192,111393,5,8,0:2:0:0:
256,192,111479,5,8,0:2:0:0:
256,192,111565,5,8,0:2:0:0:
256,192,111737,5,12,0:2:0:0:
256,192,112082,5,8,0:2:0:0:
256,192,112169,5,8,0:2:0:0:
256,192,112255,5,8,0:2:0:0:
256,192,112341,5,8,0:2:0:0:
256,192,112427,5,12,0:2:0:0:
256,192,112772,5,8,0:2:0:0:
256,192,112858,5,8,0:2:0:0:
256,192,112944,5,10,0:2:0:0:
256,192,113031,5,8,0:2:0:0:
256,192,113117,5,8,0:1:0:0:
256,192,113203,5,8,0:2:0:0:
256,192,113289,5,4,0:2:0:0:
256,192,113548,5,4,0:2:0:0:
256,192,113806,5,4,0:2:0:0:
256,192,114151,5,8,0:2:0:0:
256,192,114238,5,8,0:2:0:0:
256,192,114324,5,10,0:2:0:0:
256,192,114495,5,12,0:1:0:0:
256,192,114841,5,8,0:2:0:0:
256,192,114927,5,8,0:2:0:0:
256,192,115014,5,10,0:2:0:0:
256,192,115100,5,8,0:2:0:0:
256,192,115186,5,12,0:2:0:0:
256,192,115531,5,8,0:2:0:0:
256,192,115617,5,8,0:2:0:0:
256,192,115703,5,8,0:2:0:0:
256,192,115789,5,8,0:2:0:0:
256,192,115875,5,8,0:2:0:0:
256,192,116048,5,4,0:2:0:0:
256,192,116307,5,4,0:2:0:0:
256,192,116566,5,4,0:2:0:0:
256,192,116910,5,8,0:2:0:0:
256,192,116997,5,8,0:2:0:0:
256,192,117083,5,10,0:2:0:0:
256,192,117255,5,12,0:1:0:0:
256,192,117600,5,8,0:2:0:0:
256,192,117686,5,8,0:2:0:0:
256,192,117773,5,10,0:2:0:0:
256,192,117859,5,8,0:2:0:0:
256,192,117945,5,12,0:2:0:0:
256,192,118290,5,8,0:2:0:0:
256,192,118376,5,8,0:2:0:0:
256,192,118462,5,8,0:2:0:0:
256,192,118548,5,8,0:2:0:0:
256,192,118721,5,8,0:2:0:0:
256,192,118806,5,4,0:2:0:0:
256,192,119065,5,4,0:2:0:0:
256,192,119323,5,4,0:2:0:0:
256,192,119669,5,8,0:2:0:0:
256,192,119755,5,8,0:2:0:0:
256,192,119841,5,10,0:2:0:0:
256,192,120013,5,12,0:1:0:0:
256,192,120359,5,8,0:2:0:0:
256,192,120445,5,8,0:2:0:0:
256,192,120531,5,10,0:2:0:0:
256,192,120617,5,8,0:2:0:0:
256,192,120704,5,12,0:2:0:0:
256,192,121048,5,8,0:2:0:0:
256,192,121135,5,8,0:2:0:0:
256,192,121221,5,8,0:2:0:0:
256,192,121307,5,8,0:2:0:0:
256,192,121392,5,8,0:2:0:0:
256,192,121565,5,4,0:2:0:0:
256,192,121824,5,4,0:2:0:0:
256,192,122083,5,4,0:2:0:0:
256,192,122426,5,8,0:2:0:0:
256,192,122513,5,8,0:2:0:0:
256,192,122599,5,10,0:2:0:0:
256,192,122771,5,12,0:1:0:0:
256,192,123116,5,8,0:2:0:0:
256,192,123202,5,8,0:2:0:0:
256,192,123289,5,10,0:2:0:0:
256,192,123375,5,8,0:2:0:0:
256,192,123461,5,12,0:2:0:0:
256,192,123806,5,8,0:2:0:0:
256,192,123892,5,8,0:2:0:0:
256,192,123978,5,8,0:2:0:0:
256,192,124064,5,8,0:2:0:0:
256,192,124237,5,8,0:2:0:0:
256,192,124323,5,4,0:2:0:0:
256,192,124582,5,4,0:2:0:0:
256,192,124841,5,4,0:2:0:0:
256,192,125185,5,8,0:2:0:0:
256,192,125271,5,8,0:2:0:0:
256,192,125357,5,10,0:2:0:0:
256,192,125530,5,12,0:1:0:0:
256,192,125875,5,8,0:2:0:0:
256,192,125961,5,8,0:2:0:0:
256,192,126047,5,10,0:2:0:0:
256,192,126133,5,8,0:2:0:0:
256,192,126220,5,12,0:2:0:0:
256,192,126564,5,8,0:2:0:0:
256,192,126651,5,8,0:2:0:0:
256,192,126737,5,8,0:2:0:0:
256,192,126823,5,8,0:2:0:0:
256,192,126910,5,8,0:2:0:0:
256,192,127082,5,4,0:2:0:0:
256,192,127341,5,4,0:2:0:0:
256,192,127600,5,4,0:2:0:0:
256,192,127944,5,8,0:2:0:0:
256,192,128030,5,8,0:2:0:0:
256,192,128116,5,10,0:2:0:0:
256,192,128289,5,12,0:1:0:0:
256,192,128633,5,8,0:2:0:0:
256,192,128720,5,8,0:2:0:0:
256,192,128806,5,10,0:2:0:0:
256,192,128892,5,8,0:2:0:0:
256,192,128978,5,12,0:2:0:0:
256,192,129323,5,8,0:2:0:0:
256,192,129409,5,8,0:2:0:0:
256,192,129495,5,8,0:2:0:0:
256,192,129582,5,8,0:2:0:0:
256,192,129754,5,8,0:2:0:0:
256,192,129841,5,4,0:2:0:0:
256,192,130100,5,4,0:2:0:0:
256,192,130358,5,4,0:2:0:0:
256,192,130702,5,8,0:2:0:0:
256,192,130789,5,8,0:2:0:0:
256,192,130875,5,10,0:2:0:0:
256,192,131047,5,12,0:1:0:0:
256,192,131392,5,8,0:2:0:0:
256,192,131478,5,8,0:2:0:0:
256,192,131565,5,10,0:2:0:0:
256,192,131651,5,8,0:2:0:0:
256,192,131737,5,12,0:2:0:0:
256,192,132082,5,8,0:2:0:0:
256,192,132168,5,8,0:2:0:0:
256,192,132254,5,8,0:2:0:0:
256,192,132298,5,8,0:2:0:0:
256,192,132341,5,8,0:2:0:0:
256,192,132384,5,8,0:2:0:0:
256,192,132427,5,8,0:2:0:0:
256,192,132470,5,8,0:2:0:0:
256,192,132513,5,8,0:2:0:0:
256,192,132556,5,8,0:2:0:0:
256,192,132599,5,6,0:2:0:0:
256,192,132858,5,4,0:2:0:0:
256,192,133117,5,14,0:2:0:0:
256,192,133203,5,2,0:2:0:0:
256,192,133289,5,2,0:2:0:0:
256,192,133375,5,4,0:2:0:0:
256,192,133461,5,8,0:2:0:0:
256,192,133548,5,8,0:2:0:0:
256,192,133634,5,12,0:2:0:0:
256,192,133806,5,6,0:2:0:0:
256,192,133892,5,2,0:2:0:0:
256,192,133979,5,6,0:2:0:0:
256,192,134065,5,2,0:2:0:0:
256,192,134151,5,10,0:2:0:0:
256,192,134237,5,6,0:2:0:0:
256,192,134323,5,8,0:2:0:0:
256,192,134410,5,2,0:2:0:0:
256,192,134496,5,6,0:2:0:0:
256,192,134582,5,2,0:2:0:0:
256,192,134668,5,10,0:2:0:0:
256,192,134754,5,6,0:2:0:0:
256,192,134841,5,10,0:2:0:0:
256,192,134927,5,10,0:2:0:0:
256,192,135013,5,14,0:2:0:0:
256,192,135099,5,2,0:2:0:0:
256,192,135186,5,6,0:2:0:0:
256,192,135272,5,2,0:2:0:0:
256,192,135358,5,6,0:2:0:0:
256,192,135617,5,4,0:2:0:0:
256,192,135875,5,14,0:2:0:0:
256,192,135961,5,2,0:2:0:0:
256,192,136048,5,2,0:2:0:0:
256,192,136134,5,4,0:2:0:0:
256,192,136220,5,10,0:2:0:0:
256,192,136306,5,10,0:2:0:0:
256,192,136393,5,12,0:2:0:0:
256,192,136479,5,2,0:2:0:0:
256,192,136565,5,6,0:2:0:0:
256,192,136651,5,2,0:2:0:0:
256,192,136738,5,6,0:2:0:0:
256,192,136823,5,2,0:2:0:0:
256,192,136910,5,10,0:2:0:0:
256,192,136996,5,6,0:2:0:0:
256,192,137082,5,10,0:2:0:0:
256,192,137168,5,2,0:2:0:0:
256,192,137254,5,14,0:2:0:0:
256,192,137427,5,10,0:2:0:0:
256,192,137513,5,6,0:2:0:0:
256,192,137599,5,10,0:2:0:0:
256,192,137686,5,10,0:2:0:0:
256,192,137772,5,12,0:2:0:0:
256,192,137858,5,2,0:2:0:0:
256,192,137944,5,6,0:2:0:0:
256,192,138002,5,2,0:2:0:0:
256,192,138059,5,2,0:2:0:0:
256,192,138117,5,6,0:2:0:0:
256,192,138375,5,4,0:2:0:0:
256,192,138634,5,14,0:2:0:0:
256,192,138720,5,2,0:2:0:0:
256,192,138806,5,2,0:2:0:0:
256,192,138892,5,6,0:2:0:0:
256,192,138979,5,10,0:2:0:0:
256,192,139065,5,10,0:2:0:0:
256,192,139151,5,14,0:2:0:0:
256,192,139237,5,2,0:2:0:0:
256,192,139323,5,6,0:2:0:0:
256,192,139410,5,2,0:2:0:0:
256,192,139496,5,6,0:2:0:0:
256,192,139582,5,2,0:2:0:0:
256,192,139668,5,10,0:2:0:0:
256,192,139754,5,6,0:2:0:0:
256,192,139841,5,10,0:2:0:0:
256,192,139927,5,2,0:2:0:0:
256,192,140013,5,6,0:2:0:0:
256,192,140186,5,10,0:2:0:0:
256,192,140272,5,6,0:2:0:0:
256,192,140358,5,10,0:2:0:0:
256,192,140444,5,10,0:2:0:0:
256,192,140530,5,12,0:2:0:0:
256,192,140617,5,2,0:2:0:0:
256,192,140703,5,6,0:2:0:0:
256,192,140760,5,2,0:2:0:0:
256,192,140818,5,2,0:2:0:0:
256,192,140875,5,6,0:2:0:0:
256,192,140961,5,2,0:2:0:0:
256,192,141134,5,4,0:2:0:0:
256,192,141392,5,14,0:2:0:0:
256,192,141479,5,2,0:2:0:0:
256,192,141565,5,2,0:2:0:0:
256,192,141651,5,6,0:2:0:0:
256,192,141737,5,8,0:2:0:0:
256,192,141823,5,10,0:2:0:0:
256,192,141910,5,12,0:2:0:0:
256,192,141996,5,2,0:2:0:0:
256,192,142082,5,6,0:2:0:0:
256,192,142168,5,2,0:2:0:0:
256,192,142254,5,6,0:2:0:0:
256,192,142427,5,8,0:2:0:0:
256,192,142513,5,6,0:2:0:0:
256,192,142599,5,10,0:2:0:0:
256,192,142772,5,14,0:2:0:0:
256,192,142858,5,2,0:2:0:0:
256,192,142944,5,8,0:2:0:0:
256,192,143030,5,6,0:2:0:0:
256,192,143117,5,10,0:2:0:0:
256,192,143203,5,10,0:2:0:0:
256,192,143289,5,14,0:2:0:0:
256,192,143375,5,2,0:2:0:0:
256,192,143461,5,6,0:2:0:0:
256,192,143519,5,2,0:2:0:0:
256,192,143576,5,2,0:2:0:0:
256,192,143634,5,6,0:2:0:0:
256,192,143892,5,4,0:2:0:0:
256,192,144151,5,12,0:2:0:0:
256,192,144409,5,4,0:2:0:0:
256,192,144495,5,8,0:2:0:0:
256,192,144581,5,8,0:2:0:0:
256,192,144668,5,12,0:2:0:0:
256,192,144841,5,6,0:2:0:0:
256,192,144927,5,2,0:2:0:0:
256,192,145013,5,6,0:2:0:0:
256,192,145186,5,10,0:2:0:0:
256,192,145272,5,6,0:2:0:0:
256,192,145357,5,10,0:2:0:0:
256,192,145444,5,2,0:2:0:0:
256,192,145529,5,12,0:2:0:0:
256,192,145617,5,2,0:2:0:0:
256,192,145703,5,10,0:2:0:0:
256,192,145789,5,6,0:2:0:0:
256,192,145875,5,10,0:2:0:0:
256,192,145961,5,10,0:2:0:0:
256,192,146048,5,14,0:2:0:0:
256,192,146163,5,2,0:2:0:0:
256,192,146220,5,6,0:2:0:0:
256,192,146277,5,2,0:2:0:0:
256,192,146335,5,2,0:2:0:0:
256,192,146392,5,6,0:2:0:0:
256,192,146651,5,4,0:2:0:0:
256,192,146910,5,14,0:2:0:0:
256,192,146996,5,2,0:2:0:0:
256,192,147082,5,2,0:2:0:0:
256,192,147168,5,6,0:2:0:0:
256,192,147254,5,10,0:2:0:0:
256,192,147341,5,10,0:2:0:0:
256,192,147427,5,12,0:2:0:0:
256,192,147513,5,2,0:2:0:0:
256,192,147599,5,6,0:2:0:0:
256,192,147686,5,2,0:2:0:0:
256,192,147772,5,6,0:2:0:0:
256,192,147858,5,2,0:2:0:0:
256,192,147944,5,10,0:2:0:0:
256,192,148030,5,6,0:2:0:0:
256,192,148117,5,10,0:2:0:0:
256,192,148289,5,14,0:2:0:0:
256,192,148461,5,10,0:2:0:0:
256,192,148548,5,6,0:2:0:0:
256,192,148634,5,10,0:2:0:0:
256,192,148720,5,10,0:2:0:0:
256,192,148806,5,14,0:2:0:0:
256,192,148979,5,6,0:2:0:0:
256,192,149036,5,2,0:2:0:0:
256,192,149094,5,2,0:2:0:0:
256,192,149151,5,6,0:2:0:0:
256,192,149410,5,4,0:2:0:0:
256,192,149669,5,12,0:2:0:0:
256,192,149927,5,4,0:2:0:0:
256,192,150013,5,10,0:2:0:0:
256,192,150099,5,8,0:2:0:0:
256,192,150186,5,14,0:2:0:0:
256,192,150272,5,2,0:2:0:0:
256,192,150358,5,6,0:2:0:0:
256,192,150531,5,6,0:2:0:0:
256,192,150703,5,8,0:2:0:0:
256,192,150789,5,4,0:2:0:0:
256,192,150875,5,10,0:2:0:0:
256,192,151048,5,14,0:2:0:0:
256,192,151134,5,2,0:2:0:0:
256,192,151220,5,8,0:2:0:0:
256,192,151306,5,4,0:2:0:0:
256,192,151392,5,10,0:2:0:0:
256,192,151479,5,10,0:2:0:0:
256,192,151565,5,14,0:2:0:0:
256,192,151622,5,2,0:2:0:0:
256,192,151680,5,2,0:2:0:0:
256,192,151737,5,6,0:2:0:0:
256,192,151795,5,2,0:2:0:0:
256,192,151852,5,2,0:2:0:0:
256,192,151910,5,6,0:2:0:0:
256,192,152168,5,4,0:2:0:0:
256,192,152427,5,12,0:2:0:0:
256,192,152685,5,4,0:2:0:0:
256,192,152772,5,10,0:2:0:0:
256,192,152858,5,10,0:2:0:0:
256,192,152944,5,14,0:2:0:0:
256,192,153030,5,2,0:2:0:0:
256,192,153117,5,6,0:2:0:0:
256,192,153203,5,2,0:2:0:0:
256,192,153289,5,6,0:2:0:0:
256,192,153375,5,2,0:2:0:0:
256,192,153461,5,10,0:2:0:0:
256,192,153548,5,6,0:2:0:0:
256,192,153634,5,10,0:2:0:0:
256,192,153720,5,2,0:2:0:0:
256,192,153806,5,14,0:2:0:0:
256,192,153892,5,2,0:2:0:0:
256,192,153979,5,10,0:2:0:0:
256,192,154065,5,6,0:2:0:0:
256,192,154151,5,10,0:2:0:0:
256,192,154237,5,10,0:2:0:0:
256,192,154323,5,14,0:2:0:0:
256,192,154381,5,2,0:2:0:0:
256,192,154438,5,2,0:2:0:0:
256,192,154496,5,6,0:2:0:0:
256,192,154553,5,2,0:2:0:0:
256,192,154611,5,2,0:2:0:0:
256,192,154668,5,6,0:2:0:0:
256,192,154927,5,4,0:2:0:0:
256,192,155186,5,4,0:2:0:0:
256,192,155444,5,4,0:2:0:0:
256,192,155703,5,4,0:2:0:0:
256,192,155962,5,4,0:2:0:0:
256,192,156220,5,4,0:2:0:0:
256,192,156479,5,4,0:2:0:0:
256,192,156737,5,4,0:2:0:0:
256,192,156996,5,4,0:2:0:0:
256,192,157255,5,4,0:2:0:0:
256,192,157427,5,4,0:2:0:0:
256,192,157686,5,4,0:2:0:0:
256,192,157945,5,4,0:2:0:0:
256,192,158203,5,4,0:2:0:0:
256,192,158462,5,4,0:2:0:0:
256,192,158721,5,4,0:2:0:0:
256,192,158979,5,4,0:2:0:0:
256,192,159237,5,4,0:2:0:0:
256,192,159496,5,4,0:2:0:0:
256,192,159755,5,4,0:2:0:0:
256,192,160013,5,4,0:2:0:0:
256,192,160186,5,4,0:2:0:0:
256,192,160444,5,4,0:2:0:0:
256,192,160703,5,4,0:2:0:0:
256,192,160962,5,4,0:2:0:0:
256,192,161220,5,4,0:2:0:0:
256,192,161479,5,4,0:2:0:0:
256,192,161738,5,4,0:2:0:0:
256,192,161996,5,4,0:2:0:0:
256,192,162255,5,4,0:2:0:0:
256,192,162513,5,4,0:2:0:0:
256,192,162772,5,4,0:2:0:0:
256,192,162944,5,4,0:2:0:0:
256,192,163202,5,4,0:2:0:0:
256,192,163461,5,4,0:2:0:0:
256,192,163720,5,4,0:2:0:0:
256,192,163978,5,4,0:2:0:0:
256,192,164237,5,4,0:2:0:0:
256,192,164496,5,4,0:2:0:0:
256,192,164755,5,4,0:2:0:0:
256,192,165013,5,4,0:2:0:0:
256,192,165272,5,4,0:2:0:0:
256,192,165531,5,4,0:2:0:0:
256,192,165703,5,6,0:2:0:0:
256,192,165789,5,2,0:3:0:0:
256,192,165961,5,6,0:2:0:0:
256,192,166048,5,2,0:3:0:0:
256,192,166220,5,4,0:2:0:0:
256,192,166393,5,2,0:3:0:0:
256,192,166479,5,4,0:2:0:0:
256,192,166565,5,2,0:3:0:0:
256,192,166651,5,2,0:3:0:0:
256,192,166737,5,4,0:2:0:0:
256,192,166824,5,2,0:3:0:0:
256,192,166910,5,2,0:3:0:0:
256,192,166996,5,6,0:2:0:0:
256,192,167168,5,2,0:3:0:0:
256,192,167255,5,4,0:2:0:0:
256,192,167341,5,2,0:3:0:0:
256,192,167427,5,2,0:3:0:0:
256,192,167513,5,4,0:2:0:0:
256,192,167600,5,2,0:3:0:0:
256,192,167772,5,6,0:2:0:0:
256,192,167944,5,2,0:3:0:0:
256,192,168031,5,6,0:2:0:0:
256,192,168203,5,2,0:3:0:0:
256,192,168289,5,6,0:2:0:0:
256,192,168375,5,2,0:3:0:0:
256,192,168462,5,6,0:2:0:0:
256,192,168548,5,2,0:3:0:0:
256,192,168720,5,6,0:2:0:0:
256,192,168807,5,2,0:3:0:0:
256,192,168979,5,4,0:2:0:0:
256,192,169152,5,2,0:3:0:0:
256,192,169238,5,4,0:2:0:0:
256,192,169324,5,2,0:3:0:0:
256,192,169410,5,2,0:3:0:0:
256,192,169496,5,4,0:2:0:0:
256,192,169583,5,2,0:3:0:0:
256,192,169755,5,6,0:2:0:0:
256,192,169927,5,2,0:3:0:0:
256,192,170014,5,4,0:2:0:0:
256,192,170100,5,2,0:3:0:0:
256,192,170186,5,2,0:3:0:0:
256,192,170272,5,4,0:2:0:0:
256,192,170359,5,2,0:3:0:0:
256,192,170531,5,6,0:2:0:0:
256,192,170703,5,2,0:3:0:0:
256,192,170789,5,6,0:2:0:0:
256,192,170962,5,2,0:3:0:0:
256,192,171048,5,6,0:2:0:0:
256,192,171134,5,2,0:3:0:0:
256,192,171220,5,6,0:2:0:0:
256,192,171306,5,2,0:3:0:0:
256,192,171478,5,6,0:2:0:0:
256,192,171565,5,2,0:3:0:0:
256,192,171737,5,4,0:2:0:0:
256,192,171910,5,2,0:3:0:0:
256,192,171996,5,4,0:2:0:0:
256,192,172082,5,2,0:3:0:0:
256,192,172168,5,2,0:3:0:0:
256,192,172254,5,4,0:2:0:0:
256,192,172341,5,2,0:3:0:0:
256,192,172427,5,2,0:3:0:0:
256,192,172513,5,6,0:2:0:0:
256,192,172685,5,2,0:3:0:0:
256,192,172772,5,4,0:2:0:0:
256,192,172858,5,2,0:3:0:0:
256,192,172944,5,2,0:3:0:0:
256,192,173030,5,4,0:2:0:0:
256,192,173117,5,2,0:3:0:0:
256,192,173289,5,6,0:2:0:0:
256,192,173461,5,2,0:3:0:0:
256,192,173547,5,6,0:2:0:0:
256,192,173720,5,2,0:3:0:0:
256,192,173806,5,6,0:2:0:0:
256,192,173892,5,2,0:3:0:0:
256,192,173979,5,6,0:2:0:0:
256,192,174065,5,2,0:3:0:0:
256,192,174237,5,6,0:2:0:0:
256,192,174323,5,2,0:3:0:0:
256,192,174496,5,6,0:2:0:0:
256,192,174669,5,2,0:3:0:0:
256,192,174754,5,6,0:2:0:0:
256,192,174841,5,2,0:3:0:0:
256,192,174927,5,2,0:3:0:0:
256,192,175013,5,6,0:2:0:0:
256,192,175100,5,2,0:3:0:0:
256,192,175272,5,6,0:2:0:0:
256,192,175444,5,2,0:3:0:0:
256,192,175530,5,6,0:2:0:0:
256,192,175617,5,2,0:3:0:0:
256,192,175703,5,2,0:3:0:0:
256,192,175789,5,6,0:2:0:0:
256,192,175876,5,2,0:3:0:0:
256,192,176048,5,6,0:2:0:0:
256,192,176220,5,2,0:3:0:0:
256,192,176306,5,6,0:2:0:0:
256,192,176392,5,4,0:1:0:0:
256,192,176737,5,6,0:2:0:0:
256,192,176996,5,4,0:2:0:0:
256,192,177254,5,6,0:2:0:0:
256,192,177427,5,8,0:2:0:0:
256,192,177513,5,4,0:2:0:0:
256,192,177599,5,2,0:2:0:0:
256,192,177772,5,6,0:2:0:0:
256,192,178030,5,4,0:2:0:0:
256,192,178289,5,4,0:2:0:0:
256,192,178548,5,4,0:2:0:0:
256,192,178806,5,12,0:2:0:0:
256,192,179065,5,4,0:2:0:0:
256,192,179151,5,2,0:2:0:0:
256,192,179323,5,6,0:2:0:0:
256,192,179410,5,2,0:2:0:0:
256,192,179496,5,6,0:2:0:0:
256,192,179755,5,4,0:2:0:0:
256,192,180013,5,4,0:2:0:0:
256,192,180186,5,8,0:2:0:0:
256,192,180531,5,4,0:2:0:0:
256,192,180789,5,4,0:2:0:0:
256,192,181048,5,6,0:2:0:0:
256,192,181134,5,2,0:2:0:0:
256,192,181220,5,2,0:2:0:0:
256,192,181306,5,6,0:2:0:0:
256,192,181392,5,2,0:2:0:0:
256,192,181565,5,14,0:2:0:0:
256,192,181651,5,2,0:2:0:0:
256,192,181737,5,2,0:2:0:0:
256,192,181823,5,6,0:2:0:0:
256,192,181910,5,2,0:2:0:0:
256,192,181996,5,2,0:2:0:0:
256,192,182082,5,6,0:2:0:0:
256,192,182254,5,6,0:2:0:0:
256,192,182513,5,4,0:2:0:0:
256,192,182772,5,6,0:2:0:0:
256,192,182944,5,8,0:2:0:0:
256,192,183030,5,4,0:2:0:0:
256,192,183117,5,2,0:2:0:0:
256,192,183289,5,6,0:2:0:0:
256,192,183547,5,4,0:2:0:0:
256,192,183806,5,4,0:2:0:0:
256,192,184065,5,4,0:2:0:0:
256,192,184323,5,12,0:2:0:0:
256,192,184582,5,4,0:2:0:0:
256,192,184668,5,2,0:2:0:0:
256,192,184754,5,2,0:2:0:0:
256,192,184841,5,6,0:2:0:0:
256,192,184927,5,2,0:2:0:0:
256,192,185013,5,6,0:2:0:0:
256,192,185272,5,4,0:2:0:0:
256,192,185530,5,4,0:2:0:0:
256,192,185703,5,8,0:2:0:0:
256,192,186048,5,4,0:2:0:0:
256,192,186306,5,4,0:2:0:0:
256,192,186565,5,6,0:2:0:0:
256,192,186651,5,2,0:2:0:0:
256,192,186737,5,2,0:2:0:0:
256,192,186823,5,6,0:2:0:0:
256,192,186910,5,2,0:2:0:0:
256,192,187082,5,14,0:2:0:0:
256,192,187168,5,2,0:2:0:0:
256,192,187254,5,2,0:2:0:0:
256,192,187341,5,6,0:2:0:0:
256,192,187427,5,2,0:2:0:0:
256,192,187513,5,2,0:2:0:0:
256,192,187599,5,6,0:2:0:0:
256,192,187772,5,6,0:2:0:0:
256,192,188031,5,4,0:2:0:0:
256,192,188289,5,6,0:2:0:0:
256,192,188462,5,8,0:2:0:0:
256,192,188548,5,4,0:2:0:0:
256,192,188634,5,2,0:2:0:0:
256,192,188807,5,6,0:2:0:0:
256,192,189065,5,4,0:2:0:0:
256,192,189324,5,4,0:2:0:0:
256,192,189583,5,4,0:2:0:0:
256,192,189841,5,12,0:2:0:0:
256,192,190100,5,4,0:2:0:0:
256,192,190186,5,2,0:2:0:0:
256,192,190358,5,6,0:2:0:0:
256,192,190445,5,2,0:2:0:0:
256,192,190531,5,6,0:2:0:0:
256,192,190790,5,4,0:2:0:0:
256,192,191048,5,4,0:2:0:0:
256,192,191221,5,8,0:2:0:0:
256,192,191566,5,4,0:2:0:0:
256,192,191824,5,4,0:2:0:0:
256,192,192083,5,6,0:2:0:0:
256,192,192169,5,2,0:2:0:0:
256,192,192255,5,2,0:2:0:0:
256,192,192341,5,6,0:2:0:0:
256,192,192427,5,2,0:2:0:0:
256,192,192600,5,14,0:2:0:0:
256,192,192686,5,2,0:2:0:0:
256,192,192772,5,2,0:2:0:0:
256,192,192858,5,6,0:2:0:0:
256,192,192945,5,2,0:2:0:0:
256,192,193031,5,2,0:2:0:0:
256,192,193117,5,6,0:2:0:0:
256,192,193289,5,6,0:2:0:0:
256,192,193548,5,4,0:2:0:0:
256,192,193807,5,6,0:2:0:0:
256,192,193979,5,8,0:2:0:0:
256,192,194065,5,4,0:2:0:0:
256,192,194152,5,2,0:2:0:0:
256,192,194324,5,6,0:2:0:0:
256,192,194582,5,4,0:2:0:0:
256,192,194841,5,4,0:2:0:0:
256,192,195100,5,4,0:2:0:0:
256,192,195358,5,12,0:2:0:0:
256,192,195617,5,4,0:2:0:0:
256,192,195703,5,2,0:2:0:0:
256,192,195789,5,2,0:2:0:0:
256,192,195876,5,6,0:2:0:0:
256,192,195962,5,2,0:2:0:0:
256,192,196048,5,6,0:2:0:0:
256,192,196307,5,4,0:2:0:0:
256,192,196565,5,4,0:2:0:0:
256,192,196823,5,4,0:2:0:0:
256,192,197083,5,4,0:2:0:0:
256,192,197341,5,4,0:2:0:0:
256,192,197427,5,2,0:2:0:0:
256,192,197513,5,2,0:2:0:0:
256,192,197600,5,6,0:2:0:0:
256,192,197686,5,2,0:2:0:0:
256,192,197772,5,2,0:2:0:0:
256,192,197858,5,6,0:2:0:0:
256,192,197945,5,2,0:2:0:0:
256,192,198117,5,12,0:2:0:0:
256,192,198376,5,4,0:2:0:0:
256,192,198634,5,4,0:2:0:0:
256,192,198806,5,2,0:3:0:0:
256,192,198892,5,2,0:3:0:0:
256,192,199065,5,2,0:3:0:0:
256,192,199151,5,2,0:3:0:0:
256,192,199323,5,4,0:2:0:0:
256,192,199496,5,2,0:3:0:0:
256,192,199582,5,4,0:2:0:0:
256,192,199668,5,2,0:3:0:0:
256,192,199754,5,2,0:3:0:0:
256,192,199840,5,4,0:2:0:0:
256,192,199927,5,2,0:3:0:0:
256,192,200013,5,2,0:3:0:0:
256,192,200099,5,6,0:2:0:0:
256,192,200186,5,8,0:2:0:0:
256,192,200271,5,2,0:3:0:0:
256,192,200358,5,4,0:2:0:0:
256,192,200444,5,2,0:3:0:0:
256,192,200531,5,10,0:2:0:0:
256,192,200616,5,4,0:2:0:0:
256,192,200703,5,2,0:3:0:0:
256,192,200789,5,8,0:2:0:0:
256,192,200875,5,14,0:2:0:0:
256,192,200962,5,8,0:2:0:0:
256,192,201047,5,2,0:3:0:0:
256,192,201134,5,14,0:2:0:0:
256,192,201220,5,8,0:2:0:0:
256,192,201306,5,2,0:3:0:0:
256,192,201393,5,14,0:2:0:0:
256,192,201478,5,2,0:3:0:0:
256,192,201565,5,6,0:2:0:0:
256,192,201651,5,2,0:3:0:0:
256,192,201824,5,6,0:2:0:0:
256,192,201910,5,10,0:2:0:0:
256,192,202082,5,4,0:2:0:0:
256,192,202255,5,10,0:2:0:0:
256,192,202341,5,4,0:2:0:0:
256,192,202427,5,2,0:3:0:0:
256,192,202513,5,2,0:3:0:0:
256,192,202599,5,4,0:2:0:0:
256,192,202686,5,2,0:3:0:0:
256,192,202772,5,8,0:2:0:0:
256,192,202858,5,14,0:2:0:0:
256,192,202944,5,8,0:2:0:0:
256,192,203030,5,2,0:3:0:0:
256,192,203117,5,4,0:2:0:0:
256,192,203203,5,2,0:3:0:0:
256,192,203289,5,10,0:2:0:0:
256,192,203375,5,4,0:2:0:0:
256,192,203462,5,2,0:3:0:0:
256,192,203548,5,8,0:2:0:0:
256,192,203634,5,14,0:2:0:0:
256,192,203720,5,8,0:2:0:0:
256,192,203806,5,10,0:2:0:0:
256,192,203892,5,6,0:2:0:0:
256,192,203979,5,8,0:2:0:0:
256,192,204065,5,2,0:3:0:0:
256,192,204151,5,14,0:2:0:0:
256,192,204237,5,2,0:3:0:0:
256,192,204324,5,6,0:2:0:0:
256,192,204410,5,2,0:3:0:0:
256,192,204496,5,8,0:2:0:0:
256,192,204583,5,6,0:2:0:0:
256,192,204668,5,10,0:2:0:0:
256,192,204841,5,4,0:2:0:0:
256,192,204927,5,8,0:2:0:0:
256,192,205013,5,10,0:2:0:0:
256,192,205100,5,4,0:2:0:0:
256,192,205186,5,2,0:3:0:0:
256,192,205272,5,2,0:3:0:0:
256,192,205358,5,4,0:2:0:0:
256,192,205445,5,2,0:3:0:0:
256,192,205531,5,10,0:2:0:0:
256,192,205617,5,6,0:2:0:0:
256,192,205703,5,8,0:2:0:0:
256,192,205789,5,2,0:3:0:0:
256,192,205876,5,4,0:2:0:0:
256,192,205962,5,2,0:3:0:0:
256,192,206048,5,10,0:2:0:0:
256,192,206134,5,4,0:2:0:0:
256,192,206221,5,2,0:3:0:0:
256,192,206306,5,8,0:2:0:0:
256,192,206393,5,6,0:2:0:0:
256,192,206479,5,8,0:2:0:0:
256,192,206565,5,2,0:3:0:0:
256,192,206651,5,14,0:2:0:0:
256,192,206737,5,8,0:2:0:0:
256,192,206824,5,2,0:3:0:0:
256,192,206910,5,6,0:2:0:0:
256,192,206996,5,2,0:3:0:0:
256,192,207082,5,6,0:2:0:0:
256,192,207169,5,2,0:3:0:0:
256,192,207255,5,8,0:2:0:0:
256,192,207341,5,6,0:2:0:0:
256,192,207427,5,10,0:2:0:0:
256,192,207599,5,4,0:2:0:0:
256,192,207686,5,8,0:2:0:0:
256,192,207772,5,10,0:2:0:0:
256,192,207858,5,12,0:2:0:0:
256,192,207944,5,10,0:2:0:0:
256,192,208031,5,2,0:3:0:0:
256,192,208116,5,4,0:2:0:0:
256,192,208204,5,2,0:3:0:0:
256,192,208289,5,8,0:2:0:0:
256,192,208375,5,6,0:2:0:0:
256,192,208462,5,8,0:2:0:0:
256,192,208548,5,2,0:3:0:0:
256,192,208634,5,4,0:2:0:0:
256,192,208721,5,2,0:3:0:0:
256,192,208806,5,10,0:2:0:0:
256,192,208892,5,4,0:2:0:0:
256,192,208980,5,2,0:3:0:0:
256,192,209065,5,8,0:2:0:0:
256,192,209151,5,6,0:2:0:0:
256,192,209237,5,8,0:2:0:0:
256,192,209324,5,2,0:3:0:0:
256,192,209410,5,14,0:2:0:0:
256,192,209496,5,8,0:2:0:0:
256,192,209583,5,2,0:3:0:0:
256,192,209668,5,6,0:2:0:0:
256,192,209755,5,2,0:3:0:0:
256,192,209841,5,6,0:2:0:0:
256,192,210100,5,6,0:2:0:0:
256,192,210186,5,2,0:3:0:0:
256,192,210358,5,6,0:2:0:0:
256,192,210531,5,2,0:3:0:0:
256,192,210617,5,4,0:2:0:0:
256,192,210703,5,2,0:3:0:0:
256,192,210789,5,2,0:3:0:0:
256,192,210875,5,6,0:2:0:0:
256,192,210962,5,2,0:3:0:0:
256,192,211134,5,6,0:2:0:0:
256,192,211220,5,2,0:3:0:0:
256,192,211306,5,2,0:3:0:0:
256,192,211393,5,4,0:2:0:0:
256,192,211479,5,2,0:3:0:0:
256,192,211565,5,2,0:3:0:0:
256,192,211651,5,4,0:2:0:0:
256,192,211737,5,2,0:3:0:0:
256,192,211910,5,6,0:2:0:0:
256,192,212082,5,2,0:3:0:0:
256,192,212168,5,4,0:2:0:0:
256,192,212255,5,2,0:1:0:0:
256,192,212341,5,2,0:3:0:0:
256,192,212427,5,4,0:2:0:0:
256,192,212513,5,2,0:3:0:0:
256,192,212600,5,6,0:2:0:0:
256,192,212686,5,2,0:3:0:0:
256,192,212858,5,6,0:2:0:0:
256,192,212944,5,2,0:3:0:0:
256,192,213117,5,4,0:2:0:0:
256,192,213289,5,2,0:3:0:0:
256,192,213376,5,4,0:2:0:0:
256,192,213462,5,2,0:3:0:0:
256,192,213548,5,2,0:3:0:0:
256,192,213634,5,6,0:2:0:0:
256,192,213720,5,2,0:3:0:0:
256,192,213893,5,4,0:2:0:0:
256,192,213979,5,2,0:1:0:0:
256,192,214065,5,2,0:3:0:0:
256,192,214152,5,4,0:2:0:0:
256,192,214237,5,2,0:3:0:0:
256,192,214324,5,2,0:3:0:0:
256,192,214410,5,4,0:2:0:0:
256,192,214496,5,2,0:3:0:0:
256,192,214669,5,6,0:2:0:0:
256,192,214841,5,2,0:3:0:0:
256,192,214927,5,4,0:2:0:0:
256,192,215013,5,2,0:1:0:0:
256,192,215100,5,2,0:3:0:0:
256,192,215186,5,4,0:2:0:0:
256,192,215272,5,2,0:3:0:0:
256,192,215358,5,2,0:1:0:0:
256,192,215444,5,2,0:3:0:0:
256,192,215531,5,2,0:1:0:0:
256,192,215617,5,2,0:3:0:0:
256,192,215703,5,2,0:3:0:0:
256,192,215875,5,2,0:3:0:0:
256,192,216048,5,2,0:3:0:0:
256,192,216091,5,2,0:1:0:0:
256,192,216134,5,2,0:1:0:0:
256,192,216177,5,2,0:1:0:0:
256,192,216220,5,2,0:3:0:0:
256,192,216263,5,2,0:1:0:0:
256,192,216306,5,2,0:3:0:0:
256,192,216350,5,2,0:1:0:0:
256,192,216393,5,2,0:1:0:0:
256,192,216479,5,2,0:3:0:0:
256,192,216565,5,2,0:1:0:0:
256,192,216608,5,2,0:1:0:0:
256,192,216651,5,2,0:3:0:0:
256,192,216694,5,2,0:1:0:0:
256,192,216737,5,2,0:1:0:0:
256,192,216781,5,2,0:1:0:0:
256,192,216824,5,2,0:3:0:0:
256,192,216867,5,2,0:1:0:0:
256,192,216910,5,2,0:1:0:0:
256,192,216996,5,2,0:3:0:0:
256,192,217082,5,2,0:3:0:0:
256,192,217168,5,2,0:1:0:0:
256,192,217255,5,2,0:3:0:0:
256,192,217341,5,2,0:1:0:0:
256,192,217427,5,8,0:1:0:0:
256,192,217600,5,10,0:3:0:0:
256,192,217772,5,2,0:1:0:0:
256,192,217858,5,2,0:3:0:0:
256,192,217944,5,2,0:3:0:0:
256,192,218031,5,2,0:3:0:0:
256,192,218117,5,8,0:1:0:0:
256,192,218289,5,2,0:1:0:0:
256,192,218375,5,2,0:3:0:0:
256,192,218462,5,10,0:3:0:0:
256,192,218548,5,2,0:1:0:0:
256,192,218634,5,2,0:3:0:0:
256,192,218720,5,8,0:1:0:0:
256,192,218806,5,2,0:3:0:0:
256,192,218893,5,2,0:1:0:0:
256,192,218979,5,8,0:1:0:0:
256,192,219065,5,2,0:3:0:0:
256,192,219151,5,2,0:1:0:0:
256,192,219237,5,10,0:3:0:0:
256,192,219324,5,2,0:1:0:0:
256,192,219410,5,2,0:3:0:0:
256,192,219496,5,12,0:2:0:0:
256,192,220487,5,8,0:2:0:0:
256,192,220530,5,8,0:2:0:0:
256,192,220574,5,8,0:2:0:0:
256,192,220617,5,8,0:2:0:0:
256,192,220660,5,8,0:2:0:0:
256,192,220703,5,8,0:2:0:0:
256,192,220746,5,8,0:2:0:0:
256,192,220789,5,8,0:2:0:0:
256,192,220875,5,6,0:2:0:0:
256,192,221134,5,6,0:2:0:0:
256,192,221220,5,8,0:1:0:0:
256,192,221392,5,6,0:2:0:0:
256,192,221479,5,8,0:2:0:0:
256,192,221565,5,8,0:2:0:0:
256,192,221651,5,6,0:2:0:0:
256,192,221737,5,2,0:1:0:0:
256,192,221910,5,12,0:2:0:0:
256,192,222082,5,8,0:2:0:0:
256,192,222168,5,4,0:2:0:0:
256,192,222254,5,2,0:1:0:0:
256,192,222341,5,8,0:2:0:0:
256,192,222427,5,6,0:2:0:0:
256,192,222513,5,2,0:2:0:0:
256,192,222599,5,10,0:2:0:0:
256,192,222686,5,6,0:2:0:0:
256,192,222772,5,2,0:2:0:0:
256,192,222858,5,2,0:2:0:0:
256,192,222944,5,6,0:2:0:0:
256,192,223030,5,2,0:2:0:0:
256,192,223117,5,2,0:2:0:0:
256,192,223203,5,4,0:2:0:0:
256,192,223289,5,8,0:1:0:0:
256,192,223461,5,6,0:2:0:0:
256,192,223548,5,2,0:2:0:0:
256,192,223634,5,6,0:2:0:0:
256,192,223892,5,6,0:2:0:0:
256,192,223979,5,8,0:1:0:0:
256,192,224151,5,6,0:2:0:0:
256,192,224237,5,8,0:2:0:0:
256,192,224323,5,8,0:2:0:0:
256,192,224410,5,6,0:2:0:0:
256,192,224496,5,2,0:1:0:0:
256,192,224668,5,14,0:2:0:0:
256,192,224841,5,8,0:2:0:0:
256,192,224927,5,6,0:2:0:0:
256,192,225013,5,10,0:2:0:0:
256,192,225099,5,8,0:2:0:0:
256,192,225186,5,6,0:2:0:0:
256,192,225272,5,10,0:2:0:0:
256,192,225358,5,10,0:2:0:0:
256,192,225444,5,14,0:2:0:0:
256,192,225530,5,2,0:2:0:0:
256,192,225617,5,2,0:2:0:0:
256,192,225703,5,6,0:2:0:0:
256,192,225789,5,2,0:2:0:0:
256,192,225875,5,2,0:2:0:0:
256,192,225961,5,14,0:2:0:0:
256,192,226048,5,10,0:2:0:0:
256,192,226105,5,2,0:2:0:0:
256,192,226163,5,2,0:2:0:0:
256,192,226220,5,6,0:2:0:0:
256,192,226277,5,2,0:2:0:0:
256,192,226335,5,2,0:2:0:0:
256,192,226392,5,6,0:2:0:0:
256,192,226651,5,6,0:2:0:0:
256,192,226737,5,8,0:1:0:0:
256,192,226910,5,6,0:2:0:0:
256,192,226996,5,8,0:2:0:0:
256,192,227082,5,8,0:2:0:0:
256,192,227168,5,6,0:2:0:0:
256,192,227255,5,2,0:1:0:0:
256,192,227427,5,12,0:2:0:0:
256,192,227599,5,8,0:2:0:0:
256,192,227686,5,4,0:2:0:0:
256,192,227772,5,2,0:1:0:0:
256,192,227858,5,8,0:2:0:0:
256,192,227944,5,6,0:2:0:0:
256,192,228030,5,2,0:2:0:0:
256,192,228117,5,10,0:2:0:0:
256,192,228203,5,6,0:2:0:0:
256,192,228289,5,2,0:2:0:0:
256,192,228375,5,2,0:2:0:0:
256,192,228461,5,6,0:2:0:0:
256,192,228548,5,2,0:2:0:0:
256,192,228634,5,2,0:2:0:0:
256,192,228720,5,6,0:2:0:0:
256,192,228806,5,10,0:2:0:0:
256,192,228892,5,2,0:2:0:0:
256,192,228979,5,6,0:2:0:0:
256,192,229065,5,2,0:2:0:0:
256,192,229151,5,6,0:2:0:0:
256,192,229410,5,4,0:2:0:0:
256,192,229496,5,10,0:2:0:0:
256,192,229582,5,2,0:2:0:0:
256,192,229668,5,6,0:2:0:0:
256,192,229754,5,8,0:2:0:0:
256,192,229841,5,8,0:2:0:0:
256,192,229927,5,4,0:2:0:0:
256,192,230013,5,2,0:2:0:0:
256,192,230099,5,2,0:2:0:0:
256,192,230186,5,14,0:2:0:0:
256,192,230243,5,2,0:2:0:0:
256,192,230300,5,2,0:2:0:0:
256,192,230358,5,2,0:2:0:0:
256,192,230415,5,2,0:2:0:0:
256,192,230445,5,4,0:2:0:0:
256,192,230473,5,2,0:2:0:0:
256,192,230530,5,2,0:2:0:0:
256,192,230617,5,2,0:2:0:0:
256,192,230703,5,6,0:2:0:0:
256,192,230789,5,2,0:2:0:0:
256,192,230875,5,10,0:2:0:0:
256,192,230961,5,6,0:2:0:0:
256,192,231048,5,2,0:2:0:0:
256,192,231134,5,2,0:2:0:0:
256,192,231220,5,6,0:2:0:0:
256,192,231277,5,2,0:2:0:0:
256,192,231335,5,2,0:2:0:0:
256,192,231392,5,2,0:2:0:0:
256,192,231450,5,2,0:2:0:0:
256,192,231479,5,4,0:2:0:0:
256,192,231507,5,2,0:2:0:0:
256,192,231565,5,10,0:2:0:0:
256,192,231622,5,2,0:2:0:0:
256,192,231680,5,2,0:2:0:0:
256,192,231737,5,6,0:2:0:0:
256,192,231795,5,2,0:2:0:0:
256,192,231852,5,2,0:2:0:0:
256,192,231910,5,6,0:2:0:0:
256,192,232169,5,4,0:2:0:0:
256,192,232255,5,8,0:1:0:0:
256,192,232427,5,4,0:2:0:0:
256,192,232513,5,8,0:2:0:0:
256,192,232599,5,8,0:2:0:0:
256,192,232686,5,4,0:2:0:0:
256,192,232772,5,2,0:2:0:0:
256,192,232944,5,14,0:2:0:0:
256,192,233117,5,2,0:2:0:0:
256,192,233203,5,4,0:2:0:0:
256,192,233289,5,2,0:1:0:0:
256,192,233375,5,8,0:2:0:0:
256,192,233461,5,6,0:2:0:0:
256,192,233548,5,2,0:2:0:0:
256,192,233634,5,10,0:2:0:0:
256,192,233720,5,6,0:2:0:0:
256,192,233806,5,2,0:2:0:0:
256,192,233892,5,8,0:2:0:0:
256,192,233979,5,4,0:2:0:0:
256,192,234151,5,2,0:2:0:0:
256,192,234237,5,6,0:2:0:0:
256,192,234323,5,10,0:2:0:0:
256,192,234410,5,2,0:2:0:0:
256,192,234496,5,6,0:2:0:0:
256,192,234582,5,2,0:2:0:0:
256,192,234668,5,6,0:2:0:0:
256,192,234754,5,10,0:2:0:0:
256,192,234927,5,6,0:2:0:0:
256,192,235013,5,10,0:2:0:0:
256,192,235099,5,2,0:2:0:0:
256,192,235186,5,6,0:2:0:0:
256,192,235272,5,2,0:2:0:0:
256,192,235358,5,2,0:2:0:0:
256,192,235415,5,2,0:2:0:0:
256,192,235445,5,4,0:2:0:0:
256,192,235473,5,2,0:2:0:0:
256,192,235530,5,2,0:2:0:0:
256,192,235588,5,2,0:2:0:0:
256,192,235645,5,2,0:2:0:0:
256,192,235703,5,14,0:2:0:0:
256,192,235760,5,2,0:2:0:0:
256,192,235818,5,2,0:2:0:0:
256,192,235875,5,2,0:2:0:0:
256,192,235933,5,2,0:2:0:0:
256,192,235962,5,4,0:2:0:0:
256,192,235990,5,2,0:2:0:0:
256,192,236048,5,2,0:2:0:0:
256,192,236134,5,2,0:2:0:0:
256,192,236220,5,6,0:2:0:0:
256,192,236306,5,2,0:2:0:0:
256,192,236392,5,10,0:2:0:0:
256,192,236479,5,6,0:2:0:0:
256,192,236565,5,2,0:2:0:0:
256,192,236651,5,2,0:2:0:0:
256,192,236737,5,6,0:2:0:0:
256,192,236823,5,2,0:2:0:0:
256,192,236910,5,2,0:2:0:0:
256,192,236996,5,6,0:2:0:0:
256,192,237082,5,10,0:2:0:0:
256,192,237140,5,2,0:2:0:0:
256,192,237197,5,2,0:2:0:0:
256,192,237254,5,6,0:2:0:0:
256,192,237312,5,2,0:2:0:0:
256,192,237369,5,2,0:2:0:0:
256,192,237427,5,6,0:2:0:0:
256,192,237686,5,4,0:2:0:0:
256,192,237772,5,10,0:2:0:0:
256,192,237858,5,2,0:2:0:0:
256,192,237944,5,4,0:2:0:0:
256,192,238030,5,2,0:2:0:0:
256,192,238117,5,2,0:2:0:0:
256,192,238203,5,4,0:2:0:0:
256,192,238289,5,2,0:2:0:0:
256,192,238375,5,2,0:2:0:0:
256,192,238461,5,6,0:2:0:0:
256,192,238548,5,2,0:2:0:0:
256,192,238634,5,2,0:2:0:0:
256,192,238720,5,4,0:2:0:0:
256,192,238806,5,2,0:1:0:0:
256,192,238892,5,8,0:2:0:0:
256,192,238979,5,4,0:2:0:0:
256,192,239065,5,2,0:2:0:0:
256,192,239151,5,10,0:2:0:0:
256,192,239237,5,6,0:2:0:0:
256,192,239323,5,2,0:2:0:0:
256,192,239410,5,2,0:2:0:0:
256,192,239496,5,4,0:2:0:0:
256,192,239668,5,2,0:2:0:0:
256,192,239754,5,6,0:2:0:0:
256,192,239841,5,10,0:2:0:0:
256,192,239927,5,2,0:2:0:0:
256,192,240013,5,6,0:2:0:0:
256,192,240099,5,2,0:2:0:0:
256,192,240186,5,6,0:2:0:0:
256,192,240358,5,2,0:2:0:0:
256,192,240444,5,6,0:2:0:0:
256,192,240530,5,10,0:2:0:0:
256,192,240617,5,2,0:2:0:0:
256,192,240703,5,6,0:2:0:0:
256,192,240789,5,2,0:2:0:0:
256,192,240875,5,2,0:2:0:0:
256,192,240961,5,6,0:2:0:0:
256,192,241048,5,2,0:2:0:0:
256,192,241220,5,14,0:2:0:0:
256,192,241392,5,2,0:2:0:0:
256,192,241479,5,4,0:2:0:0:
256,192,241565,5,10,0:2:0:0:
256,192,241651,5,8,0:2:0:0:
256,192,241737,5,6,0:2:0:0:
256,192,241823,5,10,0:2:0:0:
256,192,241910,5,10,0:2:0:0:
256,192,241996,5,6,0:2:0:0:
256,192,242082,5,2,0:2:0:0:
256,192,242168,5,2,0:2:0:0:
256,192,242254,5,6,0:2:0:0:
256,192,242341,5,2,0:2:0:0:
256,192,242427,5,2,0:1:0:0:
256,192,242513,5,6,0:2:0:0:
256,192,242600,5,8,0:1:0:0:
256,192,242642,5,8,0:2:0:0:
256,192,242685,5,8,0:2:0:0:
256,192,242728,5,8,0:2:0:0:
256,192,242771,5,8,0:2:0:0:
256,192,242814,5,8,0:2:0:0:
256,192,242857,5,8,0:2:0:0:
256,192,242900,5,8,0:2:0:0:
256,192,242944,5,6,0:2:0:0:
256,192,243203,5,6,0:2:0:0:
256,192,243289,5,8,0:1:0:0:
256,192,243461,5,6,0:2:0:0:
256,192,243548,5,8,0:2:0:0:
256,192,243634,5,8,0:2:0:0:
256,192,243720,5,6,0:2:0:0:
256,192,243806,5,2,0:1:0:0:
256,192,243979,5,12,0:2:0:0:
256,192,244151,5,8,0:2:0:0:
256,192,244237,5,4,0:2:0:0:
256,192,244323,5,2,0:1:0:0:
256,192,244410,5,8,0:2:0:0:
256,192,244496,5,6,0:2:0:0:
256,192,244582,5,2,0:2:0:0:
256,192,244668,5,10,0:2:0:0:
256,192,244755,5,6,0:2:0:0:
256,192,244841,5,2,0:2:0:0:
256,192,244927,5,2,0:2:0:0:
256,192,245013,5,6,0:2:0:0:
256,192,245099,5,2,0:2:0:0:
256,192,245186,5,2,0:2:0:0:
256,192,245272,5,4,0:2:0:0:
256,192,245358,5,8,0:1:0:0:
256,192,245530,5,6,0:2:0:0:
256,192,245617,5,2,0:2:0:0:
256,192,245703,5,6,0:2:0:0:
256,192,245961,5,6,0:2:0:0:
256,192,246048,5,8,0:1:0:0:
256,192,246220,5,6,0:2:0:0:
256,192,246306,5,8,0:2:0:0:
256,192,246392,5,8,0:2:0:0:
256,192,246479,5,6,0:2:0:0:
256,192,246565,5,2,0:1:0:0:
256,192,246737,5,14,0:2:0:0:
256,192,246910,5,8,0:2:0:0:
256,192,246996,5,6,0:2:0:0:
256,192,247082,5,10,0:2:0:0:
256,192,247168,5,8,0:2:0:0:
256,192,247255,5,6,0:2:0:0:
256,192,247341,5,10,0:2:0:0:
256,192,247427,5,10,0:2:0:0:
256,192,247513,5,14,0:2:0:0:
256,192,247599,5,2,0:2:0:0:
256,192,247686,5,2,0:2:0:0:
256,192,247772,5,6,0:2:0:0:
256,192,247858,5,2,0:2:0:0:
256,192,247944,5,2,0:2:0:0:
256,192,248030,5,14,0:2:0:0:
256,192,248117,5,10,0:2:0:0:
256,192,248174,5,2,0:2:0:0:
256,192,248232,5,2,0:2:0:0:
256,192,248289,5,6,0:2:0:0:
256,192,248346,5,2,0:2:0:0:
256,192,248404,5,2,0:2:0:0:
256,192,248461,5,6,0:2:0:0:
256,192,248720,5,6,0:2:0:0:
256,192,248806,5,8,0:1:0:0:
256,192,248979,5,6,0:2:0:0:
256,192,249065,5,8,0:2:0:0:
256,192,249151,5,8,0:2:0:0:
256,192,249237,5,6,0:2:0:0:
256,192,249324,5,2,0:1:0:0:
256,192,249496,5,12,0:2:0:0:
256,192,249668,5,8,0:2:0:0:
256,192,249755,5,4,0:2:0:0:
256,192,249841,5,2,0:1:0:0:
256,192,249927,5,8,0:2:0:0:
256,192,250013,5,6,0:2:0:0:
256,192,250099,5,2,0:2:0:0:
256,192,250186,5,10,0:2:0:0:
256,192,250272,5,6,0:2:0:0:
256,192,250358,5,2,0:2:0:0:
256,192,250444,5,2,0:2:0:0:
256,192,250530,5,6,0:2:0:0:
256,192,250617,5,2,0:2:0:0:
256,192,250703,5,2,0:2:0:0:
256,192,250789,5,6,0:2:0:0:
256,192,250875,5,10,0:2:0:0:
256,192,250961,5,2,0:2:0:0:
256,192,251048,5,6,0:2:0:0:
256,192,251134,5,2,0:2:0:0:
256,192,251220,5,6,0:2:0:0:
256,192,251479,5,4,0:2:0:0:
256,192,251565,5,10,0:2:0:0:
256,192,251651,5,2,0:2:0:0:
256,192,251737,5,6,0:2:0:0:
256,192,251823,5,8,0:2:0:0:
256,192,251910,5,8,0:2:0:0:
256,192,251996,5,4,0:2:0:0:
256,192,252082,5,2,0:2:0:0:
256,192,252168,5,2,0:2:0:0:
256,192,252255,5,14,0:2:0:0:
256,192,252312,5,2,0:2:0:0:
256,192,252369,5,2,0:2:0:0:
256,192,252427,5,2,0:2:0:0:
256,192,252484,5,2,0:2:0:0:
256,192,252514,5,4,0:2:0:0:
256,192,252542,5,2,0:2:0:0:
256,192,252599,5,2,0:2:0:0:
256,192,252686,5,2,0:2:0:0:
256,192,252772,5,6,0:2:0:0:
256,192,252858,5,2,0:2:0:0:
256,192,252944,5,10,0:2:0:0:
256,192,253030,5,6,0:2:0:0:
256,192,253117,5,2,0:2:0:0:
256,192,253203,5,2,0:2:0:0:
256,192,253289,5,6,0:2:0:0:
256,192,253346,5,2,0:2:0:0:
256,192,253404,5,2,0:2:0:0:
256,192,253461,5,2,0:2:0:0:
256,192,253519,5,2,0:2:0:0:
256,192,253548,5,4,0:2:0:0:
256,192,253576,5,2,0:2:0:0:
256,192,253634,5,10,0:2:0:0:
256,192,253691,5,2,0:2:0:0:
256,192,253749,5,2,0:2:0:0:
256,192,253806,5,6,0:2:0:0:
256,192,253864,5,2,0:2:0:0:
256,192,253921,5,2,0:2:0:0:
256,192,253979,5,6,0:2:0:0:
256,192,254238,5,4,0:2:0:0:
256,192,254324,5,8,0:1:0:0:
256,192,254496,5,4,0:2:0:0:
256,192,254582,5,8,0:2:0:0:
256,192,254668,5,8,0:2:0:0:
256,192,254755,5,4,0:2:0:0:
256,192,254841,5,2,0:2:0:0:
256,192,255013,5,14,0:2:0:0:
256,192,255186,5,2,0:2:0:0:
256,192,255272,5,4,0:2:0:0:
256,192,255358,5,2,0:1:0:0:
256,192,255444,5,8,0:2:0:0:
256,192,255530,5,6,0:2:0:0:
256,192,255617,5,2,0:2:0:0:
256,192,255703,5,10,0:2:0:0:
256,192,255789,5,6,0:2:0:0:
256,192,255875,5,2,0:2:0:0:
256,192,255961,5,8,0:2:0:0:
256,192,256048,5,4,0:2:0:0:
256,192,256220,5,2,0:2:0:0:
256,192,256306,5,6,0:2:0:0:
256,192,256392,5,10,0:2:0:0:
256,192,256479,5,2,0:2:0:0:
256,192,256565,5,6,0:2:0:0:
256,192,256651,5,2,0:2:0:0:
256,192,256737,5,6,0:2:0:0:
256,192,256823,5,10,0:2:0:0:
256,192,256996,5,6,0:2:0:0:
256,192,257082,5,10,0:2:0:0:
256,192,257168,5,2,0:2:0:0:
256,192,257255,5,6,0:2:0:0:
256,192,257341,5,2,0:2:0:0:
256,192,257427,5,2,0:2:0:0:
256,192,257484,5,2,0:2:0:0:
256,192,257514,5,4,0:2:0:0:
256,192,257542,5,2,0:2:0:0:
256,192,257599,5,2,0:2:0:0:
256,192,257657,5,2,0:2:0:0:
256,192,257714,5,2,0:2:0:0:
256,192,257772,5,14,0:2:0:0:
256,192,257829,5,2,0:2:0:0:
256,192,257887,5,2,0:2:0:0:
256,192,257944,5,2,0:2:0:0:
256,192,258002,5,2,0:2:0:0:
256,192,258031,5,4,0:2:0:0:
256,192,258059,5,2,0:2:0:0:
256,192,258117,5,2,0:2:0:0:
256,192,258203,5,2,0:2:0:0:
256,192,258289,5,6,0:2:0:0:
256,192,258375,5,2,0:2:0:0:
256,192,258461,5,10,0:2:0:0:
256,192,258548,5,6,0:2:0:0:
256,192,258634,5,2,0:2:0:0:
256,192,258720,5,2,0:2:0:0:
256,192,258806,5,6,0:2:0:0:
256,192,258892,5,2,0:2:0:0:
256,192,258979,5,2,0:2:0:0:
256,192,259065,5,6,0:2:0:0:
256,192,259151,5,10,0:2:0:0:
256,192,259209,5,2,0:2:0:0:
256,192,259266,5,2,0:2:0:0:
256,192,259323,5,6,0:2:0:0:
256,192,259381,5,2,0:2:0:0:
256,192,259438,5,2,0:2:0:0:
256,192,259496,5,6,0:2:0:0:
256,192,259755,5,4,0:2:0:0:
256,192,259841,5,10,0:2:0:0:
256,192,260013,5,6,0:2:0:0:
256,192,260099,5,2,0:2:0:0:
256,192,260186,5,2,0:2:0:0:
256,192,260272,5,6,0:2:0:0:
256,192,260358,5,2,0:2:0:0:
256,192,260444,5,2,0:2:0:0:
256,192,260530,5,6,0:2:0:0:
256,192,260617,5,2,0:2:0:0:
256,192,260703,5,10,0:2:0:0:
256,192,260789,5,4,0:2:0:0:
256,192,260875,5,2,0:1:0:0:
256,192,260961,5,8,0:2:0:0:
256,192,261048,5,6,0:2:0:0:
256,192,261134,5,2,0:2:0:0:
256,192,261220,5,10,0:2:0:0:
256,192,261306,5,6,0:2:0:0:
256,192,261392,5,2,0:2:0:0:
256,192,261450,5,2,0:2:0:0:
256,192,261507,5,2,0:2:0:0:
256,192,261565,5,6,0:2:0:0:
256,192,261622,5,2,0:2:0:0:
256,192,261680,5,2,0:2:0:0:
256,192,261737,5,2,0:2:0:0:
256,192,261795,5,2,0:2:0:0:
256,192,261824,5,4,0:2:0:0:
256,192,261852,5,2,0:2:0:0:
256,192,261910,5,10,0:2:0:0:
256,192,261967,5,2,0:2:0:0:
256,192,262025,5,2,0:2:0:0:
256,192,262082,5,4,0:2:0:0:
256,192,262140,5,2,0:2:0:0:
256,192,262197,5,2,0:2:0:0:
256,192,262254,5,6,0:2:0:0:
256,192,262427,5,2,0:2:0:0:
256,192,262513,5,6,0:2:0:0:
256,192,262599,5,10,0:2:0:0:
256,192,262686,5,2,0:2:0:0:
256,192,262772,5,6,0:2:0:0:
256,192,262858,5,2,0:2:0:0:
256,192,262944,5,2,0:2:0:0:
256,192,263030,5,6,0:2:0:0:
256,192,263117,5,2,0:2:0:0:
256,192,263289,5,14,0:2:0:0:
256,192,263461,5,2,0:2:0:0:
256,192,263548,5,6,0:2:0:0:
256,192,263634,5,10,0:2:0:0:
256,192,263720,5,10,0:2:0:0:
256,192,263806,5,6,0:2:0:0:
256,192,263892,5,10,0:2:0:0:
256,192,263979,5,10,0:2:0:0:
256,192,264065,5,6,0:2:0:0:
256,192,264151,5,2,0:2:0:0:
256,192,264237,5,2,0:2:0:0:
256,192,264324,5,4,0:2:0:0:
256,192,264410,5,2,0:2:0:0:
256,192,264496,5,2,0:2:0:0:
256,192,264582,5,6,0:2:0:0:
256,192,264668,5,8,0:2:0:0:
256,192,264711,5,8,0:2:0:0:
256,192,264754,5,8,0:2:0:0:
256,192,264797,5,8,0:2:0:0:
256,192,264840,5,8,0:2:0:0:
256,192,264883,5,8,0:2:0:0:
256,192,264926,5,8,0:2:0:0:
256,192,264969,5,8,0:2:0:0:
256,192,265013,5,6,0:2:0:0:
256,192,265272,5,6,0:2:0:0:
256,192,265358,5,8,0:1:0:0:
256,192,265531,5,4,0:2:0:0:
256,192,265617,5,8,0:2:0:0:
256,192,265703,5,2,0:2:0:0:
256,192,265789,5,4,0:2:0:0:
256,192,265876,5,2,0:1:0:0:
256,192,265962,5,2,0:2:0:0:
256,192,266048,5,12,0:2:0:0:
256,192,266134,5,8,0:2:0:0:
256,192,266220,5,14,0:2:0:0:
256,192,266393,5,6,0:2:0:0:
256,192,266479,5,2,0:2:0:0:
256,192,266565,5,2,0:2:0:0:
256,192,266651,5,6,0:2:0:0:
256,192,266738,5,8,0:1:0:0:
256,192,266824,5,8,0:2:0:0:
256,192,266910,5,6,0:2:0:0:
256,192,266996,5,8,0:2:0:0:
256,192,267082,5,2,0:2:0:0:
256,192,267169,5,4,0:2:0:0:
256,192,267255,5,2,0:1:0:0:
256,192,267341,5,2,0:2:0:0:
256,192,267427,5,12,0:2:0:0:
256,192,267513,5,8,0:2:0:0:
256,192,267600,5,6,0:2:0:0:
256,192,267772,5,6,0:2:0:0:
256,192,268031,5,6,0:2:0:0:
256,192,268117,5,8,0:1:0:0:
256,192,268290,5,4,0:2:0:0:
256,192,268376,5,8,0:2:0:0:
256,192,268462,5,2,0:2:0:0:
256,192,268548,5,4,0:2:0:0:
256,192,268635,5,2,0:1:0:0:
256,192,268721,5,2,0:2:0:0:
256,192,268807,5,12,0:2:0:0:
256,192,268893,5,8,0:2:0:0:
256,192,268979,5,14,0:2:0:0:
256,192,269065,5,8,0:2:0:0:
256,192,269152,5,6,0:2:0:0:
256,192,269238,5,2,0:2:0:0:
256,192,269324,5,2,0:2:0:0:
256,192,269410,5,6,0:2:0:0:
256,192,269497,5,8,0:1:0:0:
256,192,269583,5,8,0:2:0:0:
256,192,269669,5,6,0:2:0:0:
256,192,269755,5,8,0:2:0:0:
256,192,269841,5,2,0:2:0:0:
256,192,269928,5,4,0:2:0:0:
256,192,270014,5,2,0:1:0:0:
256,192,270100,5,2,0:2:0:0:
256,192,270186,5,12,0:2:0:0:
256,192,270272,5,8,0:2:0:0:
256,192,270359,5,6,0:2:0:0:
256,192,270531,5,6,0:2:0:0:
256,192,270790,5,6,0:2:0:0:
256,192,270876,5,8,0:1:0:0:
256,192,271049,5,4,0:2:0:0:
256,192,271135,5,8,0:2:0:0:
256,192,271221,5,2,0:2:0:0:
256,192,271307,5,4,0:2:0:0:
256,192,271394,5,2,0:1:0:0:
256,192,271480,5,2,0:2:0:0:
256,192,271566,5,12,0:2:0:0:
256,192,271652,5,8,0:2:0:0:
256,192,271738,5,14,0:2:0:0:
256,192,271824,5,8,0:2:0:0:
256,192,271911,5,6,0:2:0:0:
256,192,271997,5,2,0:2:0:0:
256,192,272083,5,2,0:2:0:0:
256,192,272169,5,6,0:2:0:0:
256,192,272256,5,8,0:1:0:0:
256,192,272342,5,8,0:2:0:0:
256,192,272428,5,6,0:2:0:0:
256,192,272514,5,8,0:2:0:0:
256,192,272600,5,2,0:2:0:0:
256,192,272687,5,4,0:2:0:0:
256,192,272773,5,2,0:1:0:0:
256,192,272859,5,2,0:2:0:0:
256,192,272945,5,12,0:2:0:0:
256,192,273031,5,8,0:2:0:0:
256,192,273118,5,6,0:2:0:0:
256,192,273289,5,6,0:2:0:0:
256,192,273548,5,6,0:2:0:0:
256,192,273634,5,8,0:1:0:0:
256,192,273807,5,4,0:2:0:0:
256,192,273893,5,8,0:2:0:0:
256,192,273979,5,2,0:2:0:0:
256,192,274065,5,4,0:2:0:0:
256,192,274152,5,2,0:1:0:0:
256,192,274238,5,2,0:2:0:0:
256,192,274324,5,12,0:2:0:0:
256,192,274410,5,8,0:2:0:0:
256,192,274496,5,14,0:2:0:0:
256,192,274582,5,8,0:2:0:0:
256,192,274669,5,6,0:2:0:0:
256,192,274755,5,2,0:2:0:0:
256,192,274841,5,2,0:2:0:0:
256,192,274927,5,6,0:2:0:0:
256,192,275014,5,8,0:1:0:0:
256,192,275100,5,8,0:2:0:0:
256,192,275186,5,6,0:2:0:0:
256,192,275272,5,8,0:2:0:0:
256,192,275358,5,2,0:2:0:0:
256,192,275445,5,4,0:2:0:0:
256,192,275531,5,2,0:1:0:0:
256,192,275617,5,2,0:2:0:0:
256,192,275703,5,12,0:2:0:0:
256,192,275789,5,8,0:2:0:0:
256,192,275876,5,6,0:2:0:0:
256,192,276048,5,6,0:2:0:0:
256,192,276134,5,2,0:3:0:0:
256,192,276307,5,6,0:2:0:0:
256,192,276393,5,10,0:3:0:0:
256,192,276566,5,4,0:2:0:0:
256,192,276652,5,8,0:2:0:0:
256,192,276738,5,2,0:2:0:0:
256,192,276824,5,4,0:2:0:0:
256,192,276910,5,2,0:3:0:0:
256,192,276997,5,2,0:2:0:0:
256,192,277083,5,12,0:2:0:0:
256,192,277169,5,10,0:2:0:0:
256,192,277255,5,14,0:2:0:0:
256,192,277341,5,2,0:3:0:0:
256,192,277428,5,6,0:2:0:0:
256,192,277514,5,2,0:2:0:0:
256,192,277600,5,2,0:2:0:0:
256,192,277686,5,6,0:2:0:0:
256,192,277772,5,10,0:3:0:0:
256,192,277859,5,8,0:2:0:0:
256,192,277945,5,6,0:2:0:0:
256,192,278031,5,8,0:2:0:0:
256,192,278117,5,2,0:2:0:0:
256,192,278204,5,4,0:2:0:0:
256,192,278289,5,2,0:3:0:0:
256,192,278376,5,2,0:2:0:0:
256,192,278462,5,12,0:2:0:0:
256,192,278548,5,10,0:2:0:0:
256,192,278635,5,6,0:2:0:0:
256,192,278720,5,2,0:3:0:0:
256,192,278807,5,6,0:2:0:0:
256,192,278893,5,2,0:3:0:0:
256,192,279066,5,6,0:2:0:0:
256,192,279152,5,10,0:3:0:0:
256,192,279325,5,4,0:2:0:0:
256,192,279411,5,8,0:2:0:0:
256,192,279497,5,2,0:2:0:0:
256,192,279583,5,4,0:2:0:0:
256,192,279669,5,2,0:3:0:0:
256,192,279756,5,2,0:2:0:0:
256,192,279842,5,12,0:2:0:0:
256,192,279928,5,10,0:2:0:0:
256,192,280014,5,14,0:2:0:0:
256,192,280100,5,10,0:2:0:0:
256,192,280187,5,6,0:2:0:0:
256,192,280273,5,2,0:2:0:0:
256,192,280359,5,2,0:2:0:0:
256,192,280445,5,6,0:2:0:0:
256,192,280531,5,10,0:3:0:0:
256,192,280618,5,8,0:2:0:0:
256,192,280704,5,6,0:2:0:0:
256,192,280790,5,8,0:2:0:0:
256,192,280876,5,2,0:2:0:0:
256,192,280963,5,4,0:2:0:0:
256,192,281048,5,2,0:3:0:0:
256,192,281135,5,2,0:2:0:0:
256,192,281221,5,12,0:2:0:0:
256,192,281307,5,10,0:2:0:0:
256,192,281394,5,6,0:2:0:0:
256,192,281479,5,2,0:3:0:0:
256,192,281566,5,6,0:2:0:0:
256,192,281651,5,2,0:3:0:0:
256,192,281825,5,6,0:2:0:0:
256,192,281910,5,10,0:3:0:0:
256,192,282084,5,4,0:2:0:0:
256,192,282170,5,8,0:2:0:0:
256,192,282256,5,2,0:2:0:0:
256,192,282342,5,4,0:2:0:0:
256,192,282427,5,2,0:3:0:0:
256,192,282515,5,2,0:2:0:0:
256,192,282601,5,12,0:2:0:0:
256,192,282687,5,10,0:2:0:0:
256,192,282773,5,14,0:2:0:0:
256,192,282859,5,10,0:2:0:0:
256,192,282946,5,6,0:2:0:0:
256,192,283032,5,2,0:2:0:0:
256,192,283118,5,2,0:2:0:0:
256,192,283204,5,6,0:2:0:0:
256,192,283289,5,10,0:3:0:0:
256,192,283377,5,8,0:2:0:0:
256,192,283463,5,6,0:2:0:0:
256,192,283549,5,8,0:2:0:0:
256,192,283635,5,2,0:2:0:0:
256,192,283722,5,4,0:2:0:0:
256,192,283806,5,2,0:3:0:0:
256,192,283894,5,2,0:2:0:0:
256,192,283980,5,12,0:2:0:0:
256,192,284066,5,10,0:2:0:0:
256,192,284153,5,6,0:2:0:0:
256,192,284237,5,2,0:3:0:0:
256,192,284324,5,6,0:2:0:0:
256,192,284410,5,2,0:3:0:0:
256,192,284583,5,6,0:2:0:0:
256,192,284669,5,10,0:3:0:0:
256,192,284842,5,4,0:2:0:0:
256,192,284928,5,8,0:2:0:0:
256,192,285014,5,2,0:2:0:0:
256,192,285100,5,4,0:2:0:0:
256,192,285186,5,2,0:3:0:0:
256,192,285273,5,2,0:2:0:0:
256,192,285359,5,12,0:2:0:0:
256,192,285445,5,10,0:2:0:0:
256,192,285531,5,14,0:2:0:0:
256,192,285617,5,10,0:2:0:0:
256,192,285704,5,6,0:2:0:0:
256,192,285790,5,2,0:2:0:0:
256,192,285876,5,2,0:2:0:0:
256,192,285962,5,6,0:2:0:0:
256,192,286048,5,10,0:3:0:0:
256,192,286135,5,8,0:2:0:0:
256,192,286221,5,6,0:2:0:0:
256,192,286307,5,8,0:2:0:0:
256,192,286393,5,2,0:2:0:0:
256,192,286480,5,4,0:2:0:0:
256,192,286565,5,2,0:3:0:0:
256,192,286652,5,2,0:2:0:0:
256,192,286738,5,12,0:2:0:0:
256,192,286824,5,10,0:2:0:0:
256,192,286911,5,6,0:2:0:0:
256,192,286996,5,2,0:3:0:0:
256,192,287082,5,6,0:2:0:0:
256,192,287341,5,2,0:3:0:0:
256,192,287427,5,10,0:3:0:0:
256,192,287599,5,2,0:3:0:0:
256,192,287772,5,2,0:3:0:0:
256,192,287944,5,2,0:3:0:0:
256,192,288030,5,2,0:3:0:0:
256,192,288116,5,8,0:1:0:0:
256,192,288375,5,2,0:3:0:0:
256,192,288461,5,2,0:3:0:0:
256,192,288548,5,2,0:3:0:0:
256,192,288634,5,2,0:3:0:0:
256,192,288720,5,2,0:3:0:0:
256,192,288806,5,8,0:1:0:0:
256,192,288979,5,2,0:3:0:0:
256,192,289065,5,2,0:3:0:0:
256,192,289151,5,2,0:3:0:0:
256,192,289323,5,2,0:3:0:0:
256,192,289410,5,2,0:3:0:0:
256,192,289495,5,8,0:1:0:0:
256,192,289582,5,2,0:3:0:0:
256,192,289668,5,2,0:3:0:0:
256,192,289754,5,2,0:3:0:0:
256,192,289841,5,2,0:1:0:0:
256,192,290100,5,2,0:3:0:0:
256,192,290186,5,10,0:3:0:0:
256,192,290358,5,2,0:3:0:0:
256,192,290531,5,2,0:3:0:0:
256,192,290703,5,2,0:3:0:0:
256,192,290789,5,2,0:3:0:0:
256,192,290875,5,8,0:1:0:0:
256,192,291134,5,2,0:3:0:0:
256,192,291220,5,2,0:3:0:0:
256,192,291307,5,2,0:3:0:0:
256,192,291393,5,2,0:3:0:0:
256,192,291479,5,2,0:3:0:0:
256,192,291565,5,8,0:1:0:0:
256,192,291738,5,2,0:3:0:0:
256,192,291824,5,2,0:3:0:0:
256,192,291910,5,2,0:3:0:0:
256,192,292082,5,2,0:3:0:0:
256,192,292169,5,2,0:3:0:0:
256,192,292254,5,8,0:1:0:0:
256,192,292341,5,2,0:3:0:0:
256,192,292427,5,2,0:3:0:0:
256,192,292513,5,2,0:3:0:0:
256,192,292599,5,2,0:1:0:0:
256,192,292858,5,2,0:3:0:0:
256,192,292944,5,10,0:3:0:0:
256,192,293116,5,2,0:3:0:0:
256,192,293289,5,2,0:3:0:0:
256,192,293461,5,2,0:3:0:0:
256,192,293547,5,2,0:3:0:0:
256,192,293633,5,8,0:1:0:0:
256,192,293892,5,2,0:3:0:0:
256,192,293978,5,2,0:3:0:0:
256,192,294065,5,2,0:3:0:0:
256,192,294151,5,2,0:3:0:0:
256,192,294237,5,2,0:3:0:0:
256,192,294323,5,8,0:1:0:0:
256,192,294496,5,2,0:3:0:0:
256,192,294582,5,2,0:3:0:0:
256,192,294668,5,2,0:3:0:0:
256,192,294840,5,2,0:3:0:0:
256,192,294927,5,2,0:3:0:0:
256,192,295012,5,8,0:1:0:0:
256,192,295099,5,2,0:3:0:0:
256,192,295185,5,2,0:3:0:0:
256,192,295271,5,2,0:3:0:0:
256,192,295358,5,2,0:1:0:0:
256,192,295617,5,2,0:3:0:0:
256,192,295703,5,10,0:3:0:0:
256,192,295875,5,2,0:3:0:0:
256,192,296048,5,2,0:3:0:0:
256,192,296220,5,2,0:3:0:0:
256,192,296306,5,2,0:3:0:0:
256,192,296392,5,8,0:1:0:0:
256,192,296651,5,2,0:3:0:0:
256,192,296737,5,2,0:3:0:0:
256,192,296824,5,2,0:3:0:0:
256,192,296910,5,2,0:3:0:0:
256,192,296996,5,2,0:3:0:0:
256,192,297082,5,8,0:1:0:0:
256,192,297255,5,2,0:3:0:0:
256,192,297341,5,2,0:3:0:0:
256,192,297427,5,2,0:3:0:0:
256,192,297599,5,2,0:3:0:0:
256,192,297686,5,2,0:3:0:0:
256,192,297771,5,8,0:1:0:0:
256,192,297858,5,2,0:3:0:0:
256,192,297944,5,2,0:3:0:0:
256,192,298030,5,2,0:3:0:0:
256,192,298117,5,2,0:1:0:0:
256,192,298376,5,2,0:3:0:0:
256,192,298462,5,10,0:3:0:0:
256,192,298634,5,2,0:3:0:0:
256,192,298807,5,2,0:3:0:0:
256,192,298979,5,2,0:3:0:0:
256,192,299065,5,2,0:3:0:0:
256,192,299151,5,8,0:1:0:0:
256,192,299410,5,2,0:3:0:0:
256,192,299496,5,2,0:3:0:0:
256,192,299583,5,2,0:3:0:0:
256,192,299669,5,2,0:3:0:0:
256,192,299755,5,2,0:3:0:0:
256,192,299841,5,8,0:1:0:0:
256,192,300014,5,2,0:3:0:0:
256,192,300100,5,2,0:3:0:0:
256,192,300186,5,2,0:3:0:0:
256,192,300358,5,2,0:3:0:0:
256,192,300445,5,2,0:3:0:0:
256,192,300530,5,8,0:1:0:0:
256,192,300617,5,2,0:3:0:0:
256,192,300703,5,2,0:3:0:0:
256,192,300789,5,2,0:3:0:0:
256,192,300875,5,2,0:1:0:0:
256,192,301134,5,2,0:3:0:0:
256,192,301220,5,10,0:3:0:0:
256,192,301392,5,2,0:3:0:0:
256,192,301565,5,2,0:3:0:0:
256,192,301737,5,2,0:3:0:0:
256,192,301823,5,2,0:3:0:0:
256,192,301909,5,8,0:1:0:0:
256,192,302168,5,2,0:3:0:0:
256,192,302254,5,2,0:3:0:0:
256,192,302341,5,2,0:3:0:0:
256,192,302427,5,2,0:3:0:0:
256,192,302513,5,2,0:3:0:0:
256,192,302599,5,8,0:1:0:0:
256,192,302772,5,2,0:3:0:0:
256,192,302858,5,2,0:3:0:0:
256,192,302944,5,2,0:3:0:0:
256,192,303116,5,2,0:3:0:0:
256,192,303203,5,2,0:3:0:0:
256,192,303288,5,8,0:1:0:0:
256,192,303375,5,2,0:3:0:0:
256,192,303461,5,2,0:3:0:0:
256,192,303547,5,2,0:3:0:0:
256,192,303634,5,2,0:1:0:0:
256,192,303893,5,2,0:3:0:0:
256,192,303979,5,10,0:3:0:0:
256,192,304151,5,2,0:3:0:0:
256,192,304324,5,2,0:3:0:0:
256,192,304496,5,2,0:3:0:0:
256,192,304582,5,2,0:3:0:0:
256,192,304668,5,8,0:1:0:0:
256,192,304927,5,2,0:3:0:0:
256,192,305013,5,2,0:3:0:0:
256,192,305100,5,2,0:3:0:0:
256,192,305186,5,2,0:3:0:0:
256,192,305272,5,2,0:3:0:0:
256,192,305358,5,8,0:1:0:0:
256,192,305531,5,2,0:3:0:0:
256,192,305617,5,2,0:3:0:0:
256,192,305703,5,2,0:3:0:0:
256,192,305875,5,2,0:3:0:0:
256,192,305962,5,2,0:3:0:0:
256,192,306047,5,8,0:1:0:0:
256,192,306134,5,2,0:3:0:0:
256,192,306220,5,2,0:3:0:0:
256,192,306306,5,2,0:3:0:0:
256,192,306392,5,2,0:1:0:0:
256,192,306651,5,2,0:3:0:0:
256,192,306737,5,10,0:3:0:0:
256,192,306909,5,2,0:3:0:0:
256,192,307082,5,2,0:3:0:0:
256,192,307254,5,2,0:3:0:0:
256,192,307340,5,2,0:3:0:0:
256,192,307426,5,8,0:1:0:0:
256,192,307685,5,2,0:3:0:0:
256,192,307772,5,10,0:2:0:0:
256,192,307858,5,2,0:3:0:0:
256,192,307944,5,2,0:3:0:0:
256,192,308030,5,2,0:3:0:0:
256,192,308117,5,8,0:2:0:0:
256,192,308203,5,8,0:2:0:0:
256,192,308289,5,2,0:3:0:0:
256,192,308375,5,2,0:3:0:0:
256,192,308461,5,10,0:2:0:0:
256,192,308548,5,8,0:2:0:0:
256,192,308634,5,10,0:2:0:0:
256,192,308720,5,10,0:2:0:0:
256,192,308806,5,8,0:2:0:0:
256,192,308892,5,10,0:2:0:0:
256,192,308979,5,8,0:2:0:0:
256,192,309022,5,8,0:2:0:0:
256,192,309065,5,8,0:2:0:0:
256,192,309108,5,8,0:2:0:0:
256,192,309151,5,8,0:2:0:0:
