osu file format v14

[General]
AudioFilename: audio.mp3
AudioLeadIn: 0
PreviewTime: 160186
Countdown: 0
SampleSet: Soft
StackLeniency: 0
Mode: 0
LetterboxInBreaks: 0
WidescreenStoryboard: 0

[Editor]
Bookmarks: 22254
DistanceSpacing: 2.5
BeatDivisor: 4
GridSize: 8
TimelineZoom: 1.7

[Metadata]
Title:2D Universe
TitleUnicode:2D Universe
Artist:Street
ArtistUnicode:Street
Creator:DeviousPanda
Version:Affluescence (hitsound shite)
Source:
Tags:Metal Force Doujin Music AB-Sounds Jewel Records
BeatmapID:1958729
BeatmapSetID:937676

[Difficulty]
HPDrainRate:6
CircleSize:5
OverallDifficulty:9
ApproachRate:9
SliderMultiplier:2.5
SliderTickRate:1

[Events]
//Background and Video events
0,0,"69729758_p0.jpg",0,0
//Break Periods
//Storyboard Layer 0 (Background)
//Storyboard Layer 1 (Fail)
//Storyboard Layer 2 (Pass)
//Storyboard Layer 3 (Foreground)
//Storyboard Sound Samples

[TimingPoints]
186,344.827586206897,4,2,1,50,1,0
22254,-100,4,2,1,80,0,0
44323,-100,4,2,1,60,0,0
87082,-100,4,2,2,100,0,0
88461,-100,4,2,87,90,0,0
88720,-100,4,2,88,90,0,0
88979,-100,4,2,90,90,0,0
89151,-100,4,2,2,90,0,0
91220,-100,4,2,90,90,0,0
91479,-100,4,2,88,90,0,0
91738,-100,4,2,87,90,0,0
91910,-100,4,2,2,90,0,0
93979,-100,4,2,87,90,0,0
94238,-100,4,2,88,90,0,0
94497,-100,4,2,90,90,0,0
94668,-100,4,2,2,90,0,0
96737,-100,4,2,90,90,0,0
96996,-100,4,2,88,90,0,0
97255,-100,4,2,87,90,0,0
97427,-100,4,2,2,90,0,0
99496,-100,4,2,87,90,0,0
99755,-100,4,2,88,90,0,0
100014,-100,4,2,90,90,0,0
100186,-100,4,2,2,90,0,0
102254,-100,4,2,90,90,0,0
102513,-100,4,2,88,90,0,0
102772,-100,4,2,87,90,0,0
102944,-100,4,2,2,90,0,0
105013,-100,4,2,87,90,0,0
105272,-100,4,2,88,90,0,0
105531,-100,4,2,90,90,0,0
105703,-100,4,2,2,90,0,0
107772,-100,4,2,90,90,0,0
108031,-100,4,2,88,90,0,0
108290,-100,4,2,87,90,0,0
108461,-100,4,2,2,90,0,0
110530,-100,4,2,87,90,0,0
110789,-100,4,2,88,90,0,0
111048,-100,4,2,90,90,0,0
111220,-100,4,2,2,90,0,0
113289,-100,4,2,90,90,0,0
113548,-100,4,2,88,90,0,0
113807,-100,4,2,87,90,0,0
113979,-100,4,2,2,90,0,0
116048,-100,4,2,87,90,0,0
116307,-100,4,2,88,90,0,0
116566,-100,4,2,90,90,0,0
116737,-100,4,2,2,90,0,0
118806,-100,4,2,90,90,0,0
119065,-100,4,2,88,90,0,0
119324,-100,4,2,87,90,0,0
119496,-100,4,2,2,90,0,0
121565,-100,4,2,87,90,0,0
121824,-100,4,2,88,90,0,0
122083,-100,4,2,90,90,0,0
122254,-100,4,2,2,90,0,0
124323,-100,4,2,90,90,0,0
124582,-100,4,2,88,90,0,0
124841,-100,4,2,87,90,0,0
125013,-100,4,2,2,90,0,0
127082,-100,4,2,87,90,0,0
127341,-100,4,2,88,90,0,0
127600,-100,4,2,90,90,0,0
127772,-100,4,2,2,90,0,0
129841,-100,4,2,90,90,0,0
130100,-100,4,2,88,90,0,0
130359,-100,4,2,87,90,0,0
130530,-100,4,2,2,90,0,0
132599,-100,4,2,1,90,0,0
154668,-100,4,2,1,60,0,0
176392,-100,4,2,3,60,0,0
198806,-100,4,2,1,60,0,0
219496,-100,4,2,2,90,0,0
220875,-100,4,2,1,90,0,0
242599,-100,4,2,2,90,0,0
242944,-100,4,2,1,90,0,0
264668,-100,4,2,2,90,0,0
265013,-100,4,2,1,80,0,0
308979,-100,4,2,2,90,0,0

[Colours]
Combo1 : 255,128,255
Combo2 : 255,121,121
Combo3 : 128,0,128
Combo4 : 242,24,57

[HitObjects]
16,13,186,5,2,0:0:0:0:
16,13,530,5,2,0:0:0:0:
221,88,530,5,4,3:0:0:0:
16,13,875,5,2,0:0:0:0:
16,13,1220,5,2,0:0:0:0:
16,13,1565,5,2,0:0:0:0:
16,13,1910,5,2,0:0:0:0:
16,13,2254,5,2,0:0:0:0:
16,13,2599,5,2,0:0:0:0:
16,13,2944,5,2,0:0:0:0:
16,13,3289,5,2,0:0:0:0:
16,13,3634,5,2,0:0:0:0:
16,13,3979,5,2,0:0:0:0:
16,13,4323,5,2,0:0:0:0:
16,13,4668,5,2,0:0:0:0:
16,13,5013,5,2,0:0:0:0:
16,13,5358,5,2,0:0:0:0:
16,13,5703,5,2,0:0:0:0:
120,18,5875,5,8,2:0:0:0:
16,13,6048,5,2,0:0:0:0:
120,18,6220,5,8,2:0:0:0:
120,18,6306,5,8,2:0:0:0:
16,13,6392,5,2,0:0:0:0:
120,18,6565,5,8,2:0:0:0:
16,13,6737,5,2,0:0:0:0:
120,18,6910,5,8,2:0:0:0:
16,13,7082,5,2,0:0:0:0:
120,18,7168,5,8,2:0:0:0:
120,18,7254,5,8,2:0:0:0:
120,18,7341,5,8,2:0:0:0:
16,13,7427,5,2,0:0:0:0:
120,18,7599,5,8,2:0:0:0:
120,18,7686,5,8,2:0:0:0:
16,13,7772,5,2,0:0:0:0:
120,18,7858,5,8,2:0:0:0:
120,18,7944,5,8,2:0:0:0:
16,13,8117,5,2,0:0:0:0:
120,18,8289,5,8,2:0:0:0:
16,13,8461,5,2,0:0:0:0:
120,18,8634,5,8,2:0:0:0:
16,13,8806,5,2,0:0:0:0:
120,18,8979,5,8,2:0:0:0:
120,18,9065,5,8,2:0:0:0:
16,13,9151,5,2,0:0:0:0:
120,18,9323,5,8,2:0:0:0:
16,13,9496,5,2,0:0:0:0:
120,18,9668,5,8,2:0:0:0:
16,13,9841,5,2,0:0:0:0:
120,18,9927,5,8,2:0:0:0:
120,18,10013,5,8,2:0:0:0:
120,18,10099,5,8,2:0:0:0:
16,13,10186,5,2,0:0:0:0:
120,18,10358,5,8,2:0:0:0:
120,18,10444,5,8,2:0:0:0:
16,13,10530,5,2,0:0:0:0:
120,18,10617,5,8,2:0:0:0:
120,18,10703,5,8,2:0:0:0:
120,18,10789,5,8,2:0:0:0:
15,13,10875,5,2,0:0:0:0:
120,18,11048,5,8,2:0:0:0:
220,13,11220,5,4,0:0:0:0:
13,85,11220,5,2,3:0:0:0:
13,85,11306,5,2,3:0:0:0:
220,13,11392,5,4,0:0:0:0:
13,85,11479,5,2,3:0:0:0:
13,85,11565,5,2,3:0:0:0:
13,85,11737,5,2,3:0:0:0:
220,13,11737,5,4,0:0:0:0:
120,18,11737,5,8,2:0:0:0:
120,18,11823,5,8,2:0:0:0:
120,18,11910,5,8,2:0:0:0:
220,13,11910,5,4,0:0:0:0:
13,85,11910,5,2,3:0:0:0:
13,85,12082,5,2,3:0:0:0:
13,85,12168,5,2,3:0:0:0:
220,13,12254,5,4,0:0:0:0:
13,85,12341,5,2,3:0:0:0:
220,13,12427,5,4,0:0:0:0:
13,85,12513,5,2,3:0:0:0:
120,18,12599,5,8,2:0:0:0:
13,85,12686,5,2,3:0:0:0:
220,13,12772,5,4,0:0:0:0:
13,85,12858,5,2,3:0:0:0:
220,13,12944,5,4,0:0:0:0:
13,85,12944,5,2,3:0:0:0:
13,85,13117,5,2,3:0:0:0:
120,18,13203,5,8,2:0:0:0:
220,13,13289,5,4,0:0:0:0:
120,18,13375,5,8,2:0:0:0:
13,85,13375,5,2,3:0:0:0:
13,85,13461,5,2,3:0:0:0:
120,18,13548,5,8,2:0:0:0:
220,13,13634,5,4,0:0:0:0:
13,85,13720,5,2,3:0:0:0:
13,85,13806,5,2,3:0:0:0:
13,85,13892,5,2,3:0:0:0:
220,13,13979,5,4,0:0:0:0:
13,85,13979,5,2,3:0:0:0:
13,85,14065,5,2,3:0:0:0:
220,13,14151,5,4,0:0:0:0:
13,85,14237,5,2,3:0:0:0:
120,18,14323,5,8,2:0:0:0:
13,85,14323,5,2,3:0:0:0:
13,85,14496,5,2,3:0:0:0:
220,13,14496,5,4,0:0:0:0:
120,18,14582,5,8,2:0:0:0:
13,85,14668,5,2,3:0:0:0:
220,13,14668,5,4,0:0:0:0:
120,18,14841,5,8,2:0:0:0:
13,85,14841,5,2,3:0:0:0:
13,85,14927,5,2,3:0:0:0:
220,13,15013,5,4,0:0:0:0:
13,85,15099,5,2,3:0:0:0:
220,13,15186,5,4,0:0:0:0:
13,85,15272,5,2,3:0:0:0:
120,18,15358,5,8,2:0:0:0:
13,85,15444,5,2,3:0:0:0:
220,13,15531,5,4,0:0:0:0:
13,85,15617,5,2,3:0:0:0:
13,85,15703,5,2,3:0:0:0:
220,13,15703,5,4,0:0:0:0:
13,85,15875,5,2,3:0:0:0:
120,18,15961,5,8,2:0:0:0:
220,13,16048,5,4,0:0:0:0:
13,85,16048,5,2,3:0:0:0:
120,18,16134,5,8,2:0:0:0:
13,85,16220,5,2,3:0:0:0:
13,85,16306,5,2,3:0:0:0:
220,13,16393,5,4,0:0:0:0:
13,85,16479,5,2,3:0:0:0:
13,85,16565,5,2,3:0:0:0:
120,18,16565,5,8,2:0:0:0:
13,85,16651,5,2,3:0:0:0:
220,13,16737,5,4,0:0:0:0:
13,154,16737,5,2,1:0:0:0:
13,85,16737,5,2,3:0:0:0:
13,85,16823,5,2,3:0:0:0:
220,13,16909,5,4,0:0:0:0:
13,85,16996,5,2,3:0:0:0:
13,85,17082,5,2,3:0:0:0:
120,18,17082,5,8,2:0:0:0:
13,85,17254,5,2,3:0:0:0:
220,13,17254,5,4,0:0:0:0:
120,18,17341,5,8,2:0:0:0:
220,13,17427,5,4,0:0:0:0:
13,85,17427,5,2,3:0:0:0:
13,154,17599,5,2,1:0:0:0:
13,85,17599,5,2,3:0:0:0:
13,85,17686,5,2,3:0:0:0:
220,13,17771,5,4,0:0:0:0:
13,85,17858,5,2,3:0:0:0:
220,13,17944,5,4,0:0:0:0:
13,85,18030,5,2,3:0:0:0:
120,18,18117,5,8,2:0:0:0:
13,85,18203,5,2,3:0:0:0:
13,154,18289,5,2,1:0:0:0:
220,13,18289,5,4,0:0:0:0:
13,85,18375,5,2,3:0:0:0:
220,13,18461,5,4,0:0:0:0:
13,85,18461,5,2,3:0:0:0:
13,85,18634,5,2,3:0:0:0:
220,13,18806,5,4,0:0:0:0:
13,85,18806,5,2,3:0:0:0:
13,154,18979,5,2,1:0:0:0:
13,85,18979,5,2,3:0:0:0:
13,85,19065,5,2,3:0:0:0:
220,13,19151,5,4,0:0:0:0:
13,85,19237,5,2,3:0:0:0:
13,85,19323,5,2,3:0:0:0:
13,85,19410,5,2,3:0:0:0:
13,85,19496,5,2,3:0:0:0:
220,13,19496,5,4,0:0:0:0:
13,154,19496,5,2,1:0:0:0:
13,85,19582,5,2,3:0:0:0:
220,13,19668,5,4,0:0:0:0:
13,85,19754,5,2,3:0:0:0:
13,85,19841,5,2,3:0:0:0:
220,13,20013,5,4,0:0:0:0:
13,85,20013,5,2,3:0:0:0:
220,13,20186,5,4,0:0:0:0:
13,85,20186,5,2,3:0:0:0:
13,154,20358,5,2,1:0:0:0:
13,85,20358,5,2,3:0:0:0:
13,85,20444,5,2,3:0:0:0:
220,13,20530,5,4,0:0:0:0:
13,85,20617,5,2,3:0:0:0:
220,13,20703,5,4,0:0:0:0:
13,85,20789,5,2,3:0:0:0:
117,158,20875,5,8,1:0:0:0:
13,85,20961,5,2,3:0:0:0:
220,13,21048,5,4,0:0:0:0:
221,88,21134,5,4,3:0:0:0:
120,18,21220,5,8,2:0:0:0:
120,18,21306,5,8,2:0:0:0:
117,158,21392,5,8,1:0:0:0:
120,18,21479,5,8,2:0:0:0:
117,158,21565,5,8,1:0:0:0:
120,18,21651,5,8,2:0:0:0:
16,13,21737,5,2,0:0:0:0:
120,18,21823,5,8,2:0:0:0:
117,158,21910,5,8,1:0:0:0:
120,18,22082,5,8,2:0:0:0:
221,88,22254,5,4,3:0:0:0:
220,13,22254,5,4,0:0:0:0:
16,13,22254,5,2,0:0:0:0:
13,154,22254,5,2,1:0:0:0:
16,13,22513,5,2,0:0:0:0:
220,13,22513,5,4,0:0:0:0:
117,158,22599,5,8,1:0:0:0:
220,13,22772,5,4,0:0:0:0:
120,18,22858,5,8,2:0:0:0:
16,13,22944,5,2,0:0:0:0:
220,13,23030,5,4,0:0:0:0:
13,154,23117,5,2,1:0:0:0:
16,13,23203,5,2,0:0:0:0:
117,158,23289,5,8,1:0:0:0:
220,13,23289,5,4,0:0:0:0:
120,18,23289,5,8,2:0:0:0:
120,18,23375,5,8,2:0:0:0:
220,13,23461,5,4,0:0:0:0:
16,13,23461,5,2,0:0:0:0:
120,18,23461,5,8,2:0:0:0:
220,13,23634,5,4,0:0:0:0:
16,13,23634,5,2,0:0:0:0:
16,13,23720,5,2,0:0:0:0:
13,154,23806,5,2,1:0:0:0:
16,13,23806,5,2,0:0:0:0:
16,13,23892,5,2,0:0:0:0:
220,13,23892,5,4,0:0:0:0:
117,158,23979,5,8,1:0:0:0:
120,18,24065,5,8,2:0:0:0:
16,13,24151,5,2,0:0:0:0:
220,13,24151,5,4,0:0:0:0:
120,18,24237,5,8,2:0:0:0:
16,13,24323,5,2,0:0:0:0:
220,13,24410,5,4,0:0:0:0:
13,154,24496,5,2,1:0:0:0:
16,13,24582,5,2,0:0:0:0:
117,158,24668,5,8,1:0:0:0:
220,13,24668,5,4,0:0:0:0:
120,18,24754,5,8,2:0:0:0:
16,13,24841,5,2,0:0:0:0:
220,13,24841,5,4,0:0:0:0:
220,13,25013,5,4,0:0:0:0:
13,154,25013,5,2,1:0:0:0:
16,13,25013,5,2,0:0:0:0:
220,13,25272,5,4,0:0:0:0:
16,13,25272,5,2,0:0:0:0:
117,158,25358,5,8,1:0:0:0:
220,13,25531,5,4,0:0:0:0:
120,18,25617,5,8,2:0:0:0:
16,13,25703,5,2,0:0:0:0:
220,13,25789,5,4,0:0:0:0:
13,154,25876,5,2,1:0:0:0:
16,13,25962,5,2,0:0:0:0:
120,18,26048,5,8,2:0:0:0:
220,13,26048,5,4,0:0:0:0:
117,158,26048,5,8,1:0:0:0:
120,18,26134,5,8,2:0:0:0:
220,13,26220,5,4,0:0:0:0:
16,13,26220,5,2,0:0:0:0:
120,18,26220,5,8,2:0:0:0:
120,18,26306,5,8,2:0:0:0:
16,13,26393,5,2,0:0:0:0:
220,13,26393,5,4,0:0:0:0:
16,13,26479,5,2,0:0:0:0:
13,154,26565,5,2,1:0:0:0:
16,13,26565,5,2,0:0:0:0:
16,13,26651,5,2,0:0:0:0:
220,13,26651,5,4,0:0:0:0:
117,158,26738,5,8,1:0:0:0:
120,18,26824,5,8,2:0:0:0:
220,13,26910,5,4,0:0:0:0:
16,13,26910,5,2,0:0:0:0:
120,18,26996,5,8,2:0:0:0:
16,13,27082,5,2,0:0:0:0:
220,13,27169,5,4,0:0:0:0:
13,154,27255,5,2,1:0:0:0:
16,13,27341,5,2,0:0:0:0:
117,158,27427,5,8,1:0:0:0:
220,13,27427,5,4,0:0:0:0:
120,18,27513,5,8,2:0:0:0:
220,13,27600,5,4,0:0:0:0:
16,13,27600,5,2,0:0:0:0:
220,13,27772,5,4,0:0:0:0:
13,154,27772,5,2,1:0:0:0:
16,13,27772,5,2,0:0:0:0:
16,13,28031,5,2,0:0:0:0:
220,13,28031,5,4,0:0:0:0:
117,158,28117,5,8,1:0:0:0:
220,13,28290,5,4,0:0:0:0:
120,18,28376,5,8,2:0:0:0:
16,13,28462,5,2,0:0:0:0:
220,13,28548,5,4,0:0:0:0:
13,154,28635,5,2,1:0:0:0:
16,13,28721,5,2,0:0:0:0:
117,158,28807,5,8,1:0:0:0:
220,13,28807,5,4,0:0:0:0:
120,18,28807,5,8,2:0:0:0:
120,18,28893,5,8,2:0:0:0:
120,18,28979,5,8,2:0:0:0:
16,13,28979,5,2,0:0:0:0:
220,13,28979,5,4,0:0:0:0:
120,18,29065,5,8,2:0:0:0:
16,13,29152,5,2,0:0:0:0:
220,13,29152,5,4,0:0:0:0:
16,13,29238,5,2,0:0:0:0:
13,154,29324,5,2,1:0:0:0:
16,13,29324,5,2,0:0:0:0:
16,13,29410,5,2,0:0:0:0:
220,13,29410,5,4,0:0:0:0:
117,158,29497,5,8,1:0:0:0:
120,18,29583,5,8,2:0:0:0:
16,13,29669,5,2,0:0:0:0:
220,13,29669,5,4,0:0:0:0:
120,18,29755,5,8,2:0:0:0:
16,13,29841,5,2,0:0:0:0:
220,13,29928,5,4,0:0:0:0:
13,154,30014,5,2,1:0:0:0:
16,13,30100,5,2,0:0:0:0:
220,13,30186,5,4,0:0:0:0:
117,158,30186,5,8,1:0:0:0:
120,18,30272,5,8,2:0:0:0:
16,13,30359,5,2,0:0:0:0:
220,13,30359,5,4,0:0:0:0:
16,13,30530,5,2,0:0:0:0:
13,154,30530,5,2,1:0:0:0:
220,13,30530,5,4,0:0:0:0:
220,13,30789,5,4,0:0:0:0:
16,13,30789,5,2,0:0:0:0:
117,158,30875,5,8,1:0:0:0:
220,13,31048,5,4,0:0:0:0:
120,18,31134,5,8,2:0:0:0:
16,13,31220,5,2,0:0:0:0:
220,13,31306,5,4,0:0:0:0:
13,154,31393,5,2,1:0:0:0:
16,13,31479,5,2,0:0:0:0:
120,18,31565,5,8,2:0:0:0:
220,13,31565,5,4,0:0:0:0:
117,158,31565,5,8,1:0:0:0:
120,18,31651,5,8,2:0:0:0:
220,13,31737,5,4,0:0:0:0:
16,13,31737,5,2,0:0:0:0:
120,18,31737,5,8,2:0:0:0:
120,18,31823,5,8,2:0:0:0:
220,13,31910,5,4,0:0:0:0:
16,13,31910,5,2,0:0:0:0:
16,13,31996,5,2,0:0:0:0:
16,13,32082,5,2,0:0:0:0:
13,154,32082,5,2,1:0:0:0:
220,13,32168,5,4,0:0:0:0:
16,13,32168,5,2,0:0:0:0:
117,158,32255,5,8,1:0:0:0:
120,18,32341,5,8,2:0:0:0:
220,13,32427,5,4,0:0:0:0:
16,13,32427,5,2,0:0:0:0:
120,18,32513,5,8,2:0:0:0:
16,13,32599,5,2,0:0:0:0:
220,13,32686,5,4,0:0:0:0:
13,154,32772,5,2,1:0:0:0:
16,13,32858,5,2,0:0:0:0:
117,158,32944,5,8,1:0:0:0:
220,13,32944,5,4,0:0:0:0:
120,18,33030,5,8,2:0:0:0:
220,13,33117,5,4,0:0:0:0:
16,13,33117,5,2,0:0:0:0:
13,85,33289,5,2,3:0:0:0:
221,88,33289,5,4,3:0:0:0:
13,154,33289,5,2,1:0:0:0:
16,13,33289,5,2,0:0:0:0:
220,13,33289,5,4,0:0:0:0:
13,85,33375,5,2,3:0:0:0:
13,85,33548,5,2,3:0:0:0:
16,13,33548,5,2,0:0:0:0:
220,13,33548,5,4,0:0:0:0:
13,85,33634,5,2,3:0:0:0:
117,158,33634,5,8,1:0:0:0:
220,13,33807,5,4,0:0:0:0:
120,18,33893,5,8,2:0:0:0:
13,85,33979,5,2,3:0:0:0:
16,13,33979,5,2,0:0:0:0:
220,13,34065,5,4,0:0:0:0:
13,85,34151,5,2,3:0:0:0:
13,154,34152,5,2,1:0:0:0:
16,13,34238,5,2,0:0:0:0:
117,158,34324,5,8,1:0:0:0:
220,13,34324,5,4,0:0:0:0:
120,18,34324,5,8,2:0:0:0:
13,85,34410,5,2,3:0:0:0:
120,18,34410,5,8,2:0:0:0:
13,85,34496,5,2,3:0:0:0:
220,13,34496,5,4,0:0:0:0:
16,13,34496,5,2,0:0:0:0:
120,18,34496,5,8,2:0:0:0:
13,85,34582,5,2,3:0:0:0:
16,13,34669,5,2,0:0:0:0:
220,13,34669,5,4,0:0:0:0:
13,85,34754,5,2,3:0:0:0:
16,13,34755,5,2,0:0:0:0:
16,13,34841,5,2,0:0:0:0:
13,154,34841,5,2,1:0:0:0:
13,85,34927,5,2,3:0:0:0:
16,13,34927,5,2,0:0:0:0:
220,13,34927,5,4,0:0:0:0:
13,85,35013,5,2,3:0:0:0:
117,158,35014,5,8,1:0:0:0:
120,18,35100,5,8,2:0:0:0:
13,85,35186,5,2,3:0:0:0:
220,13,35186,5,4,0:0:0:0:
16,13,35186,5,2,0:0:0:0:
120,18,35272,5,8,2:0:0:0:
13,85,35358,5,2,3:0:0:0:
16,13,35358,5,2,0:0:0:0:
220,13,35445,5,4,0:0:0:0:
13,85,35530,5,2,3:0:0:0:
13,154,35531,5,2,1:0:0:0:
13,85,35617,5,2,3:0:0:0:
16,13,35617,5,2,0:0:0:0:
220,13,35703,5,4,0:0:0:0:
117,158,35703,5,8,1:0:0:0:
13,85,35789,5,2,3:0:0:0:
120,18,35789,5,8,2:0:0:0:
13,85,35875,5,2,3:0:0:0:
220,13,35876,5,4,0:0:0:0:
16,13,35876,5,2,0:0:0:0:
13,85,35961,5,2,3:0:0:0:
13,85,36048,5,2,3:0:0:0:
220,13,36048,5,4,0:0:0:0:
13,154,36048,5,2,1:0:0:0:
16,13,36048,5,2,0:0:0:0:
13,85,36134,5,2,3:0:0:0:
13,85,36307,5,2,3:0:0:0:
16,13,36307,5,2,0:0:0:0:
220,13,36307,5,4,0:0:0:0:
13,85,36393,5,2,3:0:0:0:
117,158,36393,5,8,1:0:0:0:
220,13,36566,5,4,0:0:0:0:
120,18,36652,5,8,2:0:0:0:
13,85,36738,5,2,3:0:0:0:
16,13,36738,5,2,0:0:0:0:
220,13,36824,5,4,0:0:0:0:
13,85,36910,5,2,3:0:0:0:
13,154,36911,5,2,1:0:0:0:
16,13,36997,5,2,0:0:0:0:
120,18,37083,5,8,2:0:0:0:
220,13,37083,5,4,0:0:0:0:
117,158,37083,5,8,1:0:0:0:
13,85,37169,5,2,3:0:0:0:
120,18,37169,5,8,2:0:0:0:
120,18,37255,5,8,2:0:0:0:
13,85,37255,5,2,3:0:0:0:
220,13,37255,5,4,0:0:0:0:
16,13,37255,5,2,0:0:0:0:
13,85,37341,5,2,3:0:0:0:
120,18,37341,5,8,2:0:0:0:
220,13,37428,5,4,0:0:0:0:
16,13,37428,5,2,0:0:0:0:
13,85,37513,5,2,3:0:0:0:
16,13,37514,5,2,0:0:0:0:
13,154,37600,5,2,1:0:0:0:
16,13,37600,5,2,0:0:0:0:
13,85,37686,5,2,3:0:0:0:
16,13,37686,5,2,0:0:0:0:
220,13,37686,5,4,0:0:0:0:
13,85,37772,5,2,3:0:0:0:
117,158,37773,5,8,1:0:0:0:
120,18,37859,5,8,2:0:0:0:
13,85,37945,5,2,3:0:0:0:
16,13,37945,5,2,0:0:0:0:
220,13,37945,5,4,0:0:0:0:
120,18,38031,5,8,2:0:0:0:
13,85,38117,5,2,3:0:0:0:
16,13,38117,5,2,0:0:0:0:
220,13,38204,5,4,0:0:0:0:
13,85,38289,5,2,3:0:0:0:
13,154,38290,5,2,1:0:0:0:
13,85,38376,5,2,3:0:0:0:
16,13,38376,5,2,0:0:0:0:
220,13,38462,5,4,0:0:0:0:
117,158,38462,5,8,1:0:0:0:
13,85,38548,5,2,3:0:0:0:
120,18,38548,5,8,2:0:0:0:
13,85,38634,5,2,3:0:0:0:
220,13,38635,5,4,0:0:0:0:
16,13,38635,5,2,0:0:0:0:
13,85,38720,5,2,3:0:0:0:
13,85,38806,5,2,3:0:0:0:
220,13,38807,5,4,0:0:0:0:
13,154,38807,5,2,1:0:0:0:
16,13,38807,5,2,0:0:0:0:
13,85,38892,5,2,3:0:0:0:
13,85,39065,5,2,3:0:0:0:
220,13,39066,5,4,0:0:0:0:
16,13,39066,5,2,0:0:0:0:
13,85,39151,5,2,3:0:0:0:
117,158,39152,5,8,1:0:0:0:
220,13,39325,5,4,0:0:0:0:
120,18,39411,5,8,2:0:0:0:
13,85,39496,5,2,3:0:0:0:
16,13,39497,5,2,0:0:0:0:
220,13,39583,5,4,0:0:0:0:
13,85,39668,5,2,3:0:0:0:
13,154,39670,5,2,1:0:0:0:
16,13,39756,5,2,0:0:0:0:
117,158,39842,5,8,1:0:0:0:
220,13,39842,5,4,0:0:0:0:
120,18,39842,5,8,2:0:0:0:
13,85,39927,5,2,3:0:0:0:
120,18,39928,5,8,2:0:0:0:
13,85,40013,5,2,3:0:0:0:
120,18,40014,5,8,2:0:0:0:
16,13,40014,5,2,0:0:0:0:
220,13,40014,5,4,0:0:0:0:
13,85,40099,5,2,3:0:0:0:
120,18,40100,5,8,2:0:0:0:
220,13,40187,5,4,0:0:0:0:
16,13,40187,5,2,0:0:0:0:
13,85,40271,5,2,3:0:0:0:
16,13,40273,5,2,0:0:0:0:
13,154,40359,5,2,1:0:0:0:
16,13,40359,5,2,0:0:0:0:
13,85,40444,5,2,3:0:0:0:
16,13,40445,5,2,0:0:0:0:
220,13,40445,5,4,0:0:0:0:
13,85,40530,5,2,3:0:0:0:
117,158,40532,5,8,1:0:0:0:
120,18,40618,5,8,2:0:0:0:
13,85,40703,5,2,3:0:0:0:
16,13,40704,5,2,0:0:0:0:
220,13,40704,5,4,0:0:0:0:
120,18,40790,5,8,2:0:0:0:
13,85,40875,5,2,3:0:0:0:
16,13,40876,5,2,0:0:0:0:
220,13,40963,5,4,0:0:0:0:
13,85,41047,5,2,3:0:0:0:
13,154,41049,5,2,1:0:0:0:
13,85,41134,5,2,3:0:0:0:
16,13,41135,5,2,0:0:0:0:
220,13,41221,5,4,0:0:0:0:
117,158,41221,5,8,1:0:0:0:
13,85,41306,5,2,3:0:0:0:
120,18,41307,5,8,2:0:0:0:
13,85,41392,5,2,3:0:0:0:
16,13,41394,5,2,0:0:0:0:
220,13,41394,5,4,0:0:0:0:
13,85,41478,5,2,3:0:0:0:
13,85,41565,5,2,3:0:0:0:
220,13,41565,5,4,0:0:0:0:
13,154,41565,5,2,1:0:0:0:
16,13,41565,5,2,0:0:0:0:
13,85,41651,5,2,3:0:0:0:
13,85,41824,5,2,3:0:0:0:
16,13,41824,5,2,0:0:0:0:
220,13,41824,5,4,0:0:0:0:
13,85,41910,5,2,3:0:0:0:
117,158,41910,5,8,1:0:0:0:
220,13,42083,5,4,0:0:0:0:
120,18,42169,5,8,2:0:0:0:
13,85,42255,5,2,3:0:0:0:
16,13,42255,5,2,0:0:0:0:
220,13,42341,5,4,0:0:0:0:
13,85,42427,5,2,3:0:0:0:
13,154,42428,5,2,1:0:0:0:
16,13,42514,5,2,0:0:0:0:
117,158,42600,5,8,1:0:0:0:
220,13,42600,5,4,0:0:0:0:
120,18,42600,5,8,2:0:0:0:
13,85,42686,5,2,3:0:0:0:
120,18,42686,5,8,2:0:0:0:
13,85,42772,5,2,3:0:0:0:
220,13,42772,5,4,0:0:0:0:
16,13,42772,5,2,0:0:0:0:
120,18,42772,5,8,2:0:0:0:
13,85,42858,5,2,3:0:0:0:
120,18,42858,5,8,2:0:0:0:
16,13,42945,5,2,0:0:0:0:
220,13,42945,5,4,0:0:0:0:
13,85,43030,5,2,3:0:0:0:
16,13,43031,5,2,0:0:0:0:
13,154,43117,5,2,1:0:0:0:
16,13,43117,5,2,0:0:0:0:
13,85,43203,5,2,3:0:0:0:
220,13,43203,5,4,0:0:0:0:
16,13,43203,5,2,0:0:0:0:
13,85,43289,5,2,3:0:0:0:
117,158,43290,5,8,1:0:0:0:
120,18,43376,5,8,2:0:0:0:
13,85,43462,5,2,3:0:0:0:
16,13,43462,5,2,0:0:0:0:
220,13,43462,5,4,0:0:0:0:
120,18,43548,5,8,2:0:0:0:
13,85,43634,5,2,3:0:0:0:
16,13,43634,5,2,0:0:0:0:
220,13,43721,5,4,0:0:0:0:
13,85,43806,5,2,3:0:0:0:
13,154,43807,5,2,1:0:0:0:
13,85,43893,5,2,3:0:0:0:
16,13,43893,5,2,0:0:0:0:
220,13,43979,5,4,0:0:0:0:
117,158,43979,5,8,1:0:0:0:
13,85,44065,5,2,3:0:0:0:
120,18,44065,5,8,2:0:0:0:
13,85,44151,5,2,3:0:0:0:
16,13,44152,5,2,0:0:0:0:
220,13,44152,5,4,0:0:0:0:
13,85,44237,5,2,3:0:0:0:
220,13,44323,5,4,0:0:0:0:
16,13,44323,5,2,0:0:0:0:
221,88,44323,5,4,3:0:0:0:
220,13,44582,5,4,0:0:0:0:
16,13,44841,5,2,0:0:0:0:
220,13,44841,5,4,0:0:0:0:
220,13,45099,5,4,0:0:0:0:
16,13,45186,5,2,0:0:0:0:
220,13,45358,5,4,0:0:0:0:
16,13,45358,5,2,0:0:0:0:
220,13,45617,5,4,0:0:0:0:
220,13,45875,5,4,0:0:0:0:
220,13,46134,5,4,0:0:0:0:
220,13,46392,5,4,0:0:0:0:
220,13,46651,5,4,0:0:0:0:
16,13,46737,5,2,0:0:0:0:
220,13,46910,5,4,0:0:0:0:
16,13,46910,5,2,0:0:0:0:
16,13,46996,5,2,0:0:0:0:
16,13,47082,5,2,0:0:0:0:
220,13,47082,5,4,0:0:0:0:
220,13,47341,5,4,0:0:0:0:
220,13,47600,5,4,0:0:0:0:
220,13,47858,5,4,0:0:0:0:
220,13,48117,5,4,0:0:0:0:
220,13,48376,5,4,0:0:0:0:
16,13,48634,5,2,0:0:0:0:
220,13,48634,5,4,0:0:0:0:
16,13,48720,5,2,0:0:0:0:
16,13,48806,5,2,0:0:0:0:
220,13,48892,5,4,0:0:0:0:
16,13,48892,5,2,0:0:0:0:
16,13,48979,5,2,0:0:0:0:
220,13,49151,5,4,0:0:0:0:
16,13,49151,5,2,0:0:0:0:
16,13,49237,5,2,0:0:0:0:
16,13,49323,5,2,0:0:0:0:
220,13,49410,5,4,0:0:0:0:
16,13,49410,5,2,0:0:0:0:
16,13,49496,5,2,0:0:0:0:
16,13,49582,5,2,0:0:0:0:
16,13,49668,5,2,0:0:0:0:
220,13,49668,5,4,0:0:0:0:
16,13,49841,5,2,0:0:0:0:
220,13,49841,5,4,0:0:0:0:
220,13,50099,5,4,0:0:0:0:
220,13,50358,5,4,0:0:0:0:
16,13,50358,5,2,0:0:0:0:
220,13,50617,5,4,0:0:0:0:
16,13,50703,5,2,0:0:0:0:
16,13,50875,5,2,0:0:0:0:
220,13,50875,5,4,0:0:0:0:
220,13,51134,5,4,0:0:0:0:
220,13,51393,5,4,0:0:0:0:
220,13,51651,5,4,0:0:0:0:
220,13,51910,5,4,0:0:0:0:
220,13,52168,5,4,0:0:0:0:
16,13,52254,5,2,0:0:0:0:
220,13,52427,5,4,0:0:0:0:
16,13,52427,5,2,0:0:0:0:
16,13,52513,5,2,0:0:0:0:
16,13,52599,5,2,0:0:0:0:
220,13,52599,5,4,0:0:0:0:
220,13,52857,5,4,0:0:0:0:
220,13,53116,5,4,0:0:0:0:
220,13,53375,5,4,0:0:0:0:
220,13,53633,5,4,0:0:0:0:
220,13,53892,5,4,0:0:0:0:
220,13,54151,5,4,0:0:0:0:
16,13,54151,5,2,0:0:0:0:
16,13,54237,5,2,0:0:0:0:
16,13,54323,5,2,0:0:0:0:
16,13,54410,5,2,0:0:0:0:
220,13,54410,5,4,0:0:0:0:
16,13,54496,5,2,0:0:0:0:
220,13,54668,5,4,0:0:0:0:
16,13,54668,5,2,0:0:0:0:
16,13,54754,5,2,0:0:0:0:
16,13,54841,5,2,0:0:0:0:
16,13,54927,5,2,0:0:0:0:
220,13,54927,5,4,0:0:0:0:
16,13,55013,5,2,0:0:0:0:
16,13,55099,5,2,0:0:0:0:
220,13,55186,5,4,0:0:0:0:
16,13,55186,5,2,0:0:0:0:
220,13,55358,5,4,0:0:0:0:
16,13,55358,5,2,0:0:0:0:
13,85,55358,5,2,3:0:0:0:
13,85,55444,5,2,3:0:0:0:
220,13,55616,5,4,0:0:0:0:
13,85,55617,5,2,3:0:0:0:
13,85,55703,5,2,3:0:0:0:
220,13,55875,5,4,0:0:0:0:
16,13,55876,5,2,0:0:0:0:
13,85,56048,5,2,3:0:0:0:
220,13,56134,5,4,0:0:0:0:
13,85,56220,5,2,3:0:0:0:
16,13,56221,5,2,0:0:0:0:
13,85,56306,5,2,3:0:0:0:
220,13,56392,5,4,0:0:0:0:
16,13,56393,5,2,0:0:0:0:
13,85,56479,5,2,3:0:0:0:
13,85,56565,5,2,3:0:0:0:
220,13,56651,5,4,0:0:0:0:
13,85,56651,5,2,3:0:0:0:
13,85,56823,5,2,3:0:0:0:
220,13,56910,5,4,0:0:0:0:
13,85,56996,5,2,3:0:0:0:
13,85,57082,5,2,3:0:0:0:
220,13,57168,5,4,0:0:0:0:
13,85,57255,5,2,3:0:0:0:
220,13,57427,5,4,0:0:0:0:
13,85,57427,5,2,3:0:0:0:
13,85,57599,5,2,3:0:0:0:
220,13,57686,5,4,0:0:0:0:
13,85,57686,5,2,3:0:0:0:
16,13,57772,5,2,0:0:0:0:
13,85,57858,5,2,3:0:0:0:
220,13,57944,5,4,0:0:0:0:
13,85,57944,5,2,3:0:0:0:
16,13,57945,5,2,0:0:0:0:
13,85,58030,5,2,3:0:0:0:
16,13,58031,5,2,0:0:0:0:
220,13,58117,5,4,0:0:0:0:
16,13,58117,5,2,0:0:0:0:
13,85,58117,5,2,3:0:0:0:
13,85,58203,5,2,3:0:0:0:
220,13,58375,5,4,0:0:0:0:
13,85,58376,5,2,3:0:0:0:
13,85,58462,5,2,3:0:0:0:
220,13,58634,5,4,0:0:0:0:
13,85,58807,5,2,3:0:0:0:
220,13,58893,5,4,0:0:0:0:
13,85,58979,5,2,3:0:0:0:
13,85,59065,5,2,3:0:0:0:
220,13,59151,5,4,0:0:0:0:
13,85,59238,5,2,3:0:0:0:
220,13,59410,5,4,0:0:0:0:
13,85,59410,5,2,3:0:0:0:
13,85,59582,5,2,3:0:0:0:
220,13,59669,5,4,0:0:0:0:
16,13,59669,5,2,0:0:0:0:
16,13,59755,5,2,0:0:0:0:
13,85,59755,5,2,3:0:0:0:
16,13,59841,5,2,0:0:0:0:
13,85,59841,5,2,3:0:0:0:
220,13,59927,5,4,0:0:0:0:
16,13,59927,5,2,0:0:0:0:
16,13,60014,5,2,0:0:0:0:
13,85,60014,5,2,3:0:0:0:
220,13,60186,5,4,0:0:0:0:
16,13,60186,5,2,0:0:0:0:
13,85,60186,5,2,3:0:0:0:
16,13,60272,5,2,0:0:0:0:
16,13,60358,5,2,0:0:0:0:
13,85,60358,5,2,3:0:0:0:
220,13,60444,5,4,0:0:0:0:
16,13,60445,5,2,0:0:0:0:
13,85,60445,5,2,3:0:0:0:
16,13,60531,5,2,0:0:0:0:
16,13,60617,5,2,0:0:0:0:
13,85,60617,5,2,3:0:0:0:
220,13,60703,5,4,0:0:0:0:
16,13,60703,5,2,0:0:0:0:
13,85,60703,5,2,3:0:0:0:
13,85,60789,5,2,3:0:0:0:
220,13,60875,5,4,0:0:0:0:
13,85,60875,5,2,3:0:0:0:
16,13,60876,5,2,0:0:0:0:
13,85,60961,5,2,3:0:0:0:
220,13,61133,5,4,0:0:0:0:
13,85,61134,5,2,3:0:0:0:
13,85,61220,5,2,3:0:0:0:
220,13,61392,5,4,0:0:0:0:
16,13,61393,5,2,0:0:0:0:
13,85,61565,5,2,3:0:0:0:
220,13,61651,5,4,0:0:0:0:
13,85,61737,5,2,3:0:0:0:
16,13,61738,5,2,0:0:0:0:
13,85,61823,5,2,3:0:0:0:
220,13,61909,5,4,0:0:0:0:
16,13,61910,5,2,0:0:0:0:
13,85,61996,5,2,3:0:0:0:
13,85,62082,5,2,3:0:0:0:
220,13,62168,5,4,0:0:0:0:
13,85,62168,5,2,3:0:0:0:
13,85,62340,5,2,3:0:0:0:
220,13,62427,5,4,0:0:0:0:
13,85,62513,5,2,3:0:0:0:
13,85,62599,5,2,3:0:0:0:
220,13,62685,5,4,0:0:0:0:
13,85,62772,5,2,3:0:0:0:
220,13,62944,5,4,0:0:0:0:
13,85,62944,5,2,3:0:0:0:
13,85,63116,5,2,3:0:0:0:
220,13,63202,5,4,0:0:0:0:
13,85,63203,5,2,3:0:0:0:
16,13,63289,5,2,0:0:0:0:
13,85,63375,5,2,3:0:0:0:
220,13,63461,5,4,0:0:0:0:
13,85,63461,5,2,3:0:0:0:
16,13,63462,5,2,0:0:0:0:
13,85,63547,5,2,3:0:0:0:
16,13,63548,5,2,0:0:0:0:
220,13,63634,5,4,0:0:0:0:
16,13,63634,5,2,0:0:0:0:
13,85,63634,5,2,3:0:0:0:
13,85,63720,5,2,3:0:0:0:
220,13,63892,5,4,0:0:0:0:
13,85,63893,5,2,3:0:0:0:
13,85,63979,5,2,3:0:0:0:
220,13,64151,5,4,0:0:0:0:
13,85,64324,5,2,3:0:0:0:
220,13,64410,5,4,0:0:0:0:
13,85,64496,5,2,3:0:0:0:
13,85,64582,5,2,3:0:0:0:
220,13,64668,5,4,0:0:0:0:
13,85,64755,5,2,3:0:0:0:
220,13,64927,5,4,0:0:0:0:
13,85,64927,5,2,3:0:0:0:
16,13,65013,5,2,0:0:0:0:
13,85,65099,5,2,3:0:0:0:
220,13,65186,5,4,0:0:0:0:
13,85,65272,5,2,3:0:0:0:
13,85,65358,5,2,3:0:0:0:
220,13,65444,5,4,0:0:0:0:
13,85,65531,5,2,3:0:0:0:
220,13,65703,5,4,0:0:0:0:
13,85,65703,5,2,3:0:0:0:
13,85,65875,5,2,3:0:0:0:
220,13,65961,5,4,0:0:0:0:
13,85,65962,5,2,3:0:0:0:
13,85,66134,5,2,3:0:0:0:
220,13,66220,5,4,0:0:0:0:
13,85,66220,5,2,3:0:0:0:
13,85,66306,5,2,3:0:0:0:
13,154,66392,5,2,1:0:0:0:
13,85,66392,5,2,3:0:0:0:
13,85,66478,5,2,3:0:0:0:
13,85,66651,5,2,3:0:0:0:
13,85,66737,5,2,3:0:0:0:
220,13,66909,5,4,0:0:0:0:
13,85,67082,5,2,3:0:0:0:
220,13,67168,5,4,0:0:0:0:
13,85,67254,5,2,3:0:0:0:
13,85,67340,5,2,3:0:0:0:
220,13,67426,5,4,0:0:0:0:
13,85,67513,5,2,3:0:0:0:
13,85,67599,5,2,3:0:0:0:
220,13,67685,5,4,0:0:0:0:
13,85,67685,5,2,3:0:0:0:
120,18,67772,5,8,2:0:0:0:
13,85,67857,5,2,3:0:0:0:
220,13,67944,5,4,0:0:0:0:
13,85,68030,5,2,3:0:0:0:
13,85,68116,5,2,3:0:0:0:
120,18,68117,5,8,2:0:0:0:
220,13,68202,5,4,0:0:0:0:
13,85,68289,5,2,3:0:0:0:
120,18,68375,5,8,2:0:0:0:
220,13,68461,5,4,0:0:0:0:
120,18,68461,5,8,2:0:0:0:
13,85,68461,5,2,3:0:0:0:
120,18,68548,5,8,2:0:0:0:
13,85,68633,5,2,3:0:0:0:
220,13,68720,5,4,0:0:0:0:
120,18,68720,5,8,2:0:0:0:
13,85,68720,5,2,3:0:0:0:
120,18,68806,5,8,2:0:0:0:
13,85,68892,5,2,3:0:0:0:
13,85,68978,5,2,3:0:0:0:
220,13,68979,5,4,0:0:0:0:
120,18,68979,5,8,2:0:0:0:
13,85,69064,5,2,3:0:0:0:
220,13,69151,5,4,0:0:0:0:
13,85,69151,5,2,3:0:0:0:
13,85,69237,5,2,3:0:0:0:
220,13,69410,5,4,0:0:0:0:
13,85,69410,5,2,3:0:0:0:
120,18,69496,5,8,2:0:0:0:
13,85,69496,5,2,3:0:0:0:
220,13,69668,5,4,0:0:0:0:
120,18,69841,5,8,2:0:0:0:
13,85,69841,5,2,3:0:0:0:
220,13,69927,5,4,0:0:0:0:
13,85,70013,5,2,3:0:0:0:
13,85,70099,5,2,3:0:0:0:
220,13,70185,5,4,0:0:0:0:
13,85,70272,5,2,3:0:0:0:
120,18,70358,5,8,2:0:0:0:
220,13,70444,5,4,0:0:0:0:
120,18,70444,5,8,2:0:0:0:
13,85,70444,5,2,3:0:0:0:
120,18,70530,5,8,2:0:0:0:
13,85,70616,5,2,3:0:0:0:
220,13,70703,5,4,0:0:0:0:
13,85,70789,5,2,3:0:0:0:
120,18,70875,5,8,2:0:0:0:
13,85,70875,5,2,3:0:0:0:
220,13,70961,5,4,0:0:0:0:
13,85,71048,5,2,3:0:0:0:
120,18,71134,5,8,2:0:0:0:
220,13,71220,5,4,0:0:0:0:
120,18,71220,5,8,2:0:0:0:
13,85,71220,5,2,3:0:0:0:
120,18,71306,5,8,2:0:0:0:
120,18,71392,5,8,2:0:0:0:
13,85,71392,5,2,3:0:0:0:
220,13,71478,5,4,0:0:0:0:
13,85,71479,5,2,3:0:0:0:
120,18,71565,5,8,2:0:0:0:
13,85,71651,5,2,3:0:0:0:
220,13,71737,5,4,0:0:0:0:
120,18,71737,5,8,2:0:0:0:
13,85,71737,5,2,3:0:0:0:
13,85,71823,5,2,3:0:0:0:
13,85,71909,5,2,3:0:0:0:
220,13,71910,5,4,0:0:0:0:
13,85,71910,5,2,3:0:0:0:
13,85,71996,5,2,3:0:0:0:
120,18,72082,5,8,2:0:0:0:
220,13,72169,5,4,0:0:0:0:
13,85,72169,5,2,3:0:0:0:
120,18,72254,5,8,2:0:0:0:
13,85,72255,5,2,3:0:0:0:
220,13,72427,5,4,0:0:0:0:
120,18,72513,5,8,2:0:0:0:
120,18,72599,5,8,2:0:0:0:
13,85,72600,5,2,3:0:0:0:
220,13,72686,5,4,0:0:0:0:
13,85,72772,5,2,3:0:0:0:
13,85,72858,5,2,3:0:0:0:
220,13,72944,5,4,0:0:0:0:
13,85,73031,5,2,3:0:0:0:
120,18,73117,5,8,2:0:0:0:
13,85,73117,5,2,3:0:0:0:
220,13,73203,5,4,0:0:0:0:
13,85,73203,5,2,3:0:0:0:
120,18,73289,5,8,2:0:0:0:
13,85,73375,5,2,3:0:0:0:
220,13,73462,5,4,0:0:0:0:
13,85,73548,5,2,3:0:0:0:
120,18,73634,5,8,2:0:0:0:
13,85,73634,5,2,3:0:0:0:
220,13,73720,5,4,0:0:0:0:
13,85,73807,5,2,3:0:0:0:
120,18,73892,5,8,2:0:0:0:
220,13,73979,5,4,0:0:0:0:
13,85,73979,5,2,3:0:0:0:
120,18,74065,5,8,2:0:0:0:
13,85,74151,5,2,3:0:0:0:
120,18,74237,5,8,2:0:0:0:
220,13,74237,5,4,0:0:0:0:
13,85,74238,5,2,3:0:0:0:
120,18,74323,5,8,2:0:0:0:
13,85,74410,5,2,3:0:0:0:
220,13,74496,5,4,0:0:0:0:
13,85,74496,5,2,3:0:0:0:
13,85,74582,5,2,3:0:0:0:
220,13,74668,5,4,0:0:0:0:
13,85,74669,5,2,3:0:0:0:
13,85,74755,5,2,3:0:0:0:
120,18,74841,5,8,2:0:0:0:
220,13,74927,5,4,0:0:0:0:
13,85,74928,5,2,3:0:0:0:
120,18,75013,5,8,2:0:0:0:
13,85,75014,5,2,3:0:0:0:
220,13,75185,5,4,0:0:0:0:
120,18,75272,5,8,2:0:0:0:
120,18,75358,5,8,2:0:0:0:
13,85,75359,5,2,3:0:0:0:
220,13,75444,5,4,0:0:0:0:
120,18,75444,5,8,2:0:0:0:
120,18,75530,5,8,2:0:0:0:
13,85,75531,5,2,3:0:0:0:
13,85,75617,5,2,3:0:0:0:
220,13,75702,5,4,0:0:0:0:
13,85,75790,5,2,3:0:0:0:
120,18,75875,5,8,2:0:0:0:
220,13,75961,5,4,0:0:0:0:
13,85,75962,5,2,3:0:0:0:
120,18,76048,5,8,2:0:0:0:
13,85,76134,5,2,3:0:0:0:
220,13,76220,5,4,0:0:0:0:
13,85,76307,5,2,3:0:0:0:
120,18,76392,5,8,2:0:0:0:
13,85,76393,5,2,3:0:0:0:
220,13,76478,5,4,0:0:0:0:
13,85,76566,5,2,3:0:0:0:
120,18,76651,5,8,2:0:0:0:
220,13,76737,5,4,0:0:0:0:
13,85,76738,5,2,3:0:0:0:
120,18,76823,5,8,2:0:0:0:
13,85,76910,5,2,3:0:0:0:
120,18,76996,5,8,2:0:0:0:
220,13,76996,5,4,0:0:0:0:
13,85,76997,5,2,3:0:0:0:
120,18,77082,5,8,2:0:0:0:
13,85,77169,5,2,3:0:0:0:
220,13,77254,5,4,0:0:0:0:
13,85,77255,5,2,3:0:0:0:
13,85,77341,5,2,3:0:0:0:
220,13,77427,5,4,0:0:0:0:
13,154,77427,5,2,1:0:0:0:
220,13,77686,5,4,0:0:0:0:
13,85,77686,5,2,3:0:0:0:
13,154,77772,5,2,1:0:0:0:
13,85,77772,5,2,3:0:0:0:
220,13,77944,5,4,0:0:0:0:
13,85,77944,5,2,3:0:0:0:
13,85,78117,5,2,3:0:0:0:
13,154,78117,5,2,1:0:0:0:
220,13,78203,5,4,0:0:0:0:
13,85,78289,5,2,3:0:0:0:
13,85,78375,5,2,3:0:0:0:
13,154,78461,5,2,1:0:0:0:
220,13,78461,5,4,0:0:0:0:
13,85,78548,5,2,3:0:0:0:
220,13,78720,5,4,0:0:0:0:
13,85,78720,5,2,3:0:0:0:
13,154,78806,5,2,1:0:0:0:
13,85,78806,5,2,3:0:0:0:
13,85,78892,5,2,3:0:0:0:
220,13,78979,5,4,0:0:0:0:
13,85,79065,5,2,3:0:0:0:
13,154,79151,5,2,1:0:0:0:
13,85,79151,5,2,3:0:0:0:
220,13,79237,5,4,0:0:0:0:
13,85,79323,5,2,3:0:0:0:
13,154,79496,5,2,1:0:0:0:
220,13,79496,5,4,0:0:0:0:
13,85,79496,5,2,3:0:0:0:
13,85,79668,5,2,3:0:0:0:
220,13,79754,5,4,0:0:0:0:
13,154,79841,5,2,1:0:0:0:
13,85,79927,5,2,3:0:0:0:
220,13,80013,5,4,0:0:0:0:
13,85,80099,5,2,3:0:0:0:
13,154,80186,5,2,1:0:0:0:
220,13,80186,5,4,0:0:0:0:
13,85,80186,5,2,3:0:0:0:
13,85,80272,5,2,3:0:0:0:
220,13,80444,5,4,0:0:0:0:
13,85,80444,5,2,3:0:0:0:
13,154,80530,5,2,1:0:0:0:
13,85,80530,5,2,3:0:0:0:
220,13,80703,5,4,0:0:0:0:
13,85,80875,5,2,3:0:0:0:
13,154,80875,5,2,1:0:0:0:
220,13,80962,5,4,0:0:0:0:
13,85,81048,5,2,3:0:0:0:
13,85,81134,5,2,3:0:0:0:
13,154,81220,5,2,1:0:0:0:
220,13,81220,5,4,0:0:0:0:
13,85,81306,5,2,3:0:0:0:
220,13,81479,5,4,0:0:0:0:
13,154,81565,5,2,1:0:0:0:
13,85,81651,5,2,3:0:0:0:
220,13,81738,5,4,0:0:0:0:
13,85,81823,5,2,3:0:0:0:
13,85,81910,5,2,3:0:0:0:
13,154,81910,5,2,1:0:0:0:
220,13,81996,5,4,0:0:0:0:
13,85,82082,5,2,3:0:0:0:
13,154,82254,5,2,1:0:0:0:
13,85,82254,5,2,3:0:0:0:
220,13,82255,5,4,0:0:0:0:
13,85,82427,5,2,3:0:0:0:
220,13,82513,5,4,0:0:0:0:
13,154,82599,5,2,1:0:0:0:
13,85,82686,5,2,3:0:0:0:
220,13,82772,5,4,0:0:0:0:
13,85,82858,5,2,3:0:0:0:
13,154,82944,5,2,1:0:0:0:
13,85,83030,5,2,3:0:0:0:
13,154,83117,5,2,1:0:0:0:
13,85,83203,5,2,3:0:0:0:
13,154,83289,5,2,1:0:0:0:
13,85,83289,5,2,3:0:0:0:
13,154,83461,5,2,1:0:0:0:
13,85,83461,5,2,3:0:0:0:
13,85,83634,5,2,3:0:0:0:
13,154,83634,5,2,1:0:0:0:
13,154,83677,5,2,1:0:0:0:
13,154,83720,5,2,1:0:0:0:
13,154,83763,5,2,1:0:0:0:
13,154,83806,5,2,1:0:0:0:
13,85,83806,5,2,3:0:0:0:
13,154,83849,5,2,1:0:0:0:
13,154,83892,5,2,1:0:0:0:
13,85,83892,5,2,3:0:0:0:
13,154,83936,5,2,1:0:0:0:
13,154,83979,5,2,1:0:0:0:
13,85,84065,5,2,3:0:0:0:
13,154,84151,5,2,1:0:0:0:
13,154,84194,5,2,1:0:0:0:
13,154,84237,5,2,1:0:0:0:
13,85,84237,5,2,3:0:0:0:
13,154,84280,5,2,1:0:0:0:
13,154,84323,5,2,1:0:0:0:
13,154,84367,5,2,1:0:0:0:
13,154,84410,5,2,1:0:0:0:
13,85,84410,5,2,3:0:0:0:
13,154,84453,5,2,1:0:0:0:
13,154,84496,5,2,1:0:0:0:
13,85,84582,5,2,3:0:0:0:
13,154,84668,5,2,1:0:0:0:
13,85,84668,5,2,3:0:0:0:
13,154,84754,5,2,1:0:0:0:
13,154,84841,5,2,1:0:0:0:
13,85,84841,5,2,3:0:0:0:
13,154,84927,5,2,1:0:0:0:
117,158,85013,5,8,1:0:0:0:
117,158,85186,5,8,1:0:0:0:
13,85,85186,5,2,3:0:0:0:
13,154,85358,5,2,1:0:0:0:
13,85,85444,5,2,3:0:0:0:
13,85,85530,5,2,3:0:0:0:
13,154,85530,5,2,1:0:0:0:
13,85,85617,5,2,3:0:0:0:
117,158,85703,5,8,1:0:0:0:
13,154,85875,5,2,1:0:0:0:
13,85,85961,5,2,3:0:0:0:
13,154,85961,5,2,1:0:0:0:
13,85,86048,5,2,3:0:0:0:
117,158,86048,5,8,1:0:0:0:
13,154,86134,5,2,1:0:0:0:
13,85,86220,5,2,3:0:0:0:
13,154,86220,5,2,1:0:0:0:
117,158,86306,5,8,1:0:0:0:
13,154,86392,5,2,1:0:0:0:
13,85,86392,5,2,3:0:0:0:
13,154,86479,5,2,1:0:0:0:
117,158,86565,5,8,1:0:0:0:
13,154,86651,5,2,1:0:0:0:
13,85,86651,5,2,3:0:0:0:
13,154,86737,5,2,1:0:0:0:
117,158,86823,5,8,1:0:0:0:
13,85,86823,5,2,3:0:0:0:
13,154,86910,5,2,1:0:0:0:
13,85,86996,5,2,3:0:0:0:
13,154,86996,5,2,1:0:0:0:
116,236,87082,5,8,0:0:0:0:
204,233,87082,5,4,0:0:0:0:
116,236,88117,5,8,0:0:0:0:
116,236,88160,5,8,0:0:0:0:
116,236,88203,5,8,0:0:0:0:
116,236,88246,5,8,0:0:0:0:
116,236,88289,5,8,0:0:0:0:
116,236,88332,5,8,0:0:0:0:
116,236,88375,5,8,0:0:0:0:
116,236,88418,5,8,0:0:0:0:
512,86,88461,5,4,2:0:0:0:
512,163,88461,5,0,1:0:0:0:
512,0,88720,5,4,2:0:0:0:
512,163,88979,5,0,1:0:0:0:
430,85,88979,5,4,2:0:0:0:
116,236,89323,5,8,0:0:0:0:
116,236,89410,5,8,0:0:0:0:
25,378,89496,5,2,1:0:0:0:
116,236,89496,5,8,0:0:0:0:
111,379,89668,5,8,1:0:0:0:
194,381,89668,5,4,1:0:0:0:
117,236,90013,5,8,0:0:0:0:
117,236,90099,5,8,0:0:0:0:
25,378,90186,5,2,1:0:0:0:
117,236,90186,5,8,0:0:0:0:
117,236,90272,5,8,0:0:0:0:
111,379,90358,5,8,1:0:0:0:
194,381,90358,5,4,1:0:0:0:
117,236,90358,5,8,0:0:0:0:
117,236,90703,5,8,0:0:0:0:
117,236,90789,5,8,0:0:0:0:
111,379,90875,5,8,1:0:0:0:
117,236,90875,5,8,0:0:0:0:
117,236,90961,5,8,0:0:0:0:
117,236,91134,5,8,0:0:0:0:
430,85,91220,5,4,2:0:0:0:
512,163,91220,5,0,1:0:0:0:
512,0,91479,5,4,2:0:0:0:
512,86,91738,5,4,2:0:0:0:
512,163,91738,5,0,1:0:0:0:
117,236,92082,5,8,0:0:0:0:
117,236,92168,5,8,0:0:0:0:
117,236,92254,5,8,0:0:0:0:
25,378,92254,5,2,1:0:0:0:
194,381,92426,5,4,1:0:0:0:
111,379,92426,5,8,1:0:0:0:
117,236,92772,5,8,0:0:0:0:
117,236,92858,5,8,0:0:0:0:
117,236,92944,5,8,0:0:0:0:
25,378,92944,5,2,1:0:0:0:
117,236,93030,5,8,0:0:0:0:
194,381,93116,5,4,1:0:0:0:
111,379,93116,5,8,1:0:0:0:
117,236,93117,5,8,0:0:0:0:
117,236,93461,5,8,0:0:0:0:
117,236,93548,5,8,0:0:0:0:
111,379,93633,5,8,1:0:0:0:
117,236,93634,5,8,0:0:0:0:
117,236,93720,5,8,0:0:0:0:
117,236,93806,5,8,0:0:0:0:
512,86,93979,5,4,2:0:0:0:
512,163,93979,5,0,1:0:0:0:
512,0,94238,5,4,2:0:0:0:
430,85,94497,5,4,2:0:0:0:
512,163,94497,5,0,1:0:0:0:
117,236,94841,5,8,0:0:0:0:
117,236,94927,5,8,0:0:0:0:
117,236,95013,5,8,0:0:0:0:
25,378,95013,5,2,1:0:0:0:
111,379,95185,5,8,1:0:0:0:
194,381,95185,5,4,1:0:0:0:
117,236,95530,5,8,0:0:0:0:
117,236,95617,5,8,0:0:0:0:
117,236,95703,5,8,0:0:0:0:
25,378,95703,5,2,1:0:0:0:
117,236,95789,5,8,0:0:0:0:
117,236,95875,5,8,0:0:0:0:
111,379,95875,5,8,1:0:0:0:
194,381,95875,5,4,1:0:0:0:
117,236,96220,5,8,0:0:0:0:
117,236,96306,5,8,0:0:0:0:
117,236,96392,5,8,0:0:0:0:
111,379,96392,5,8,1:0:0:0:
117,236,96479,5,8,0:0:0:0:
117,236,96651,5,8,0:0:0:0:
430,85,96737,5,4,2:0:0:0:
512,163,96737,5,0,1:0:0:0:
512,0,96996,5,4,2:0:0:0:
512,86,97255,5,4,2:0:0:0:
512,163,97255,5,0,1:0:0:0:
117,236,97599,5,8,0:0:0:0:
117,236,97686,5,8,0:0:0:0:
117,236,97772,5,8,0:0:0:0:
25,378,97772,5,2,1:0:0:0:
111,379,97944,5,8,1:0:0:0:
194,381,97944,5,4,1:0:0:0:
117,236,98289,5,8,0:0:0:0:
117,236,98375,5,8,0:0:0:0:
117,236,98462,5,8,0:0:0:0:
25,378,98462,5,2,1:0:0:0:
117,236,98548,5,8,0:0:0:0:
117,236,98634,5,8,0:0:0:0:
111,379,98634,5,8,1:0:0:0:
194,381,98634,5,4,1:0:0:0:
117,236,98979,5,8,0:0:0:0:
117,236,99065,5,8,0:0:0:0:
117,236,99151,5,8,0:0:0:0:
111,379,99151,5,8,1:0:0:0:
117,236,99237,5,8,0:0:0:0:
117,236,99323,5,8,0:0:0:0:
512,86,99496,5,4,2:0:0:0:
512,163,99496,5,0,1:0:0:0:
512,0,99755,5,4,2:0:0:0:
430,85,100014,5,4,2:0:0:0:
512,163,100014,5,0,1:0:0:0:
117,236,100358,5,8,0:0:0:0:
117,236,100444,5,8,0:0:0:0:
117,236,100530,5,8,0:0:0:0:
25,378,100530,5,2,1:0:0:0:
194,381,100702,5,4,1:0:0:0:
111,379,100702,5,8,1:0:0:0:
117,236,101048,5,8,0:0:0:0:
117,236,101134,5,8,0:0:0:0:
117,236,101220,5,8,0:0:0:0:
25,378,101220,5,2,1:0:0:0:
117,236,101306,5,8,0:0:0:0:
194,381,101392,5,4,1:0:0:0:
111,379,101392,5,8,1:0:0:0:
117,236,101393,5,8,0:0:0:0:
117,236,101737,5,8,0:0:0:0:
117,236,101824,5,8,0:0:0:0:
111,379,101909,5,8,1:0:0:0:
117,236,101910,5,8,0:0:0:0:
117,236,101996,5,8,0:0:0:0:
117,236,102168,5,8,0:0:0:0:
430,85,102254,5,4,2:0:0:0:
512,163,102254,5,0,1:0:0:0:
512,0,102513,5,4,2:0:0:0:
512,86,102772,5,4,2:0:0:0:
512,163,102772,5,0,1:0:0:0:
117,236,103117,5,8,0:0:0:0:
117,236,103203,5,8,0:0:0:0:
117,236,103289,5,8,0:0:0:0:
25,378,103289,5,2,1:0:0:0:
111,379,103461,5,8,1:0:0:0:
194,381,103461,5,4,1:0:0:0:
117,236,103806,5,8,0:0:0:0:
117,236,103893,5,8,0:0:0:0:
117,236,103979,5,8,0:0:0:0:
25,378,103979,5,2,1:0:0:0:
117,236,104065,5,8,0:0:0:0:
117,236,104151,5,8,0:0:0:0:
111,379,104151,5,8,1:0:0:0:
194,381,104151,5,4,1:0:0:0:
117,236,104496,5,8,0:0:0:0:
117,236,104582,5,8,0:0:0:0:
117,236,104668,5,8,0:0:0:0:
111,379,104668,5,8,1:0:0:0:
117,236,104755,5,8,0:0:0:0:
117,236,104841,5,8,0:0:0:0:
512,86,105013,5,4,2:0:0:0:
512,163,105013,5,0,1:0:0:0:
512,0,105272,5,4,2:0:0:0:
430,85,105531,5,4,2:0:0:0:
512,163,105531,5,0,1:0:0:0:
117,236,105875,5,8,0:0:0:0:
117,236,105962,5,8,0:0:0:0:
117,236,106048,5,8,0:0:0:0:
25,378,106048,5,2,1:0:0:0:
194,381,106220,5,4,1:0:0:0:
111,379,106220,5,8,1:0:0:0:
117,236,106565,5,8,0:0:0:0:
117,236,106651,5,8,0:0:0:0:
117,236,106738,5,8,0:0:0:0:
25,378,106738,5,2,1:0:0:0:
117,236,106824,5,8,0:0:0:0:
117,236,106910,5,8,0:0:0:0:
194,381,106910,5,4,1:0:0:0:
111,379,106910,5,8,1:0:0:0:
117,236,107255,5,8,0:0:0:0:
117,236,107341,5,8,0:0:0:0:
117,236,107427,5,8,0:0:0:0:
111,379,107427,5,8,1:0:0:0:
117,236,107513,5,8,0:0:0:0:
117,236,107686,5,8,0:0:0:0:
430,85,107772,5,4,2:0:0:0:
512,163,107772,5,0,1:0:0:0:
512,0,108031,5,4,2:0:0:0:
512,86,108290,5,4,2:0:0:0:
512,163,108290,5,0,1:0:0:0:
117,236,108634,5,8,0:0:0:0:
117,236,108720,5,8,0:0:0:0:
117,236,108806,5,8,0:0:0:0:
25,378,108806,5,2,1:0:0:0:
111,379,108978,5,8,1:0:0:0:
194,381,108978,5,4,1:0:0:0:
117,236,109324,5,8,0:0:0:0:
117,236,109410,5,8,0:0:0:0:
117,236,109496,5,8,0:0:0:0:
25,378,109496,5,2,1:0:0:0:
117,236,109582,5,8,0:0:0:0:
111,379,109668,5,8,1:0:0:0:
194,381,109668,5,4,1:0:0:0:
117,236,109669,5,8,0:0:0:0:
117,236,110013,5,8,0:0:0:0:
117,236,110100,5,8,0:0:0:0:
111,379,110185,5,8,1:0:0:0:
117,236,110186,5,8,0:0:0:0:
117,236,110272,5,8,0:0:0:0:
117,236,110358,5,8,0:0:0:0:
512,86,110530,5,4,2:0:0:0:
512,163,110530,5,0,1:0:0:0:
512,0,110789,5,4,2:0:0:0:
430,85,111048,5,4,2:0:0:0:
512,163,111048,5,0,1:0:0:0:
117,236,111393,5,8,0:0:0:0:
117,236,111479,5,8,0:0:0:0:
117,236,111565,5,8,0:0:0:0:
117,236,111737,5,8,0:0:0:0:
194,381,111737,5,4,1:0:0:0:
117,236,112082,5,8,0:0:0:0:
117,236,112169,5,8,0:0:0:0:
117,236,112255,5,8,0:0:0:0:
117,236,112341,5,8,0:0:0:0:
194,381,112427,5,4,1:0:0:0:
117,236,112427,5,8,0:0:0:0:
111,379,112772,5,8,1:0:0:0:
117,236,112772,5,8,0:0:0:0:
117,236,112858,5,8,0:0:0:0:
25,378,112944,5,2,1:0:0:0:
117,236,112944,5,8,0:0:0:0:
117,236,113031,5,8,0:0:0:0:
111,379,113117,5,8,1:0:0:0:
117,236,113203,5,8,0:0:0:0:
430,85,113289,5,4,2:0:0:0:
512,163,113289,5,0,1:0:0:0:
512,0,113548,5,4,2:0:0:0:
512,86,113807,5,4,2:0:0:0:
512,163,113807,5,0,1:0:0:0:
117,236,114151,5,8,0:0:0:0:
117,236,114238,5,8,0:0:0:0:
25,378,114323,5,2,1:0:0:0:
117,236,114324,5,8,0:0:0:0:
194,381,114495,5,4,1:0:0:0:
111,379,114495,5,8,1:0:0:0:
117,236,114841,5,8,0:0:0:0:
117,236,114927,5,8,0:0:0:0:
25,378,115013,5,2,1:0:0:0:
117,236,115014,5,8,0:0:0:0:
117,236,115100,5,8,0:0:0:0:
194,381,115185,5,4,1:0:0:0:
111,379,115185,5,8,1:0:0:0:
117,236,115186,5,8,0:0:0:0:
117,236,115531,5,8,0:0:0:0:
117,236,115617,5,8,0:0:0:0:
111,379,115702,5,8,1:0:0:0:
117,236,115703,5,8,0:0:0:0:
117,236,115789,5,8,0:0:0:0:
117,236,115875,5,8,0:0:0:0:
512,86,116048,5,4,2:0:0:0:
512,163,116048,5,0,1:0:0:0:
512,0,116307,5,4,2:0:0:0:
430,85,116566,5,4,2:0:0:0:
512,163,116566,5,0,1:0:0:0:
117,236,116910,5,8,0:0:0:0:
117,236,116997,5,8,0:0:0:0:
117,236,117083,5,8,0:0:0:0:
25,378,117083,5,2,1:0:0:0:
111,379,117255,5,8,1:0:0:0:
194,381,117255,5,4,1:0:0:0:
117,236,117600,5,8,0:0:0:0:
117,236,117686,5,8,0:0:0:0:
117,236,117773,5,8,0:0:0:0:
25,378,117773,5,2,1:0:0:0:
117,236,117859,5,8,0:0:0:0:
117,236,117945,5,8,0:0:0:0:
111,379,117945,5,8,1:0:0:0:
194,381,117945,5,4,1:0:0:0:
117,236,118290,5,8,0:0:0:0:
117,236,118376,5,8,0:0:0:0:
117,236,118462,5,8,0:0:0:0:
111,379,118462,5,8,1:0:0:0:
117,236,118548,5,8,0:0:0:0:
117,236,118721,5,8,0:0:0:0:
430,85,118806,5,4,2:0:0:0:
512,163,118806,5,0,1:0:0:0:
512,0,119065,5,4,2:0:0:0:
512,86,119324,5,4,2:0:0:0:
512,163,119324,5,0,1:0:0:0:
117,236,119669,5,8,0:0:0:0:
117,236,119755,5,8,0:0:0:0:
117,236,119841,5,8,0:0:0:0:
25,378,119841,5,2,1:0:0:0:
111,379,120013,5,8,1:0:0:0:
194,381,120013,5,4,1:0:0:0:
117,236,120359,5,8,0:0:0:0:
117,236,120445,5,8,0:0:0:0:
117,236,120531,5,8,0:0:0:0:
25,378,120531,5,2,1:0:0:0:
117,236,120617,5,8,0:0:0:0:
194,381,120703,5,4,1:0:0:0:
111,379,120703,5,8,1:0:0:0:
117,236,120704,5,8,0:0:0:0:
117,236,121048,5,8,0:0:0:0:
117,236,121135,5,8,0:0:0:0:
111,379,121220,5,8,1:0:0:0:
117,236,121221,5,8,0:0:0:0:
117,236,121307,5,8,0:0:0:0:
117,236,121392,5,8,0:0:0:0:
512,86,121565,5,4,2:0:0:0:
512,163,121565,5,0,1:0:0:0:
512,0,121824,5,4,2:0:0:0:
430,85,122083,5,4,2:0:0:0:
512,163,122083,5,0,1:0:0:0:
117,236,122426,5,8,0:0:0:0:
117,236,122513,5,8,0:0:0:0:
25,378,122599,5,2,1:0:0:0:
117,236,122599,5,8,0:0:0:0:
111,379,122771,5,8,1:0:0:0:
194,381,122771,5,4,1:0:0:0:
117,236,123116,5,8,0:0:0:0:
117,236,123202,5,8,0:0:0:0:
25,378,123289,5,2,1:0:0:0:
117,236,123289,5,8,0:0:0:0:
117,236,123375,5,8,0:0:0:0:
111,379,123461,5,8,1:0:0:0:
194,381,123461,5,4,1:0:0:0:
117,236,123461,5,8,0:0:0:0:
117,236,123806,5,8,0:0:0:0:
117,236,123892,5,8,0:0:0:0:
111,379,123978,5,8,1:0:0:0:
117,236,123978,5,8,0:0:0:0:
117,236,124064,5,8,0:0:0:0:
117,236,124237,5,8,0:0:0:0:
430,85,124323,5,4,2:0:0:0:
512,163,124323,5,0,1:0:0:0:
512,0,124582,5,4,2:0:0:0:
512,86,124841,5,4,2:0:0:0:
512,163,124841,5,0,1:0:0:0:
117,236,125185,5,8,0:0:0:0:
117,236,125271,5,8,0:0:0:0:
117,236,125357,5,8,0:0:0:0:
25,378,125358,5,2,1:0:0:0:
194,381,125530,5,4,1:0:0:0:
111,379,125530,5,8,1:0:0:0:
117,236,125875,5,8,0:0:0:0:
117,236,125961,5,8,0:0:0:0:
117,236,126047,5,8,0:0:0:0:
25,378,126048,5,2,1:0:0:0:
117,236,126133,5,8,0:0:0:0:
194,381,126220,5,4,1:0:0:0:
111,379,126220,5,8,1:0:0:0:
117,236,126220,5,8,0:0:0:0:
117,236,126564,5,8,0:0:0:0:
117,236,126651,5,8,0:0:0:0:
111,379,126737,5,8,1:0:0:0:
117,236,126737,5,8,0:0:0:0:
117,236,126823,5,8,0:0:0:0:
117,236,126910,5,8,0:0:0:0:
512,86,127082,5,4,2:0:0:0:
512,163,127082,5,0,1:0:0:0:
512,0,127341,5,4,2:0:0:0:
430,85,127600,5,4,2:0:0:0:
512,163,127600,5,0,1:0:0:0:
117,236,127944,5,8,0:0:0:0:
117,236,128030,5,8,0:0:0:0:
117,236,128116,5,8,0:0:0:0:
25,378,128117,5,2,1:0:0:0:
111,379,128289,5,8,1:0:0:0:
194,381,128289,5,4,1:0:0:0:
117,236,128633,5,8,0:0:0:0:
117,236,128720,5,8,0:0:0:0:
117,236,128806,5,8,0:0:0:0:
25,378,128807,5,2,1:0:0:0:
117,236,128892,5,8,0:0:0:0:
117,236,128978,5,8,0:0:0:0:
111,379,128979,5,8,1:0:0:0:
194,381,128979,5,4,1:0:0:0:
117,236,129323,5,8,0:0:0:0:
117,236,129409,5,8,0:0:0:0:
117,236,129495,5,8,0:0:0:0:
111,379,129496,5,8,1:0:0:0:
117,236,129582,5,8,0:0:0:0:
117,236,129754,5,8,0:0:0:0:
430,85,129841,5,4,2:0:0:0:
512,163,129841,5,0,1:0:0:0:
512,0,130100,5,4,2:0:0:0:
512,86,130359,5,4,2:0:0:0:
512,163,130359,5,0,1:0:0:0:
117,236,130702,5,8,0:0:0:0:
117,236,130789,5,8,0:0:0:0:
25,378,130875,5,2,1:0:0:0:
117,236,130875,5,8,0:0:0:0:
194,381,131047,5,4,1:0:0:0:
111,379,131047,5,8,1:0:0:0:
117,236,131392,5,8,0:0:0:0:
117,236,131478,5,8,0:0:0:0:
25,378,131565,5,2,1:0:0:0:
117,236,131565,5,8,0:0:0:0:
117,236,131651,5,8,0:0:0:0:
194,381,131737,5,4,1:0:0:0:
111,379,131737,5,8,1:0:0:0:
117,236,131737,5,8,0:0:0:0:
117,236,132082,5,8,0:0:0:0:
117,236,132168,5,8,0:0:0:0:
111,379,132254,5,8,1:0:0:0:
117,236,132254,5,8,0:0:0:0:
117,236,132298,5,8,0:0:0:0:
117,236,132341,5,8,0:0:0:0:
117,236,132384,5,8,0:0:0:0:
117,236,132427,5,8,0:0:0:0:
117,236,132470,5,8,0:0:0:0:
117,236,132513,5,8,0:0:0:0:
117,236,132556,5,8,0:0:0:0:
220,13,132599,5,4,0:0:0:0:
16,13,132599,5,2,0:0:0:0:
13,154,132599,5,2,1:0:0:0:
221,88,132599,5,4,3:0:0:0:
220,13,132858,5,4,0:0:0:0:
117,158,133117,5,8,1:0:0:0:
220,13,133117,5,4,0:0:0:0:
16,13,133117,5,2,0:0:0:0:
16,13,133203,5,2,0:0:0:0:
16,13,133289,5,2,0:0:0:0:
220,13,133375,5,4,0:0:0:0:
120,18,133461,5,8,2:0:0:0:
120,18,133548,5,8,2:0:0:0:
220,13,133634,5,4,0:0:0:0:
117,158,133634,5,8,1:0:0:0:
13,154,133806,5,2,1:0:0:0:
16,13,133806,5,2,0:0:0:0:
220,13,133806,5,4,0:0:0:0:
16,13,133892,5,2,0:0:0:0:
13,154,133979,5,2,1:0:0:0:
16,13,133979,5,2,0:0:0:0:
220,13,133979,5,4,0:0:0:0:
16,13,134065,5,2,0:0:0:0:
16,13,134151,5,2,0:0:0:0:
120,18,134151,5,8,2:0:0:0:
16,13,134237,5,2,0:0:0:0:
220,13,134237,5,4,0:0:0:0:
117,158,134323,5,8,1:0:0:0:
120,18,134323,5,8,2:0:0:0:
16,13,134410,5,2,0:0:0:0:
16,13,134496,5,2,0:0:0:0:
220,13,134496,5,4,0:0:0:0:
13,154,134496,5,2,1:0:0:0:
16,13,134582,5,2,0:0:0:0:
120,18,134668,5,8,2:0:0:0:
16,13,134668,5,2,0:0:0:0:
16,13,134754,5,2,0:0:0:0:
220,13,134755,5,4,0:0:0:0:
16,13,134841,5,2,0:0:0:0:
120,18,134841,5,8,2:0:0:0:
16,13,134927,5,2,0:0:0:0:
120,18,134927,5,8,2:0:0:0:
117,158,135013,5,8,1:0:0:0:
16,13,135013,5,2,0:0:0:0:
220,13,135013,5,4,0:0:0:0:
16,13,135099,5,2,0:0:0:0:
16,13,135186,5,2,0:0:0:0:
220,13,135186,5,4,0:0:0:0:
16,13,135272,5,2,0:0:0:0:
16,13,135358,5,2,0:0:0:0:
220,13,135358,5,4,0:0:0:0:
221,88,135358,5,4,3:0:0:0:
13,154,135358,5,2,1:0:0:0:
220,13,135617,5,4,0:0:0:0:
16,13,135875,5,2,0:0:0:0:
117,158,135876,5,8,1:0:0:0:
220,13,135876,5,4,0:0:0:0:
16,13,135961,5,2,0:0:0:0:
16,13,136048,5,2,0:0:0:0:
220,13,136134,5,4,0:0:0:0:
120,18,136220,5,8,2:0:0:0:
16,13,136220,5,2,0:0:0:0:
16,13,136306,5,2,0:0:0:0:
120,18,136306,5,8,2:0:0:0:
117,158,136393,5,8,1:0:0:0:
220,13,136393,5,4,0:0:0:0:
16,13,136479,5,2,0:0:0:0:
16,13,136565,5,2,0:0:0:0:
220,13,136565,5,4,0:0:0:0:
13,154,136565,5,2,1:0:0:0:
16,13,136651,5,2,0:0:0:0:
220,13,136738,5,4,0:0:0:0:
13,154,136738,5,2,1:0:0:0:
16,13,136823,5,2,0:0:0:0:
16,13,136910,5,2,0:0:0:0:
120,18,136910,5,8,2:0:0:0:
16,13,136996,5,2,0:0:0:0:
220,13,136996,5,4,0:0:0:0:
120,18,137082,5,8,2:0:0:0:
16,13,137082,5,2,0:0:0:0:
13,154,137082,5,2,1:0:0:0:
16,13,137168,5,2,0:0:0:0:
117,158,137254,5,8,1:0:0:0:
16,13,137254,5,2,0:0:0:0:
220,13,137254,5,4,0:0:0:0:
16,13,137427,5,2,0:0:0:0:
120,18,137427,5,8,2:0:0:0:
16,13,137513,5,2,0:0:0:0:
220,13,137513,5,4,0:0:0:0:
16,13,137599,5,2,0:0:0:0:
120,18,137599,5,8,2:0:0:0:
16,13,137686,5,2,0:0:0:0:
120,18,137686,5,8,2:0:0:0:
117,158,137772,5,8,1:0:0:0:
220,13,137772,5,4,0:0:0:0:
16,13,137858,5,2,0:0:0:0:
16,13,137944,5,2,0:0:0:0:
220,13,137945,5,4,0:0:0:0:
16,13,138002,5,2,0:0:0:0:
16,13,138059,5,2,0:0:0:0:
221,88,138117,5,4,3:0:0:0:
13,154,138117,5,2,1:0:0:0:
16,13,138117,5,2,0:0:0:0:
220,13,138117,5,4,0:0:0:0:
220,13,138375,5,4,0:0:0:0:
117,158,138634,5,8,1:0:0:0:
220,13,138634,5,4,0:0:0:0:
16,13,138634,5,2,0:0:0:0:
16,13,138720,5,2,0:0:0:0:
16,13,138806,5,2,0:0:0:0:
16,13,138892,5,2,0:0:0:0:
220,13,138892,5,4,0:0:0:0:
120,18,138978,5,8,2:0:0:0:
16,13,138979,5,2,0:0:0:0:
120,18,139065,5,8,2:0:0:0:
16,13,139065,5,2,0:0:0:0:
117,158,139151,5,8,1:0:0:0:
220,13,139151,5,4,0:0:0:0:
16,13,139151,5,2,0:0:0:0:
16,13,139237,5,2,0:0:0:0:
16,13,139323,5,2,0:0:0:0:
220,13,139323,5,4,0:0:0:0:
13,154,139323,5,2,1:0:0:0:
16,13,139410,5,2,0:0:0:0:
220,13,139496,5,4,0:0:0:0:
13,154,139496,5,2,1:0:0:0:
16,13,139582,5,2,0:0:0:0:
16,13,139668,5,2,0:0:0:0:
120,18,139668,5,8,2:0:0:0:
16,13,139754,5,2,0:0:0:0:
220,13,139754,5,4,0:0:0:0:
120,18,139840,5,8,2:0:0:0:
117,158,139840,5,8,1:0:0:0:
16,13,139841,5,2,0:0:0:0:
16,13,139927,5,2,0:0:0:0:
13,154,140013,5,2,1:0:0:0:
220,13,140013,5,4,0:0:0:0:
16,13,140013,5,2,0:0:0:0:
120,18,140186,5,8,2:0:0:0:
16,13,140186,5,2,0:0:0:0:
16,13,140272,5,2,0:0:0:0:
220,13,140272,5,4,0:0:0:0:
16,13,140358,5,2,0:0:0:0:
120,18,140358,5,8,2:0:0:0:
16,13,140444,5,2,0:0:0:0:
120,18,140444,5,8,2:0:0:0:
117,158,140530,5,8,1:0:0:0:
220,13,140530,5,4,0:0:0:0:
16,13,140617,5,2,0:0:0:0:
220,13,140703,5,4,0:0:0:0:
16,13,140703,5,2,0:0:0:0:
16,13,140760,5,2,0:0:0:0:
16,13,140818,5,2,0:0:0:0:
16,13,140875,5,2,0:0:0:0:
220,13,140875,5,4,0:0:0:0:
221,88,140875,5,4,3:0:0:0:
13,154,140875,5,2,1:0:0:0:
16,13,140961,5,2,0:0:0:0:
220,13,141134,5,4,0:0:0:0:
16,13,141392,5,2,0:0:0:0:
117,158,141393,5,8,1:0:0:0:
220,13,141393,5,4,0:0:0:0:
16,13,141479,5,2,0:0:0:0:
16,13,141565,5,2,0:0:0:0:
16,13,141651,5,2,0:0:0:0:
220,13,141651,5,4,0:0:0:0:
120,18,141737,5,8,2:0:0:0:
120,18,141823,5,8,2:0:0:0:
16,13,141823,5,2,0:0:0:0:
117,158,141910,5,8,1:0:0:0:
220,13,141910,5,4,0:0:0:0:
16,13,141996,5,2,0:0:0:0:
16,13,142082,5,2,0:0:0:0:
220,13,142082,5,4,0:0:0:0:
13,154,142082,5,2,1:0:0:0:
16,13,142168,5,2,0:0:0:0:
16,13,142254,5,2,0:0:0:0:
220,13,142255,5,4,0:0:0:0:
13,154,142255,5,2,1:0:0:0:
120,18,142427,5,8,2:0:0:0:
220,13,142513,5,4,0:0:0:0:
16,13,142513,5,2,0:0:0:0:
120,18,142599,5,8,2:0:0:0:
13,154,142599,5,2,1:0:0:0:
16,13,142599,5,2,0:0:0:0:
117,158,142771,5,8,1:0:0:0:
220,13,142771,5,4,0:0:0:0:
16,13,142772,5,2,0:0:0:0:
16,13,142858,5,2,0:0:0:0:
120,18,142944,5,8,2:0:0:0:
16,13,143030,5,2,0:0:0:0:
220,13,143030,5,4,0:0:0:0:
120,18,143116,5,8,2:0:0:0:
16,13,143117,5,2,0:0:0:0:
16,13,143203,5,2,0:0:0:0:
120,18,143203,5,8,2:0:0:0:
220,13,143289,5,4,0:0:0:0:
117,158,143289,5,8,1:0:0:0:
16,13,143289,5,2,0:0:0:0:
16,13,143375,5,2,0:0:0:0:
16,13,143461,5,2,0:0:0:0:
220,13,143461,5,4,0:0:0:0:
16,13,143519,5,2,0:0:0:0:
16,13,143576,5,2,0:0:0:0:
221,88,143634,5,4,3:0:0:0:
13,154,143634,5,2,1:0:0:0:
220,13,143634,5,4,0:0:0:0:
220,13,143892,5,4,0:0:0:0:
117,158,144151,5,8,1:0:0:0:
220,13,144151,5,4,0:0:0:0:
220,13,144409,5,4,0:0:0:0:
120,18,144495,5,8,2:0:0:0:
120,18,144581,5,8,2:0:0:0:
117,158,144668,5,8,1:0:0:0:
220,13,144668,5,4,0:0:0:0:
13,154,144840,5,2,1:0:0:0:
16,13,144841,5,2,0:0:0:0:
220,13,144841,5,4,0:0:0:0:
16,13,144927,5,2,0:0:0:0:
16,13,145013,5,2,0:0:0:0:
220,13,145013,5,4,0:0:0:0:
13,154,145013,5,2,1:0:0:0:
120,18,145185,5,8,2:0:0:0:
16,13,145186,5,2,0:0:0:0:
220,13,145271,5,4,0:0:0:0:
16,13,145272,5,2,0:0:0:0:
13,154,145357,5,2,1:0:0:0:
120,18,145357,5,8,2:0:0:0:
16,13,145444,5,2,0:0:0:0:
117,158,145529,5,8,1:0:0:0:
220,13,145529,5,4,0:0:0:0:
16,13,145617,5,2,0:0:0:0:
120,18,145702,5,8,2:0:0:0:
16,13,145703,5,2,0:0:0:0:
220,13,145788,5,4,0:0:0:0:
16,13,145789,5,2,0:0:0:0:
120,18,145874,5,8,2:0:0:0:
16,13,145875,5,2,0:0:0:0:
16,13,145961,5,2,0:0:0:0:
120,18,145961,5,8,2:0:0:0:
117,158,146047,5,8,1:0:0:0:
220,13,146047,5,4,0:0:0:0:
16,13,146048,5,2,0:0:0:0:
16,13,146163,5,2,0:0:0:0:
16,13,146220,5,2,0:0:0:0:
220,13,146220,5,4,0:0:0:0:
16,13,146277,5,2,0:0:0:0:
16,13,146335,5,2,0:0:0:0:
220,13,146392,5,4,0:0:0:0:
13,154,146392,5,2,1:0:0:0:
221,88,146392,5,4,3:0:0:0:
220,13,146651,5,4,0:0:0:0:
220,13,146910,5,4,0:0:0:0:
117,158,146910,5,8,1:0:0:0:
16,13,146910,5,2,0:0:0:0:
16,13,146996,5,2,0:0:0:0:
16,13,147082,5,2,0:0:0:0:
16,13,147168,5,2,0:0:0:0:
220,13,147168,5,4,0:0:0:0:
16,13,147254,5,2,0:0:0:0:
120,18,147254,5,8,2:0:0:0:
120,18,147340,5,8,2:0:0:0:
16,13,147341,5,2,0:0:0:0:
220,13,147427,5,4,0:0:0:0:
117,158,147427,5,8,1:0:0:0:
16,13,147513,5,2,0:0:0:0:
220,13,147599,5,4,0:0:0:0:
13,154,147599,5,2,1:0:0:0:
16,13,147686,5,2,0:0:0:0:
13,154,147772,5,2,1:0:0:0:
220,13,147772,5,4,0:0:0:0:
16,13,147858,5,2,0:0:0:0:
16,13,147944,5,2,0:0:0:0:
120,18,147944,5,8,2:0:0:0:
16,13,148030,5,2,0:0:0:0:
220,13,148030,5,4,0:0:0:0:
120,18,148116,5,8,2:0:0:0:
13,154,148116,5,2,1:0:0:0:
16,13,148117,5,2,0:0:0:0:
220,13,148288,5,4,0:0:0:0:
117,158,148288,5,8,1:0:0:0:
16,13,148289,5,2,0:0:0:0:
16,13,148461,5,2,0:0:0:0:
120,18,148461,5,8,2:0:0:0:
220,13,148547,5,4,0:0:0:0:
16,13,148548,5,2,0:0:0:0:
120,18,148633,5,8,2:0:0:0:
16,13,148634,5,2,0:0:0:0:
16,13,148720,5,2,0:0:0:0:
120,18,148720,5,8,2:0:0:0:
16,13,148806,5,2,0:0:0:0:
220,13,148806,5,4,0:0:0:0:
117,158,148806,5,8,1:0:0:0:
220,13,148979,5,4,0:0:0:0:
16,13,148979,5,2,0:0:0:0:
16,13,149036,5,2,0:0:0:0:
16,13,149094,5,2,0:0:0:0:
221,88,149151,5,4,3:0:0:0:
13,154,149151,5,2,1:0:0:0:
220,13,149151,5,4,0:0:0:0:
220,13,149410,5,4,0:0:0:0:
117,158,149669,5,8,1:0:0:0:
220,13,149669,5,4,0:0:0:0:
220,13,149927,5,4,0:0:0:0:
16,13,150013,5,2,0:0:0:0:
120,18,150013,5,8,2:0:0:0:
120,18,150099,5,8,2:0:0:0:
117,158,150186,5,8,1:0:0:0:
220,13,150186,5,4,0:0:0:0:
16,13,150186,5,2,0:0:0:0:
16,13,150272,5,2,0:0:0:0:
16,13,150358,5,2,0:0:0:0:
13,154,150358,5,2,1:0:0:0:
220,13,150358,5,4,0:0:0:0:
220,13,150531,5,4,0:0:0:0:
13,154,150531,5,2,1:0:0:0:
120,18,150703,5,8,2:0:0:0:
220,13,150789,5,4,0:0:0:0:
13,154,150875,5,2,1:0:0:0:
120,18,150875,5,8,2:0:0:0:
117,158,151047,5,8,1:0:0:0:
220,13,151047,5,4,0:0:0:0:
16,13,151048,5,2,0:0:0:0:
16,13,151134,5,2,0:0:0:0:
120,18,151220,5,8,2:0:0:0:
220,13,151306,5,4,0:0:0:0:
120,18,151392,5,8,2:0:0:0:
16,13,151392,5,2,0:0:0:0:
120,18,151479,5,8,2:0:0:0:
16,13,151479,5,2,0:0:0:0:
117,158,151565,5,8,1:0:0:0:
220,13,151565,5,4,0:0:0:0:
16,13,151565,5,2,0:0:0:0:
16,13,151622,5,2,0:0:0:0:
16,13,151680,5,2,0:0:0:0:
16,13,151737,5,2,0:0:0:0:
220,13,151738,5,4,0:0:0:0:
16,13,151795,5,2,0:0:0:0:
16,13,151852,5,2,0:0:0:0:
220,13,151910,5,4,0:0:0:0:
13,154,151910,5,2,1:0:0:0:
221,88,151910,5,4,3:0:0:0:
220,13,152168,5,4,0:0:0:0:
220,13,152427,5,4,0:0:0:0:
117,158,152427,5,8,1:0:0:0:
220,13,152685,5,4,0:0:0:0:
120,18,152771,5,8,2:0:0:0:
16,13,152772,5,2,0:0:0:0:
120,18,152857,5,8,2:0:0:0:
16,13,152858,5,2,0:0:0:0:
220,13,152944,5,4,0:0:0:0:
117,158,152944,5,8,1:0:0:0:
16,13,152944,5,2,0:0:0:0:
16,13,153030,5,2,0:0:0:0:
220,13,153116,5,4,0:0:0:0:
13,154,153116,5,2,1:0:0:0:
16,13,153117,5,2,0:0:0:0:
16,13,153203,5,2,0:0:0:0:
220,13,153289,5,4,0:0:0:0:
16,13,153289,5,2,0:0:0:0:
16,13,153375,5,2,0:0:0:0:
16,13,153461,5,2,0:0:0:0:
120,18,153461,5,8,2:0:0:0:
220,13,153547,5,4,0:0:0:0:
16,13,153548,5,2,0:0:0:0:
120,18,153633,5,8,2:0:0:0:
13,154,153633,5,2,1:0:0:0:
16,13,153634,5,2,0:0:0:0:
16,13,153720,5,2,0:0:0:0:
220,13,153805,5,4,0:0:0:0:
117,158,153805,5,8,1:0:0:0:
16,13,153806,5,2,0:0:0:0:
16,13,153892,5,2,0:0:0:0:
120,18,153978,5,8,2:0:0:0:
16,13,153979,5,2,0:0:0:0:
220,13,154064,5,4,0:0:0:0:
16,13,154065,5,2,0:0:0:0:
120,18,154150,5,8,2:0:0:0:
16,13,154151,5,2,0:0:0:0:
16,13,154237,5,2,0:0:0:0:
120,18,154237,5,8,2:0:0:0:
220,13,154323,5,4,0:0:0:0:
117,158,154323,5,8,1:0:0:0:
16,13,154323,5,2,0:0:0:0:
16,13,154381,5,2,0:0:0:0:
16,13,154438,5,2,0:0:0:0:
16,13,154496,5,2,0:0:0:0:
220,13,154496,5,4,0:0:0:0:
16,13,154553,5,2,0:0:0:0:
16,13,154611,5,2,0:0:0:0:
221,88,154668,5,4,3:0:0:0:
13,154,154668,5,2,1:0:0:0:
220,13,154668,5,4,0:0:0:0:
220,13,154927,5,4,0:0:0:0:
220,13,155186,5,4,0:0:0:0:
220,13,155444,5,4,0:0:0:0:
220,13,155703,5,4,0:0:0:0:
220,13,155962,5,4,0:0:0:0:
220,13,156220,5,4,0:0:0:0:
220,13,156479,5,4,0:0:0:0:
220,13,156737,5,4,0:0:0:0:
220,13,156996,5,4,0:0:0:0:
220,13,157255,5,4,0:0:0:0:
220,13,157427,5,4,0:0:0:0:
220,13,157686,5,4,0:0:0:0:
220,13,157945,5,4,0:0:0:0:
220,13,158203,5,4,0:0:0:0:
220,13,158462,5,4,0:0:0:0:
220,13,158721,5,4,0:0:0:0:
220,13,158979,5,4,0:0:0:0:
220,13,159237,5,4,0:0:0:0:
220,13,159496,5,4,0:0:0:0:
220,13,159755,5,4,0:0:0:0:
220,13,160013,5,4,0:0:0:0:
220,13,160186,5,4,0:0:0:0:
220,13,160444,5,4,0:0:0:0:
220,13,160703,5,4,0:0:0:0:
220,13,160962,5,4,0:0:0:0:
220,13,161220,5,4,0:0:0:0:
220,13,161479,5,4,0:0:0:0:
220,13,161738,5,4,0:0:0:0:
220,13,161996,5,4,0:0:0:0:
220,13,162255,5,4,0:0:0:0:
220,13,162513,5,4,0:0:0:0:
220,13,162772,5,4,0:0:0:0:
220,13,162944,5,4,0:0:0:0:
220,13,163202,5,4,0:0:0:0:
220,13,163461,5,4,0:0:0:0:
220,13,163720,5,4,0:0:0:0:
220,13,163978,5,4,0:0:0:0:
220,13,164237,5,4,0:0:0:0:
220,13,164496,5,4,0:0:0:0:
220,13,164755,5,4,0:0:0:0:
220,13,165013,5,4,0:0:0:0:
220,13,165272,5,4,0:0:0:0:
220,13,165531,5,4,0:0:0:0:
220,13,165703,5,4,0:0:0:0:
13,85,165703,5,2,3:0:0:0:
13,85,165789,5,2,3:0:0:0:
220,13,165961,5,4,0:0:0:0:
13,85,165962,5,2,3:0:0:0:
13,85,166048,5,2,3:0:0:0:
220,13,166220,5,4,0:0:0:0:
13,85,166393,5,2,3:0:0:0:
220,13,166479,5,4,0:0:0:0:
13,85,166565,5,2,3:0:0:0:
13,85,166651,5,2,3:0:0:0:
220,13,166737,5,4,0:0:0:0:
13,85,166824,5,2,3:0:0:0:
13,85,166910,5,2,3:0:0:0:
220,13,166996,5,4,0:0:0:0:
13,85,166996,5,2,3:0:0:0:
13,85,167168,5,2,3:0:0:0:
220,13,167255,5,4,0:0:0:0:
13,85,167341,5,2,3:0:0:0:
13,85,167427,5,2,3:0:0:0:
220,13,167513,5,4,0:0:0:0:
13,85,167600,5,2,3:0:0:0:
220,13,167772,5,4,0:0:0:0:
13,85,167772,5,2,3:0:0:0:
13,85,167944,5,2,3:0:0:0:
220,13,168031,5,4,0:0:0:0:
13,85,168031,5,2,3:0:0:0:
13,85,168203,5,2,3:0:0:0:
13,85,168289,5,2,3:0:0:0:
220,13,168289,5,4,0:0:0:0:
13,85,168375,5,2,3:0:0:0:
13,85,168462,5,2,3:0:0:0:
220,13,168462,5,4,0:0:0:0:
13,85,168548,5,2,3:0:0:0:
220,13,168720,5,4,0:0:0:0:
13,85,168721,5,2,3:0:0:0:
13,85,168807,5,2,3:0:0:0:
220,13,168979,5,4,0:0:0:0:
13,85,169152,5,2,3:0:0:0:
220,13,169238,5,4,0:0:0:0:
13,85,169324,5,2,3:0:0:0:
13,85,169410,5,2,3:0:0:0:
220,13,169496,5,4,0:0:0:0:
13,85,169583,5,2,3:0:0:0:
13,85,169755,5,2,3:0:0:0:
220,13,169755,5,4,0:0:0:0:
13,85,169927,5,2,3:0:0:0:
220,13,170014,5,4,0:0:0:0:
13,85,170100,5,2,3:0:0:0:
13,85,170186,5,2,3:0:0:0:
220,13,170272,5,4,0:0:0:0:
13,85,170359,5,2,3:0:0:0:
13,85,170531,5,2,3:0:0:0:
220,13,170531,5,4,0:0:0:0:
13,85,170703,5,2,3:0:0:0:
220,13,170789,5,4,0:0:0:0:
13,85,170790,5,2,3:0:0:0:
13,85,170962,5,2,3:0:0:0:
220,13,171048,5,4,0:0:0:0:
13,85,171048,5,2,3:0:0:0:
13,85,171134,5,2,3:0:0:0:
13,85,171220,5,2,3:0:0:0:
220,13,171220,5,4,0:0:0:0:
13,85,171306,5,2,3:0:0:0:
220,13,171478,5,4,0:0:0:0:
13,85,171479,5,2,3:0:0:0:
13,85,171565,5,2,3:0:0:0:
220,13,171737,5,4,0:0:0:0:
13,85,171910,5,2,3:0:0:0:
220,13,171996,5,4,0:0:0:0:
13,85,172082,5,2,3:0:0:0:
13,85,172168,5,2,3:0:0:0:
220,13,172254,5,4,0:0:0:0:
13,85,172341,5,2,3:0:0:0:
13,85,172427,5,2,3:0:0:0:
220,13,172513,5,4,0:0:0:0:
13,85,172513,5,2,3:0:0:0:
13,85,172685,5,2,3:0:0:0:
220,13,172772,5,4,0:0:0:0:
13,85,172858,5,2,3:0:0:0:
13,85,172944,5,2,3:0:0:0:
220,13,173030,5,4,0:0:0:0:
13,85,173117,5,2,3:0:0:0:
220,13,173289,5,4,0:0:0:0:
13,85,173289,5,2,3:0:0:0:
13,85,173461,5,2,3:0:0:0:
220,13,173547,5,4,0:0:0:0:
13,85,173548,5,2,3:0:0:0:
13,85,173720,5,2,3:0:0:0:
220,13,173806,5,4,0:0:0:0:
13,85,173806,5,2,3:0:0:0:
13,85,173892,5,2,3:0:0:0:
13,85,173979,5,2,3:0:0:0:
220,13,173979,5,4,0:0:0:0:
13,154,173979,5,2,1:0:0:0:
13,85,174065,5,2,3:0:0:0:
220,13,174237,5,4,0:0:0:0:
13,154,174237,5,2,1:0:0:0:
13,85,174238,5,2,3:0:0:0:
13,85,174323,5,2,3:0:0:0:
13,154,174496,5,2,1:0:0:0:
220,13,174496,5,4,0:0:0:0:
13,85,174669,5,2,3:0:0:0:
13,154,174754,5,2,1:0:0:0:
220,13,174754,5,4,0:0:0:0:
13,85,174841,5,2,3:0:0:0:
13,85,174927,5,2,3:0:0:0:
220,13,175013,5,4,0:0:0:0:
13,154,175013,5,2,1:0:0:0:
13,85,175100,5,2,3:0:0:0:
13,154,175272,5,2,1:0:0:0:
13,85,175272,5,2,3:0:0:0:
220,13,175272,5,4,0:0:0:0:
13,85,175444,5,2,3:0:0:0:
13,154,175530,5,2,1:0:0:0:
220,13,175530,5,4,0:0:0:0:
13,85,175617,5,2,3:0:0:0:
13,85,175703,5,2,3:0:0:0:
220,13,175789,5,4,0:0:0:0:
13,154,175789,5,2,1:0:0:0:
13,85,175876,5,2,3:0:0:0:
13,85,176048,5,2,3:0:0:0:
220,13,176048,5,4,0:0:0:0:
13,154,176048,5,2,1:0:0:0:
13,85,176220,5,2,3:0:0:0:
220,13,176306,5,4,0:0:0:0:
13,85,176307,5,2,3:0:0:0:
466,362,176392,5,4,1:0:0:0:
466,227,176737,5,4,0:0:0:0:
311,230,176737,5,2,0:0:0:0:
466,227,176996,5,4,0:0:0:0:
311,230,177254,5,2,0:0:0:0:
466,227,177254,5,4,0:0:0:0:
388,227,177427,5,8,0:0:0:0:
466,227,177513,5,4,0:0:0:0:
311,230,177599,5,2,0:0:0:0:
311,230,177772,5,2,0:0:0:0:
466,227,177772,5,4,0:0:0:0:
466,227,178030,5,4,0:0:0:0:
466,227,178289,5,4,0:0:0:0:
466,227,178548,5,4,0:0:0:0:
388,227,178806,5,8,0:0:0:0:
466,227,178806,5,4,0:0:0:0:
466,227,179065,5,4,0:0:0:0:
311,230,179151,5,2,0:0:0:0:
466,227,179323,5,4,0:0:0:0:
311,230,179323,5,2,0:0:0:0:
311,230,179410,5,2,0:0:0:0:
466,227,179496,5,4,0:0:0:0:
311,230,179496,5,2,0:0:0:0:
466,227,179755,5,4,0:0:0:0:
466,227,180013,5,4,0:0:0:0:
388,227,180186,5,12,0:0:0:0:
466,227,180272,5,4,0:0:0:0:
466,227,180531,5,4,0:0:0:0:
466,227,180789,5,4,0:0:0:0:
466,227,181048,5,4,0:0:0:0:
311,230,181048,5,2,0:0:0:0:
311,230,181134,5,2,0:0:0:0:
311,230,181220,5,2,0:0:0:0:
311,230,181306,5,2,0:0:0:0:
466,227,181307,5,4,0:0:0:0:
311,230,181392,5,2,0:0:0:0:
311,230,181565,5,2,0:0:0:0:
388,227,181565,5,8,0:0:0:0:
466,227,181565,5,4,0:0:0:0:
311,230,181651,5,2,0:0:0:0:
311,230,181737,5,2,0:0:0:0:
311,230,181823,5,2,0:0:0:0:
466,227,181824,5,4,0:0:0:0:
311,230,181910,5,2,0:0:0:0:
311,230,181996,5,2,0:0:0:0:
466,227,182082,5,4,0:0:0:0:
311,230,182082,5,2,0:0:0:0:
466,227,182254,5,4,0:0:0:0:
311,230,182254,5,2,0:0:0:0:
466,227,182513,5,4,0:0:0:0:
466,227,182771,5,4,0:0:0:0:
311,230,182772,5,2,0:0:0:0:
388,227,182944,5,8,0:0:0:0:
466,227,183030,5,4,0:0:0:0:
311,230,183117,5,2,0:0:0:0:
311,230,183289,5,2,0:0:0:0:
466,227,183289,5,4,0:0:0:0:
466,227,183547,5,4,0:0:0:0:
466,227,183806,5,4,0:0:0:0:
466,227,184065,5,4,0:0:0:0:
388,227,184323,5,8,0:0:0:0:
466,227,184323,5,4,0:0:0:0:
466,227,184582,5,4,0:0:0:0:
311,230,184668,5,2,0:0:0:0:
311,230,184754,5,2,0:0:0:0:
466,227,184840,5,4,0:0:0:0:
311,230,184841,5,2,0:0:0:0:
311,230,184927,5,2,0:0:0:0:
311,230,185013,5,2,0:0:0:0:
466,227,185013,5,4,0:0:0:0:
466,227,185272,5,4,0:0:0:0:
466,227,185530,5,4,0:0:0:0:
388,227,185703,5,12,0:0:0:0:
466,227,186048,5,4,0:0:0:0:
466,227,186306,5,4,0:0:0:0:
466,227,186565,5,4,0:0:0:0:
311,230,186565,5,2,0:0:0:0:
311,230,186651,5,2,0:0:0:0:
311,230,186737,5,2,0:0:0:0:
311,230,186823,5,2,0:0:0:0:
466,227,186824,5,4,0:0:0:0:
311,230,186910,5,2,0:0:0:0:
466,227,187082,5,4,0:0:0:0:
388,227,187082,5,8,0:0:0:0:
311,230,187082,5,2,0:0:0:0:
311,230,187168,5,2,0:0:0:0:
311,230,187254,5,2,0:0:0:0:
311,230,187341,5,2,0:0:0:0:
466,227,187341,5,4,0:0:0:0:
311,230,187427,5,2,0:0:0:0:
311,230,187513,5,2,0:0:0:0:
311,230,187599,5,2,0:0:0:0:
466,227,187599,5,4,0:0:0:0:
466,227,187772,5,4,0:0:0:0:
311,230,187772,5,2,0:0:0:0:
466,227,188031,5,4,0:0:0:0:
466,227,188289,5,4,0:0:0:0:
311,230,188289,5,2,0:0:0:0:
388,227,188462,5,8,0:0:0:0:
466,227,188548,5,4,0:0:0:0:
311,230,188634,5,2,0:0:0:0:
466,227,188807,5,4,0:0:0:0:
311,230,188807,5,2,0:0:0:0:
466,227,189065,5,4,0:0:0:0:
466,227,189324,5,4,0:0:0:0:
466,227,189583,5,4,0:0:0:0:
466,227,189841,5,4,0:0:0:0:
388,227,189841,5,8,0:0:0:0:
466,227,190100,5,4,0:0:0:0:
311,230,190186,5,2,0:0:0:0:
466,227,190358,5,4,0:0:0:0:
311,230,190358,5,2,0:0:0:0:
311,230,190445,5,2,0:0:0:0:
466,227,190531,5,4,0:0:0:0:
311,230,190531,5,2,0:0:0:0:
466,227,190790,5,4,0:0:0:0:
466,227,191048,5,4,0:0:0:0:
388,227,191221,5,12,0:0:0:0:
466,227,191566,5,4,0:0:0:0:
466,227,191824,5,4,0:0:0:0:
466,227,192083,5,4,0:0:0:0:
311,230,192083,5,2,0:0:0:0:
311,230,192169,5,2,0:0:0:0:
311,230,192255,5,2,0:0:0:0:
311,230,192341,5,2,0:0:0:0:
466,227,192342,5,4,0:0:0:0:
311,230,192427,5,2,0:0:0:0:
388,227,192600,5,8,0:0:0:0:
466,227,192600,5,4,0:0:0:0:
311,230,192600,5,2,0:0:0:0:
311,230,192686,5,2,0:0:0:0:
311,230,192772,5,2,0:0:0:0:
311,230,192858,5,2,0:0:0:0:
466,227,192859,5,4,0:0:0:0:
311,230,192945,5,2,0:0:0:0:
311,230,193031,5,2,0:0:0:0:
466,227,193117,5,4,0:0:0:0:
311,230,193117,5,2,0:0:0:0:
466,227,193289,5,4,0:0:0:0:
311,230,193289,5,2,0:0:0:0:
466,227,193548,5,4,0:0:0:0:
466,227,193806,5,4,0:0:0:0:
311,230,193807,5,2,0:0:0:0:
388,227,193979,5,8,0:0:0:0:
466,227,194065,5,4,0:0:0:0:
311,230,194152,5,2,0:0:0:0:
466,227,194324,5,4,0:0:0:0:
311,230,194324,5,2,0:0:0:0:
466,227,194582,5,4,0:0:0:0:
466,227,194841,5,4,0:0:0:0:
466,227,195100,5,4,0:0:0:0:
388,227,195358,5,8,0:0:0:0:
466,227,195358,5,4,0:0:0:0:
466,227,195617,5,4,0:0:0:0:
311,230,195703,5,2,0:0:0:0:
311,230,195789,5,2,0:0:0:0:
466,227,195875,5,4,0:0:0:0:
311,230,195876,5,2,0:0:0:0:
311,230,195962,5,2,0:0:0:0:
466,227,196048,5,4,0:0:0:0:
311,230,196048,5,2,0:0:0:0:
466,227,196307,5,4,0:0:0:0:
466,227,196565,5,4,0:0:0:0:
466,227,196823,5,4,0:0:0:0:
466,227,197083,5,4,0:0:0:0:
466,227,197341,5,4,0:0:0:0:
311,230,197427,5,2,0:0:0:0:
311,230,197513,5,2,0:0:0:0:
466,227,197600,5,4,0:0:0:0:
311,230,197600,5,2,0:0:0:0:
311,230,197686,5,2,0:0:0:0:
311,230,197772,5,2,0:0:0:0:
311,230,197858,5,2,0:0:0:0:
466,227,197859,5,4,0:0:0:0:
311,230,197945,5,2,0:0:0:0:
466,227,198117,5,4,0:0:0:0:
388,227,198117,5,8,0:0:0:0:
466,227,198376,5,4,0:0:0:0:
466,227,198634,5,4,0:0:0:0:
13,154,198806,5,2,1:0:0:0:
13,85,198806,5,2,3:0:0:0:
13,85,198892,5,2,3:0:0:0:
13,85,199065,5,2,3:0:0:0:
13,85,199151,5,2,3:0:0:0:
220,13,199323,5,4,0:0:0:0:
13,85,199496,5,2,3:0:0:0:
220,13,199582,5,4,0:0:0:0:
13,85,199668,5,2,3:0:0:0:
13,85,199754,5,2,3:0:0:0:
220,13,199840,5,4,0:0:0:0:
13,85,199927,5,2,3:0:0:0:
13,85,200013,5,2,3:0:0:0:
220,13,200099,5,4,0:0:0:0:
13,85,200099,5,2,3:0:0:0:
120,18,200186,5,8,2:0:0:0:
13,85,200271,5,2,3:0:0:0:
220,13,200358,5,4,0:0:0:0:
13,85,200444,5,2,3:0:0:0:
13,85,200530,5,2,3:0:0:0:
120,18,200531,5,8,2:0:0:0:
220,13,200616,5,4,0:0:0:0:
13,85,200703,5,2,3:0:0:0:
120,18,200789,5,8,2:0:0:0:
13,85,200875,5,2,3:0:0:0:
120,18,200875,5,8,2:0:0:0:
220,13,200875,5,4,0:0:0:0:
120,18,200962,5,8,2:0:0:0:
13,85,201047,5,2,3:0:0:0:
220,13,201134,5,4,0:0:0:0:
120,18,201134,5,8,2:0:0:0:
13,85,201134,5,2,3:0:0:0:
120,18,201220,5,8,2:0:0:0:
13,85,201306,5,2,3:0:0:0:
13,85,201392,5,2,3:0:0:0:
120,18,201393,5,8,2:0:0:0:
220,13,201393,5,4,0:0:0:0:
13,85,201478,5,2,3:0:0:0:
13,85,201565,5,2,3:0:0:0:
220,13,201565,5,4,0:0:0:0:
13,85,201651,5,2,3:0:0:0:
13,85,201824,5,2,3:0:0:0:
220,13,201824,5,4,0:0:0:0:
120,18,201910,5,8,2:0:0:0:
13,85,201910,5,2,3:0:0:0:
220,13,202082,5,4,0:0:0:0:
120,18,202255,5,8,2:0:0:0:
13,85,202255,5,2,3:0:0:0:
220,13,202341,5,4,0:0:0:0:
13,85,202427,5,2,3:0:0:0:
13,85,202513,5,2,3:0:0:0:
220,13,202599,5,4,0:0:0:0:
13,85,202686,5,2,3:0:0:0:
120,18,202772,5,8,2:0:0:0:
13,85,202858,5,2,3:0:0:0:
120,18,202858,5,8,2:0:0:0:
220,13,202858,5,4,0:0:0:0:
120,18,202944,5,8,2:0:0:0:
13,85,203030,5,2,3:0:0:0:
220,13,203117,5,4,0:0:0:0:
13,85,203203,5,2,3:0:0:0:
120,18,203289,5,8,2:0:0:0:
13,85,203289,5,2,3:0:0:0:
220,13,203375,5,4,0:0:0:0:
13,85,203462,5,2,3:0:0:0:
120,18,203548,5,8,2:0:0:0:
220,13,203634,5,4,0:0:0:0:
120,18,203634,5,8,2:0:0:0:
13,85,203634,5,2,3:0:0:0:
120,18,203720,5,8,2:0:0:0:
120,18,203806,5,8,2:0:0:0:
13,85,203806,5,2,3:0:0:0:
220,13,203892,5,4,0:0:0:0:
13,85,203893,5,2,3:0:0:0:
120,18,203979,5,8,2:0:0:0:
13,85,204065,5,2,3:0:0:0:
220,13,204151,5,4,0:0:0:0:
120,18,204151,5,8,2:0:0:0:
13,85,204151,5,2,3:0:0:0:
13,85,204237,5,2,3:0:0:0:
13,85,204323,5,2,3:0:0:0:
220,13,204324,5,4,0:0:0:0:
13,85,204324,5,2,3:0:0:0:
13,85,204410,5,2,3:0:0:0:
120,18,204496,5,8,2:0:0:0:
13,85,204583,5,2,3:0:0:0:
220,13,204583,5,4,0:0:0:0:
120,18,204668,5,8,2:0:0:0:
13,85,204669,5,2,3:0:0:0:
220,13,204841,5,4,0:0:0:0:
120,18,204927,5,8,2:0:0:0:
120,18,205013,5,8,2:0:0:0:
13,85,205014,5,2,3:0:0:0:
220,13,205100,5,4,0:0:0:0:
13,85,205186,5,2,3:0:0:0:
13,85,205272,5,2,3:0:0:0:
220,13,205358,5,4,0:0:0:0:
13,85,205445,5,2,3:0:0:0:
120,18,205531,5,8,2:0:0:0:
13,85,205531,5,2,3:0:0:0:
13,85,205617,5,2,3:0:0:0:
220,13,205617,5,4,0:0:0:0:
120,18,205703,5,8,2:0:0:0:
13,85,205789,5,2,3:0:0:0:
220,13,205876,5,4,0:0:0:0:
13,85,205962,5,2,3:0:0:0:
13,85,206048,5,2,3:0:0:0:
120,18,206048,5,8,2:0:0:0:
220,13,206134,5,4,0:0:0:0:
13,85,206221,5,2,3:0:0:0:
120,18,206306,5,8,2:0:0:0:
220,13,206393,5,4,0:0:0:0:
13,85,206393,5,2,3:0:0:0:
120,18,206479,5,8,2:0:0:0:
13,85,206565,5,2,3:0:0:0:
220,13,206651,5,4,0:0:0:0:
120,18,206651,5,8,2:0:0:0:
13,85,206652,5,2,3:0:0:0:
120,18,206737,5,8,2:0:0:0:
13,85,206824,5,2,3:0:0:0:
220,13,206910,5,4,0:0:0:0:
13,85,206910,5,2,3:0:0:0:
13,85,206996,5,2,3:0:0:0:
220,13,207082,5,4,0:0:0:0:
13,85,207083,5,2,3:0:0:0:
13,85,207169,5,2,3:0:0:0:
120,18,207255,5,8,2:0:0:0:
220,13,207341,5,4,0:0:0:0:
13,85,207342,5,2,3:0:0:0:
120,18,207427,5,8,2:0:0:0:
13,85,207428,5,2,3:0:0:0:
220,13,207599,5,4,0:0:0:0:
120,18,207686,5,8,2:0:0:0:
120,18,207772,5,8,2:0:0:0:
13,85,207773,5,2,3:0:0:0:
120,18,207858,5,8,2:0:0:0:
220,13,207858,5,4,0:0:0:0:
120,18,207944,5,8,2:0:0:0:
13,85,207945,5,2,3:0:0:0:
13,85,208031,5,2,3:0:0:0:
220,13,208116,5,4,0:0:0:0:
13,85,208204,5,2,3:0:0:0:
120,18,208289,5,8,2:0:0:0:
220,13,208375,5,4,0:0:0:0:
13,85,208376,5,2,3:0:0:0:
120,18,208462,5,8,2:0:0:0:
13,85,208548,5,2,3:0:0:0:
220,13,208634,5,4,0:0:0:0:
13,85,208721,5,2,3:0:0:0:
120,18,208806,5,8,2:0:0:0:
13,85,208807,5,2,3:0:0:0:
220,13,208892,5,4,0:0:0:0:
13,85,208980,5,2,3:0:0:0:
120,18,209065,5,8,2:0:0:0:
220,13,209151,5,4,0:0:0:0:
13,85,209152,5,2,3:0:0:0:
120,18,209237,5,8,2:0:0:0:
13,85,209324,5,2,3:0:0:0:
120,18,209410,5,8,2:0:0:0:
220,13,209410,5,4,0:0:0:0:
13,85,209411,5,2,3:0:0:0:
120,18,209496,5,8,2:0:0:0:
13,85,209583,5,2,3:0:0:0:
220,13,209668,5,4,0:0:0:0:
13,85,209669,5,2,3:0:0:0:
13,85,209755,5,2,3:0:0:0:
220,13,209841,5,4,0:0:0:0:
13,154,209841,5,2,1:0:0:0:
13,85,210100,5,2,3:0:0:0:
220,13,210100,5,4,0:0:0:0:
13,85,210186,5,2,3:0:0:0:
13,154,210186,5,2,1:0:0:0:
220,13,210358,5,4,0:0:0:0:
13,85,210358,5,2,3:0:0:0:
13,85,210531,5,2,3:0:0:0:
13,154,210531,5,2,1:0:0:0:
220,13,210617,5,4,0:0:0:0:
13,85,210703,5,2,3:0:0:0:
13,85,210789,5,2,3:0:0:0:
220,13,210875,5,4,0:0:0:0:
13,154,210875,5,2,1:0:0:0:
13,85,210962,5,2,3:0:0:0:
220,13,211134,5,4,0:0:0:0:
13,85,211134,5,2,3:0:0:0:
13,85,211220,5,2,3:0:0:0:
13,154,211220,5,2,1:0:0:0:
13,85,211306,5,2,3:0:0:0:
220,13,211393,5,4,0:0:0:0:
13,85,211479,5,2,3:0:0:0:
13,154,211565,5,2,1:0:0:0:
13,85,211565,5,2,3:0:0:0:
220,13,211651,5,4,0:0:0:0:
13,85,211737,5,2,3:0:0:0:
13,85,211910,5,2,3:0:0:0:
220,13,211910,5,4,0:0:0:0:
13,154,211910,5,2,1:0:0:0:
13,85,212082,5,2,3:0:0:0:
220,13,212168,5,4,0:0:0:0:
13,154,212255,5,2,1:0:0:0:
13,85,212341,5,2,3:0:0:0:
220,13,212427,5,4,0:0:0:0:
13,85,212513,5,2,3:0:0:0:
13,85,212600,5,2,3:0:0:0:
220,13,212600,5,4,0:0:0:0:
13,154,212600,5,2,1:0:0:0:
13,85,212686,5,2,3:0:0:0:
220,13,212858,5,4,0:0:0:0:
13,85,212858,5,2,3:0:0:0:
13,154,212944,5,2,1:0:0:0:
13,85,212944,5,2,3:0:0:0:
220,13,213117,5,4,0:0:0:0:
13,154,213289,5,2,1:0:0:0:
13,85,213289,5,2,3:0:0:0:
220,13,213376,5,4,0:0:0:0:
13,85,213462,5,2,3:0:0:0:
13,85,213548,5,2,3:0:0:0:
220,13,213634,5,4,0:0:0:0:
13,154,213634,5,2,1:0:0:0:
13,85,213720,5,2,3:0:0:0:
220,13,213893,5,4,0:0:0:0:
13,154,213979,5,2,1:0:0:0:
13,85,214065,5,2,3:0:0:0:
220,13,214152,5,4,0:0:0:0:
13,85,214237,5,2,3:0:0:0:
13,154,214324,5,2,1:0:0:0:
13,85,214324,5,2,3:0:0:0:
220,13,214410,5,4,0:0:0:0:
13,85,214496,5,2,3:0:0:0:
13,154,214668,5,2,1:0:0:0:
13,85,214668,5,2,3:0:0:0:
220,13,214669,5,4,0:0:0:0:
13,85,214841,5,2,3:0:0:0:
220,13,214927,5,4,0:0:0:0:
13,154,215013,5,2,1:0:0:0:
13,85,215100,5,2,3:0:0:0:
220,13,215186,5,4,0:0:0:0:
13,85,215272,5,2,3:0:0:0:
13,154,215358,5,2,1:0:0:0:
13,85,215444,5,2,3:0:0:0:
13,154,215531,5,2,1:0:0:0:
13,85,215617,5,2,3:0:0:0:
13,154,215703,5,2,1:0:0:0:
13,85,215703,5,2,3:0:0:0:
13,85,215875,5,2,3:0:0:0:
13,154,215875,5,2,1:0:0:0:
13,154,216048,5,2,1:0:0:0:
13,85,216048,5,2,3:0:0:0:
13,154,216091,5,2,1:0:0:0:
13,154,216134,5,2,1:0:0:0:
13,154,216177,5,2,1:0:0:0:
13,85,216220,5,2,3:0:0:0:
13,154,216220,5,2,1:0:0:0:
13,154,216263,5,2,1:0:0:0:
13,85,216306,5,2,3:0:0:0:
13,154,216306,5,2,1:0:0:0:
13,154,216350,5,2,1:0:0:0:
13,154,216393,5,2,1:0:0:0:
13,85,216479,5,2,3:0:0:0:
13,154,216565,5,2,1:0:0:0:
13,154,216608,5,2,1:0:0:0:
13,85,216651,5,2,3:0:0:0:
13,154,216651,5,2,1:0:0:0:
13,154,216694,5,2,1:0:0:0:
13,154,216737,5,2,1:0:0:0:
13,154,216781,5,2,1:0:0:0:
13,85,216824,5,2,3:0:0:0:
13,154,216824,5,2,1:0:0:0:
13,154,216867,5,2,1:0:0:0:
13,154,216910,5,2,1:0:0:0:
13,85,216996,5,2,3:0:0:0:
13,85,217082,5,2,3:0:0:0:
13,154,217082,5,2,1:0:0:0:
13,154,217168,5,2,1:0:0:0:
13,85,217255,5,2,3:0:0:0:
13,154,217255,5,2,1:0:0:0:
13,154,217341,5,2,1:0:0:0:
117,158,217427,5,8,1:0:0:0:
13,85,217600,5,2,3:0:0:0:
117,158,217600,5,8,1:0:0:0:
13,154,217772,5,2,1:0:0:0:
13,85,217858,5,2,3:0:0:0:
13,154,217944,5,2,1:0:0:0:
13,85,217944,5,2,3:0:0:0:
13,85,218031,5,2,3:0:0:0:
117,158,218117,5,8,1:0:0:0:
13,154,218289,5,2,1:0:0:0:
13,154,218375,5,2,1:0:0:0:
13,85,218375,5,2,3:0:0:0:
117,158,218462,5,8,1:0:0:0:
13,85,218462,5,2,3:0:0:0:
13,154,218548,5,2,1:0:0:0:
13,154,218634,5,2,1:0:0:0:
13,85,218634,5,2,3:0:0:0:
117,158,218720,5,8,1:0:0:0:
13,85,218806,5,2,3:0:0:0:
13,154,218806,5,2,1:0:0:0:
13,154,218893,5,2,1:0:0:0:
117,158,218979,5,8,1:0:0:0:
13,154,219065,5,2,1:0:0:0:
13,85,219065,5,2,3:0:0:0:
13,154,219151,5,2,1:0:0:0:
117,158,219237,5,8,1:0:0:0:
13,85,219237,5,2,3:0:0:0:
13,154,219324,5,2,1:0:0:0:
13,85,219410,5,2,3:0:0:0:
13,154,219410,5,2,1:0:0:0:
117,236,219496,5,8,0:0:0:0:
204,233,219496,5,4,0:0:0:0:
117,236,220487,5,8,0:0:0:0:
117,236,220530,5,8,0:0:0:0:
117,236,220574,5,8,0:0:0:0:
117,236,220617,5,8,0:0:0:0:
117,236,220660,5,8,0:0:0:0:
117,236,220703,5,8,0:0:0:0:
117,236,220746,5,8,0:0:0:0:
117,236,220789,5,8,0:0:0:0:
221,88,220875,5,4,3:0:0:0:
220,13,220875,5,4,0:0:0:0:
16,13,220875,5,2,0:0:0:0:
13,154,220875,5,2,1:0:0:0:
16,13,221134,5,2,0:0:0:0:
220,13,221134,5,4,0:0:0:0:
117,158,221220,5,8,1:0:0:0:
16,13,221392,5,2,0:0:0:0:
220,13,221392,5,4,0:0:0:0:
120,18,221479,5,8,2:0:0:0:
120,18,221565,5,8,2:0:0:0:
220,13,221651,5,4,0:0:0:0:
16,13,221651,5,2,0:0:0:0:
13,154,221737,5,2,1:0:0:0:
117,158,221910,5,8,1:0:0:0:
220,13,221910,5,4,0:0:0:0:
120,18,222082,5,8,2:0:0:0:
220,13,222168,5,4,0:0:0:0:
13,154,222254,5,2,1:0:0:0:
120,18,222341,5,8,2:0:0:0:
220,13,222427,5,4,0:0:0:0:
16,13,222427,5,2,0:0:0:0:
16,13,222513,5,2,0:0:0:0:
117,158,222599,5,8,1:0:0:0:
16,13,222599,5,2,0:0:0:0:
220,13,222686,5,4,0:0:0:0:
16,13,222686,5,2,0:0:0:0:
16,13,222772,5,2,0:0:0:0:
16,13,222858,5,2,0:0:0:0:
220,13,222944,5,4,0:0:0:0:
16,13,222944,5,2,0:0:0:0:
16,13,223030,5,2,0:0:0:0:
16,13,223117,5,2,0:0:0:0:
13,154,223117,5,2,1:0:0:0:
220,13,223203,5,4,0:0:0:0:
117,158,223289,5,8,1:0:0:0:
220,13,223461,5,4,0:0:0:0:
16,13,223461,5,2,0:0:0:0:
16,13,223548,5,2,0:0:0:0:
16,13,223634,5,2,0:0:0:0:
220,13,223634,5,4,0:0:0:0:
13,154,223634,5,2,1:0:0:0:
221,88,223634,5,4,3:0:0:0:
220,13,223892,5,4,0:0:0:0:
16,13,223892,5,2,0:0:0:0:
117,158,223979,5,8,1:0:0:0:
220,13,224151,5,4,0:0:0:0:
16,13,224151,5,2,0:0:0:0:
120,18,224237,5,8,2:0:0:0:
120,18,224323,5,8,2:0:0:0:
16,13,224410,5,2,0:0:0:0:
220,13,224410,5,4,0:0:0:0:
13,154,224496,5,2,1:0:0:0:
117,158,224668,5,8,1:0:0:0:
220,13,224668,5,4,0:0:0:0:
16,13,224668,5,2,0:0:0:0:
120,18,224841,5,8,2:0:0:0:
220,13,224927,5,4,0:0:0:0:
16,13,224927,5,2,0:0:0:0:
120,18,225013,5,8,2:0:0:0:
13,154,225013,5,2,1:0:0:0:
120,18,225099,5,8,2:0:0:0:
220,13,225186,5,4,0:0:0:0:
16,13,225186,5,2,0:0:0:0:
120,18,225272,5,8,2:0:0:0:
16,13,225272,5,2,0:0:0:0:
120,18,225358,5,8,2:0:0:0:
16,13,225358,5,2,0:0:0:0:
117,158,225358,5,8,1:0:0:0:
220,13,225444,5,4,0:0:0:0:
120,18,225444,5,8,2:0:0:0:
16,13,225444,5,2,0:0:0:0:
16,13,225530,5,2,0:0:0:0:
16,13,225617,5,2,0:0:0:0:
220,13,225703,5,4,0:0:0:0:
16,13,225703,5,2,0:0:0:0:
16,13,225789,5,2,0:0:0:0:
16,13,225875,5,2,0:0:0:0:
13,154,225875,5,2,1:0:0:0:
220,13,225961,5,4,0:0:0:0:
120,18,225961,5,8,2:0:0:0:
16,13,225961,5,2,0:0:0:0:
120,18,226048,5,8,2:0:0:0:
16,13,226048,5,2,0:0:0:0:
117,158,226048,5,8,1:0:0:0:
16,13,226105,5,2,0:0:0:0:
16,13,226163,5,2,0:0:0:0:
220,13,226220,5,4,0:0:0:0:
16,13,226220,5,2,0:0:0:0:
16,13,226277,5,2,0:0:0:0:
16,13,226335,5,2,0:0:0:0:
16,13,226392,5,2,0:0:0:0:
220,13,226392,5,4,0:0:0:0:
13,154,226392,5,2,1:0:0:0:
221,88,226392,5,4,3:0:0:0:
220,13,226651,5,4,0:0:0:0:
16,13,226651,5,2,0:0:0:0:
117,158,226737,5,8,1:0:0:0:
220,13,226910,5,4,0:0:0:0:
16,13,226910,5,2,0:0:0:0:
120,18,226996,5,8,2:0:0:0:
120,18,227082,5,8,2:0:0:0:
220,13,227168,5,4,0:0:0:0:
16,13,227168,5,2,0:0:0:0:
13,154,227255,5,2,1:0:0:0:
220,13,227427,5,4,0:0:0:0:
117,158,227427,5,8,1:0:0:0:
120,18,227599,5,8,2:0:0:0:
220,13,227686,5,4,0:0:0:0:
13,154,227772,5,2,1:0:0:0:
120,18,227858,5,8,2:0:0:0:
220,13,227944,5,4,0:0:0:0:
16,13,227944,5,2,0:0:0:0:
16,13,228030,5,2,0:0:0:0:
117,158,228117,5,8,1:0:0:0:
16,13,228117,5,2,0:0:0:0:
220,13,228203,5,4,0:0:0:0:
16,13,228203,5,2,0:0:0:0:
16,13,228289,5,2,0:0:0:0:
16,13,228375,5,2,0:0:0:0:
220,13,228461,5,4,0:0:0:0:
16,13,228461,5,2,0:0:0:0:
16,13,228548,5,2,0:0:0:0:
13,154,228634,5,2,1:0:0:0:
16,13,228634,5,2,0:0:0:0:
220,13,228720,5,4,0:0:0:0:
16,13,228720,5,2,0:0:0:0:
16,13,228806,5,2,0:0:0:0:
117,158,228806,5,8,1:0:0:0:
16,13,228892,5,2,0:0:0:0:
16,13,228979,5,2,0:0:0:0:
220,13,228979,5,4,0:0:0:0:
16,13,229065,5,2,0:0:0:0:
13,154,229151,5,2,1:0:0:0:
16,13,229151,5,2,0:0:0:0:
220,13,229151,5,4,0:0:0:0:
221,88,229151,5,4,3:0:0:0:
220,13,229410,5,4,0:0:0:0:
16,13,229496,5,2,0:0:0:0:
117,158,229496,5,8,1:0:0:0:
16,13,229582,5,2,0:0:0:0:
16,13,229668,5,2,0:0:0:0:
220,13,229669,5,4,0:0:0:0:
120,18,229754,5,8,2:0:0:0:
120,18,229841,5,8,2:0:0:0:
220,13,229927,5,4,0:0:0:0:
13,154,230013,5,2,1:0:0:0:
16,13,230013,5,2,0:0:0:0:
16,13,230099,5,2,0:0:0:0:
16,13,230186,5,2,0:0:0:0:
117,158,230186,5,8,1:0:0:0:
220,13,230186,5,4,0:0:0:0:
16,13,230243,5,2,0:0:0:0:
16,13,230300,5,2,0:0:0:0:
16,13,230358,5,2,0:0:0:0:
16,13,230415,5,2,0:0:0:0:
220,13,230445,5,4,0:0:0:0:
16,13,230473,5,2,0:0:0:0:
13,154,230530,5,2,1:0:0:0:
16,13,230530,5,2,0:0:0:0:
16,13,230617,5,2,0:0:0:0:
16,13,230703,5,2,0:0:0:0:
220,13,230703,5,4,0:0:0:0:
16,13,230789,5,2,0:0:0:0:
117,158,230875,5,8,1:0:0:0:
16,13,230875,5,2,0:0:0:0:
16,13,230961,5,2,0:0:0:0:
220,13,230962,5,4,0:0:0:0:
16,13,231048,5,2,0:0:0:0:
16,13,231134,5,2,0:0:0:0:
16,13,231220,5,2,0:0:0:0:
220,13,231220,5,4,0:0:0:0:
16,13,231277,5,2,0:0:0:0:
16,13,231335,5,2,0:0:0:0:
16,13,231392,5,2,0:0:0:0:
13,154,231393,5,2,1:0:0:0:
16,13,231450,5,2,0:0:0:0:
220,13,231479,5,4,0:0:0:0:
16,13,231507,5,2,0:0:0:0:
16,13,231565,5,2,0:0:0:0:
117,158,231565,5,8,1:0:0:0:
16,13,231622,5,2,0:0:0:0:
16,13,231680,5,2,0:0:0:0:
16,13,231737,5,2,0:0:0:0:
220,13,231738,5,4,0:0:0:0:
16,13,231795,5,2,0:0:0:0:
16,13,231852,5,2,0:0:0:0:
16,13,231910,5,2,0:0:0:0:
13,154,231910,5,2,1:0:0:0:
220,13,231910,5,4,0:0:0:0:
221,88,231910,5,4,3:0:0:0:
220,13,232169,5,4,0:0:0:0:
117,158,232255,5,8,1:0:0:0:
220,13,232427,5,4,0:0:0:0:
120,18,232513,5,8,2:0:0:0:
120,18,232599,5,8,2:0:0:0:
220,13,232686,5,4,0:0:0:0:
13,154,232772,5,2,1:0:0:0:
16,13,232772,5,2,0:0:0:0:
16,13,232944,5,2,0:0:0:0:
117,158,232944,5,8,1:0:0:0:
220,13,232945,5,4,0:0:0:0:
16,13,233117,5,2,0:0:0:0:
220,13,233203,5,4,0:0:0:0:
13,154,233289,5,2,1:0:0:0:
120,18,233375,5,8,2:0:0:0:
16,13,233461,5,2,0:0:0:0:
220,13,233462,5,4,0:0:0:0:
16,13,233548,5,2,0:0:0:0:
117,158,233634,5,8,1:0:0:0:
16,13,233634,5,2,0:0:0:0:
16,13,233720,5,2,0:0:0:0:
220,13,233721,5,4,0:0:0:0:
16,13,233806,5,2,0:0:0:0:
120,18,233892,5,8,2:0:0:0:
220,13,233979,5,4,0:0:0:0:
16,13,234151,5,2,0:0:0:0:
13,154,234151,5,2,1:0:0:0:
16,13,234237,5,2,0:0:0:0:
220,13,234238,5,4,0:0:0:0:
16,13,234323,5,2,0:0:0:0:
117,158,234324,5,8,1:0:0:0:
16,13,234410,5,2,0:0:0:0:
16,13,234496,5,2,0:0:0:0:
220,13,234496,5,4,0:0:0:0:
16,13,234582,5,2,0:0:0:0:
16,13,234668,5,2,0:0:0:0:
13,154,234668,5,2,1:0:0:0:
221,88,234668,5,4,3:0:0:0:
220,13,234669,5,4,0:0:0:0:
120,18,234754,5,8,2:0:0:0:
16,13,234754,5,2,0:0:0:0:
16,13,234927,5,2,0:0:0:0:
220,13,234927,5,4,0:0:0:0:
117,158,235013,5,8,1:0:0:0:
16,13,235013,5,2,0:0:0:0:
16,13,235099,5,2,0:0:0:0:
16,13,235186,5,2,0:0:0:0:
220,13,235186,5,4,0:0:0:0:
16,13,235272,5,2,0:0:0:0:
16,13,235358,5,2,0:0:0:0:
16,13,235415,5,2,0:0:0:0:
220,13,235445,5,4,0:0:0:0:
16,13,235473,5,2,0:0:0:0:
16,13,235530,5,2,0:0:0:0:
13,154,235531,5,2,1:0:0:0:
16,13,235588,5,2,0:0:0:0:
16,13,235645,5,2,0:0:0:0:
16,13,235703,5,2,0:0:0:0:
117,158,235703,5,8,1:0:0:0:
220,13,235703,5,4,0:0:0:0:
16,13,235760,5,2,0:0:0:0:
16,13,235818,5,2,0:0:0:0:
16,13,235875,5,2,0:0:0:0:
16,13,235933,5,2,0:0:0:0:
220,13,235962,5,4,0:0:0:0:
16,13,235990,5,2,0:0:0:0:
13,154,236048,5,2,1:0:0:0:
16,13,236048,5,2,0:0:0:0:
16,13,236134,5,2,0:0:0:0:
16,13,236220,5,2,0:0:0:0:
220,13,236221,5,4,0:0:0:0:
16,13,236306,5,2,0:0:0:0:
16,13,236392,5,2,0:0:0:0:
117,158,236393,5,8,1:0:0:0:
16,13,236479,5,2,0:0:0:0:
220,13,236479,5,4,0:0:0:0:
16,13,236565,5,2,0:0:0:0:
16,13,236651,5,2,0:0:0:0:
16,13,236737,5,2,0:0:0:0:
220,13,236738,5,4,0:0:0:0:
16,13,236823,5,2,0:0:0:0:
16,13,236910,5,2,0:0:0:0:
13,154,236910,5,2,1:0:0:0:
16,13,236996,5,2,0:0:0:0:
220,13,236996,5,4,0:0:0:0:
16,13,237082,5,2,0:0:0:0:
117,158,237082,5,8,1:0:0:0:
16,13,237140,5,2,0:0:0:0:
16,13,237197,5,2,0:0:0:0:
16,13,237254,5,2,0:0:0:0:
220,13,237255,5,4,0:0:0:0:
16,13,237312,5,2,0:0:0:0:
16,13,237369,5,2,0:0:0:0:
13,154,237427,5,2,1:0:0:0:
16,13,237427,5,2,0:0:0:0:
220,13,237427,5,4,0:0:0:0:
221,88,237427,5,4,3:0:0:0:
220,13,237686,5,4,0:0:0:0:
117,158,237772,5,8,1:0:0:0:
16,13,237772,5,2,0:0:0:0:
16,13,237858,5,2,0:0:0:0:
220,13,237944,5,4,0:0:0:0:
16,13,238030,5,2,0:0:0:0:
16,13,238117,5,2,0:0:0:0:
220,13,238203,5,4,0:0:0:0:
13,154,238289,5,2,1:0:0:0:
16,13,238289,5,2,0:0:0:0:
16,13,238375,5,2,0:0:0:0:
16,13,238461,5,2,0:0:0:0:
220,13,238462,5,4,0:0:0:0:
16,13,238548,5,2,0:0:0:0:
16,13,238634,5,2,0:0:0:0:
220,13,238720,5,4,0:0:0:0:
13,154,238806,5,2,1:0:0:0:
120,18,238892,5,8,2:0:0:0:
220,13,238979,5,4,0:0:0:0:
16,13,239065,5,2,0:0:0:0:
16,13,239151,5,2,0:0:0:0:
117,158,239151,5,8,1:0:0:0:
16,13,239237,5,2,0:0:0:0:
220,13,239238,5,4,0:0:0:0:
16,13,239323,5,2,0:0:0:0:
16,13,239410,5,2,0:0:0:0:
220,13,239496,5,4,0:0:0:0:
13,154,239668,5,2,1:0:0:0:
16,13,239668,5,2,0:0:0:0:
16,13,239754,5,2,0:0:0:0:
220,13,239755,5,4,0:0:0:0:
117,158,239840,5,8,1:0:0:0:
16,13,239841,5,2,0:0:0:0:
16,13,239927,5,2,0:0:0:0:
16,13,240013,5,2,0:0:0:0:
220,13,240013,5,4,0:0:0:0:
16,13,240099,5,2,0:0:0:0:
13,154,240185,5,2,1:0:0:0:
16,13,240186,5,2,0:0:0:0:
220,13,240186,5,4,0:0:0:0:
221,88,240186,5,4,3:0:0:0:
16,13,240358,5,2,0:0:0:0:
16,13,240444,5,2,0:0:0:0:
220,13,240444,5,4,0:0:0:0:
16,13,240530,5,2,0:0:0:0:
117,158,240530,5,8,1:0:0:0:
16,13,240617,5,2,0:0:0:0:
16,13,240703,5,2,0:0:0:0:
220,13,240703,5,4,0:0:0:0:
16,13,240789,5,2,0:0:0:0:
16,13,240875,5,2,0:0:0:0:
16,13,240961,5,2,0:0:0:0:
220,13,240962,5,4,0:0:0:0:
13,154,241047,5,2,1:0:0:0:
16,13,241048,5,2,0:0:0:0:
117,158,241220,5,8,1:0:0:0:
16,13,241220,5,2,0:0:0:0:
220,13,241220,5,4,0:0:0:0:
16,13,241392,5,2,0:0:0:0:
220,13,241479,5,4,0:0:0:0:
13,154,241564,5,2,1:0:0:0:
16,13,241565,5,2,0:0:0:0:
120,18,241565,5,8,2:0:0:0:
120,18,241651,5,8,2:0:0:0:
16,13,241737,5,2,0:0:0:0:
220,13,241738,5,4,0:0:0:0:
120,18,241823,5,8,2:0:0:0:
16,13,241823,5,2,0:0:0:0:
120,18,241910,5,8,2:0:0:0:
16,13,241910,5,2,0:0:0:0:
117,158,241910,5,8,1:0:0:0:
16,13,241996,5,2,0:0:0:0:
220,13,241996,5,4,0:0:0:0:
16,13,242082,5,2,0:0:0:0:
16,13,242168,5,2,0:0:0:0:
16,13,242254,5,2,0:0:0:0:
220,13,242255,5,4,0:0:0:0:
16,13,242341,5,2,0:0:0:0:
13,154,242427,5,2,1:0:0:0:
16,13,242513,5,2,0:0:0:0:
220,13,242513,5,4,0:0:0:0:
116,236,242599,5,8,0:0:0:0:
117,158,242600,5,8,1:0:0:0:
116,236,242642,5,8,0:0:0:0:
116,236,242685,5,8,0:0:0:0:
116,236,242728,5,8,0:0:0:0:
116,236,242771,5,8,0:0:0:0:
116,236,242814,5,8,0:0:0:0:
116,236,242857,5,8,0:0:0:0:
116,236,242900,5,8,0:0:0:0:
221,88,242944,5,4,3:0:0:0:
220,13,242944,5,4,0:0:0:0:
16,13,242944,5,2,0:0:0:0:
13,154,242944,5,2,1:0:0:0:
220,13,243203,5,4,0:0:0:0:
16,13,243203,5,2,0:0:0:0:
117,158,243289,5,8,1:0:0:0:
220,13,243461,5,4,0:0:0:0:
16,13,243461,5,2,0:0:0:0:
120,18,243548,5,8,2:0:0:0:
120,18,243634,5,8,2:0:0:0:
220,13,243720,5,4,0:0:0:0:
16,13,243720,5,2,0:0:0:0:
13,154,243806,5,2,1:0:0:0:
117,158,243979,5,8,1:0:0:0:
220,13,243979,5,4,0:0:0:0:
120,18,244151,5,8,2:0:0:0:
220,13,244237,5,4,0:0:0:0:
13,154,244323,5,2,1:0:0:0:
120,18,244410,5,8,2:0:0:0:
220,13,244496,5,4,0:0:0:0:
16,13,244496,5,2,0:0:0:0:
16,13,244582,5,2,0:0:0:0:
117,158,244668,5,8,1:0:0:0:
16,13,244668,5,2,0:0:0:0:
220,13,244755,5,4,0:0:0:0:
16,13,244755,5,2,0:0:0:0:
16,13,244841,5,2,0:0:0:0:
16,13,244927,5,2,0:0:0:0:
16,13,245013,5,2,0:0:0:0:
220,13,245013,5,4,0:0:0:0:
16,13,245099,5,2,0:0:0:0:
16,13,245186,5,2,0:0:0:0:
13,154,245186,5,2,1:0:0:0:
220,13,245272,5,4,0:0:0:0:
117,158,245358,5,8,1:0:0:0:
16,13,245530,5,2,0:0:0:0:
220,13,245530,5,4,0:0:0:0:
16,13,245617,5,2,0:0:0:0:
13,154,245703,5,2,1:0:0:0:
221,88,245703,5,4,3:0:0:0:
16,13,245703,5,2,0:0:0:0:
220,13,245703,5,4,0:0:0:0:
220,13,245961,5,4,0:0:0:0:
16,13,245961,5,2,0:0:0:0:
117,158,246048,5,8,1:0:0:0:
220,13,246220,5,4,0:0:0:0:
16,13,246220,5,2,0:0:0:0:
120,18,246306,5,8,2:0:0:0:
120,18,246392,5,8,2:0:0:0:
16,13,246479,5,2,0:0:0:0:
220,13,246479,5,4,0:0:0:0:
13,154,246565,5,2,1:0:0:0:
16,13,246737,5,2,0:0:0:0:
220,13,246737,5,4,0:0:0:0:
117,158,246737,5,8,1:0:0:0:
120,18,246910,5,8,2:0:0:0:
220,13,246996,5,4,0:0:0:0:
16,13,246996,5,2,0:0:0:0:
120,18,247082,5,8,2:0:0:0:
13,154,247082,5,2,1:0:0:0:
120,18,247168,5,8,2:0:0:0:
220,13,247255,5,4,0:0:0:0:
16,13,247255,5,2,0:0:0:0:
120,18,247341,5,8,2:0:0:0:
16,13,247341,5,2,0:0:0:0:
120,18,247427,5,8,2:0:0:0:
16,13,247427,5,2,0:0:0:0:
117,158,247427,5,8,1:0:0:0:
220,13,247513,5,4,0:0:0:0:
120,18,247513,5,8,2:0:0:0:
16,13,247513,5,2,0:0:0:0:
16,13,247599,5,2,0:0:0:0:
16,13,247686,5,2,0:0:0:0:
220,13,247772,5,4,0:0:0:0:
16,13,247772,5,2,0:0:0:0:
16,13,247858,5,2,0:0:0:0:
16,13,247944,5,2,0:0:0:0:
13,154,247944,5,2,1:0:0:0:
16,13,248030,5,2,0:0:0:0:
120,18,248030,5,8,2:0:0:0:
220,13,248030,5,4,0:0:0:0:
120,18,248117,5,8,2:0:0:0:
16,13,248117,5,2,0:0:0:0:
117,158,248117,5,8,1:0:0:0:
16,13,248174,5,2,0:0:0:0:
16,13,248232,5,2,0:0:0:0:
220,13,248289,5,4,0:0:0:0:
16,13,248289,5,2,0:0:0:0:
16,13,248346,5,2,0:0:0:0:
16,13,248404,5,2,0:0:0:0:
13,154,248461,5,2,1:0:0:0:
221,88,248461,5,4,3:0:0:0:
16,13,248461,5,2,0:0:0:0:
220,13,248461,5,4,0:0:0:0:
220,13,248720,5,4,0:0:0:0:
16,13,248720,5,2,0:0:0:0:
117,158,248806,5,8,1:0:0:0:
16,13,248979,5,2,0:0:0:0:
220,13,248979,5,4,0:0:0:0:
120,18,249065,5,8,2:0:0:0:
120,18,249151,5,8,2:0:0:0:
16,13,249237,5,2,0:0:0:0:
220,13,249237,5,4,0:0:0:0:
13,154,249324,5,2,1:0:0:0:
117,158,249496,5,8,1:0:0:0:
220,13,249496,5,4,0:0:0:0:
120,18,249668,5,8,2:0:0:0:
220,13,249755,5,4,0:0:0:0:
13,154,249841,5,2,1:0:0:0:
120,18,249927,5,8,2:0:0:0:
16,13,250013,5,2,0:0:0:0:
220,13,250013,5,4,0:0:0:0:
16,13,250099,5,2,0:0:0:0:
117,158,250186,5,8,1:0:0:0:
16,13,250186,5,2,0:0:0:0:
16,13,250272,5,2,0:0:0:0:
220,13,250272,5,4,0:0:0:0:
16,13,250358,5,2,0:0:0:0:
16,13,250444,5,2,0:0:0:0:
16,13,250530,5,2,0:0:0:0:
220,13,250530,5,4,0:0:0:0:
16,13,250617,5,2,0:0:0:0:
16,13,250703,5,2,0:0:0:0:
13,154,250703,5,2,1:0:0:0:
16,13,250789,5,2,0:0:0:0:
220,13,250789,5,4,0:0:0:0:
117,158,250875,5,8,1:0:0:0:
16,13,250875,5,2,0:0:0:0:
16,13,250961,5,2,0:0:0:0:
16,13,251048,5,2,0:0:0:0:
220,13,251048,5,4,0:0:0:0:
16,13,251134,5,2,0:0:0:0:
220,13,251220,5,4,0:0:0:0:
221,88,251220,5,4,3:0:0:0:
13,154,251220,5,2,1:0:0:0:
16,13,251220,5,2,0:0:0:0:
220,13,251479,5,4,0:0:0:0:
117,158,251565,5,8,1:0:0:0:
16,13,251565,5,2,0:0:0:0:
16,13,251651,5,2,0:0:0:0:
16,13,251737,5,2,0:0:0:0:
220,13,251738,5,4,0:0:0:0:
120,18,251823,5,8,2:0:0:0:
120,18,251910,5,8,2:0:0:0:
220,13,251996,5,4,0:0:0:0:
16,13,252082,5,2,0:0:0:0:
13,154,252082,5,2,1:0:0:0:
16,13,252168,5,2,0:0:0:0:
220,13,252255,5,4,0:0:0:0:
117,158,252255,5,8,1:0:0:0:
16,13,252255,5,2,0:0:0:0:
16,13,252312,5,2,0:0:0:0:
16,13,252369,5,2,0:0:0:0:
16,13,252427,5,2,0:0:0:0:
16,13,252484,5,2,0:0:0:0:
220,13,252514,5,4,0:0:0:0:
16,13,252542,5,2,0:0:0:0:
13,154,252599,5,2,1:0:0:0:
16,13,252599,5,2,0:0:0:0:
16,13,252686,5,2,0:0:0:0:
220,13,252772,5,4,0:0:0:0:
16,13,252772,5,2,0:0:0:0:
16,13,252858,5,2,0:0:0:0:
117,158,252944,5,8,1:0:0:0:
16,13,252944,5,2,0:0:0:0:
16,13,253030,5,2,0:0:0:0:
220,13,253031,5,4,0:0:0:0:
16,13,253117,5,2,0:0:0:0:
16,13,253203,5,2,0:0:0:0:
16,13,253289,5,2,0:0:0:0:
220,13,253289,5,4,0:0:0:0:
16,13,253346,5,2,0:0:0:0:
16,13,253404,5,2,0:0:0:0:
16,13,253461,5,2,0:0:0:0:
13,154,253462,5,2,1:0:0:0:
16,13,253519,5,2,0:0:0:0:
220,13,253548,5,4,0:0:0:0:
16,13,253576,5,2,0:0:0:0:
117,158,253634,5,8,1:0:0:0:
16,13,253634,5,2,0:0:0:0:
16,13,253691,5,2,0:0:0:0:
16,13,253749,5,2,0:0:0:0:
16,13,253806,5,2,0:0:0:0:
220,13,253807,5,4,0:0:0:0:
16,13,253864,5,2,0:0:0:0:
16,13,253921,5,2,0:0:0:0:
16,13,253979,5,2,0:0:0:0:
13,154,253979,5,2,1:0:0:0:
220,13,253979,5,4,0:0:0:0:
221,88,253979,5,4,3:0:0:0:
220,13,254238,5,4,0:0:0:0:
117,158,254324,5,8,1:0:0:0:
220,13,254496,5,4,0:0:0:0:
120,18,254582,5,8,2:0:0:0:
120,18,254668,5,8,2:0:0:0:
220,13,254755,5,4,0:0:0:0:
16,13,254841,5,2,0:0:0:0:
13,154,254841,5,2,1:0:0:0:
16,13,255013,5,2,0:0:0:0:
117,158,255013,5,8,1:0:0:0:
220,13,255014,5,4,0:0:0:0:
16,13,255186,5,2,0:0:0:0:
220,13,255272,5,4,0:0:0:0:
13,154,255358,5,2,1:0:0:0:
120,18,255444,5,8,2:0:0:0:
16,13,255530,5,2,0:0:0:0:
220,13,255531,5,4,0:0:0:0:
16,13,255617,5,2,0:0:0:0:
117,158,255703,5,8,1:0:0:0:
16,13,255703,5,2,0:0:0:0:
16,13,255789,5,2,0:0:0:0:
220,13,255790,5,4,0:0:0:0:
16,13,255875,5,2,0:0:0:0:
120,18,255961,5,8,2:0:0:0:
220,13,256048,5,4,0:0:0:0:
13,154,256220,5,2,1:0:0:0:
16,13,256220,5,2,0:0:0:0:
16,13,256306,5,2,0:0:0:0:
220,13,256307,5,4,0:0:0:0:
16,13,256392,5,2,0:0:0:0:
117,158,256393,5,8,1:0:0:0:
16,13,256479,5,2,0:0:0:0:
220,13,256565,5,4,0:0:0:0:
16,13,256565,5,2,0:0:0:0:
16,13,256651,5,2,0:0:0:0:
16,13,256737,5,2,0:0:0:0:
13,154,256737,5,2,1:0:0:0:
221,88,256737,5,4,3:0:0:0:
220,13,256738,5,4,0:0:0:0:
120,18,256823,5,8,2:0:0:0:
16,13,256823,5,2,0:0:0:0:
16,13,256996,5,2,0:0:0:0:
220,13,256996,5,4,0:0:0:0:
16,13,257082,5,2,0:0:0:0:
117,158,257082,5,8,1:0:0:0:
16,13,257168,5,2,0:0:0:0:
220,13,257255,5,4,0:0:0:0:
16,13,257255,5,2,0:0:0:0:
16,13,257341,5,2,0:0:0:0:
16,13,257427,5,2,0:0:0:0:
16,13,257484,5,2,0:0:0:0:
220,13,257514,5,4,0:0:0:0:
16,13,257542,5,2,0:0:0:0:
16,13,257599,5,2,0:0:0:0:
13,154,257600,5,2,1:0:0:0:
16,13,257657,5,2,0:0:0:0:
16,13,257714,5,2,0:0:0:0:
220,13,257772,5,4,0:0:0:0:
117,158,257772,5,8,1:0:0:0:
16,13,257772,5,2,0:0:0:0:
16,13,257829,5,2,0:0:0:0:
16,13,257887,5,2,0:0:0:0:
16,13,257944,5,2,0:0:0:0:
16,13,258002,5,2,0:0:0:0:
220,13,258031,5,4,0:0:0:0:
16,13,258059,5,2,0:0:0:0:
13,154,258117,5,2,1:0:0:0:
16,13,258117,5,2,0:0:0:0:
16,13,258203,5,2,0:0:0:0:
16,13,258289,5,2,0:0:0:0:
220,13,258290,5,4,0:0:0:0:
16,13,258375,5,2,0:0:0:0:
16,13,258461,5,2,0:0:0:0:
117,158,258462,5,8,1:0:0:0:
220,13,258548,5,4,0:0:0:0:
16,13,258548,5,2,0:0:0:0:
16,13,258634,5,2,0:0:0:0:
16,13,258720,5,2,0:0:0:0:
16,13,258806,5,2,0:0:0:0:
220,13,258807,5,4,0:0:0:0:
16,13,258892,5,2,0:0:0:0:
13,154,258979,5,2,1:0:0:0:
16,13,258979,5,2,0:0:0:0:
220,13,259065,5,4,0:0:0:0:
16,13,259065,5,2,0:0:0:0:
117,158,259151,5,8,1:0:0:0:
16,13,259151,5,2,0:0:0:0:
16,13,259209,5,2,0:0:0:0:
16,13,259266,5,2,0:0:0:0:
16,13,259323,5,2,0:0:0:0:
220,13,259324,5,4,0:0:0:0:
16,13,259381,5,2,0:0:0:0:
16,13,259438,5,2,0:0:0:0:
13,154,259496,5,2,1:0:0:0:
220,13,259496,5,4,0:0:0:0:
221,88,259496,5,4,3:0:0:0:
220,13,259755,5,4,0:0:0:0:
117,158,259841,5,8,1:0:0:0:
16,13,259841,5,2,0:0:0:0:
220,13,260013,5,4,0:0:0:0:
16,13,260013,5,2,0:0:0:0:
16,13,260099,5,2,0:0:0:0:
16,13,260186,5,2,0:0:0:0:
220,13,260272,5,4,0:0:0:0:
16,13,260272,5,2,0:0:0:0:
13,154,260358,5,2,1:0:0:0:
16,13,260358,5,2,0:0:0:0:
16,13,260444,5,2,0:0:0:0:
16,13,260530,5,2,0:0:0:0:
220,13,260531,5,4,0:0:0:0:
16,13,260617,5,2,0:0:0:0:
120,18,260703,5,8,2:0:0:0:
16,13,260703,5,2,0:0:0:0:
220,13,260789,5,4,0:0:0:0:
13,154,260875,5,2,1:0:0:0:
120,18,260961,5,8,2:0:0:0:
220,13,261048,5,4,0:0:0:0:
16,13,261048,5,2,0:0:0:0:
16,13,261134,5,2,0:0:0:0:
16,13,261220,5,2,0:0:0:0:
117,158,261220,5,8,1:0:0:0:
16,13,261306,5,2,0:0:0:0:
220,13,261307,5,4,0:0:0:0:
16,13,261392,5,2,0:0:0:0:
16,13,261450,5,2,0:0:0:0:
16,13,261507,5,2,0:0:0:0:
16,13,261565,5,2,0:0:0:0:
220,13,261565,5,4,0:0:0:0:
16,13,261622,5,2,0:0:0:0:
16,13,261680,5,2,0:0:0:0:
16,13,261737,5,2,0:0:0:0:
13,154,261737,5,2,1:0:0:0:
16,13,261795,5,2,0:0:0:0:
220,13,261824,5,4,0:0:0:0:
16,13,261852,5,2,0:0:0:0:
117,158,261909,5,8,1:0:0:0:
16,13,261910,5,2,0:0:0:0:
16,13,261967,5,2,0:0:0:0:
16,13,262025,5,2,0:0:0:0:
220,13,262082,5,4,0:0:0:0:
16,13,262140,5,2,0:0:0:0:
16,13,262197,5,2,0:0:0:0:
13,154,262254,5,2,1:0:0:0:
16,13,262254,5,2,0:0:0:0:
220,13,262255,5,4,0:0:0:0:
221,88,262255,5,4,3:0:0:0:
16,13,262427,5,2,0:0:0:0:
220,13,262513,5,4,0:0:0:0:
16,13,262513,5,2,0:0:0:0:
117,158,262599,5,8,1:0:0:0:
16,13,262599,5,2,0:0:0:0:
16,13,262686,5,2,0:0:0:0:
16,13,262772,5,2,0:0:0:0:
220,13,262772,5,4,0:0:0:0:
16,13,262858,5,2,0:0:0:0:
16,13,262944,5,2,0:0:0:0:
16,13,263030,5,2,0:0:0:0:
220,13,263031,5,4,0:0:0:0:
13,154,263116,5,2,1:0:0:0:
16,13,263117,5,2,0:0:0:0:
220,13,263289,5,4,0:0:0:0:
117,158,263289,5,8,1:0:0:0:
16,13,263289,5,2,0:0:0:0:
16,13,263461,5,2,0:0:0:0:
16,13,263548,5,2,0:0:0:0:
220,13,263548,5,4,0:0:0:0:
13,154,263633,5,2,1:0:0:0:
16,13,263634,5,2,0:0:0:0:
120,18,263634,5,8,2:0:0:0:
16,13,263720,5,2,0:0:0:0:
120,18,263720,5,8,2:0:0:0:
16,13,263806,5,2,0:0:0:0:
220,13,263807,5,4,0:0:0:0:
120,18,263892,5,8,2:0:0:0:
16,13,263892,5,2,0:0:0:0:
120,18,263979,5,8,2:0:0:0:
117,158,263979,5,8,1:0:0:0:
16,13,263979,5,2,0:0:0:0:
220,13,264065,5,4,0:0:0:0:
16,13,264065,5,2,0:0:0:0:
16,13,264151,5,2,0:0:0:0:
16,13,264237,5,2,0:0:0:0:
220,13,264324,5,4,0:0:0:0:
16,13,264410,5,2,0:0:0:0:
16,13,264496,5,2,0:0:0:0:
13,154,264496,5,2,1:0:0:0:
16,13,264582,5,2,0:0:0:0:
220,13,264582,5,4,0:0:0:0:
116,236,264668,5,8,0:0:0:0:
116,236,264711,5,8,0:0:0:0:
116,236,264754,5,8,0:0:0:0:
116,236,264797,5,8,0:0:0:0:
116,236,264840,5,8,0:0:0:0:
116,236,264883,5,8,0:0:0:0:
116,236,264926,5,8,0:0:0:0:
116,236,264969,5,8,0:0:0:0:
16,13,265013,5,2,0:0:0:0:
13,154,265013,5,2,1:0:0:0:
221,88,265013,5,4,3:0:0:0:
220,13,265013,5,4,0:0:0:0:
16,13,265272,5,2,0:0:0:0:
220,13,265272,5,4,0:0:0:0:
117,158,265358,5,8,1:0:0:0:
220,13,265531,5,4,0:0:0:0:
120,18,265617,5,8,2:0:0:0:
16,13,265703,5,2,0:0:0:0:
220,13,265789,5,4,0:0:0:0:
13,154,265876,5,2,1:0:0:0:
16,13,265962,5,2,0:0:0:0:
117,158,266048,5,8,1:0:0:0:
220,13,266048,5,4,0:0:0:0:
120,18,266048,5,8,2:0:0:0:
120,18,266134,5,8,2:0:0:0:
220,13,266220,5,4,0:0:0:0:
16,13,266220,5,2,0:0:0:0:
120,18,266220,5,8,2:0:0:0:
16,13,266393,5,2,0:0:0:0:
220,13,266393,5,4,0:0:0:0:
16,13,266479,5,2,0:0:0:0:
16,13,266565,5,2,0:0:0:0:
13,154,266565,5,2,1:0:0:0:
16,13,266651,5,2,0:0:0:0:
220,13,266651,5,4,0:0:0:0:
117,158,266738,5,8,1:0:0:0:
120,18,266824,5,8,2:0:0:0:
220,13,266910,5,4,0:0:0:0:
16,13,266910,5,2,0:0:0:0:
120,18,266996,5,8,2:0:0:0:
16,13,267082,5,2,0:0:0:0:
220,13,267169,5,4,0:0:0:0:
13,154,267255,5,2,1:0:0:0:
16,13,267341,5,2,0:0:0:0:
117,158,267427,5,8,1:0:0:0:
220,13,267427,5,4,0:0:0:0:
120,18,267513,5,8,2:0:0:0:
16,13,267600,5,2,0:0:0:0:
220,13,267600,5,4,0:0:0:0:
16,13,267772,5,2,0:0:0:0:
13,154,267772,5,2,1:0:0:0:
220,13,267772,5,4,0:0:0:0:
220,13,268031,5,4,0:0:0:0:
16,13,268031,5,2,0:0:0:0:
117,158,268117,5,8,1:0:0:0:
220,13,268290,5,4,0:0:0:0:
120,18,268376,5,8,2:0:0:0:
16,13,268462,5,2,0:0:0:0:
220,13,268548,5,4,0:0:0:0:
13,154,268635,5,2,1:0:0:0:
16,13,268721,5,2,0:0:0:0:
117,158,268807,5,8,1:0:0:0:
220,13,268807,5,4,0:0:0:0:
120,18,268807,5,8,2:0:0:0:
120,18,268893,5,8,2:0:0:0:
120,18,268979,5,8,2:0:0:0:
16,13,268979,5,2,0:0:0:0:
220,13,268979,5,4,0:0:0:0:
120,18,269065,5,8,2:0:0:0:
220,13,269152,5,4,0:0:0:0:
16,13,269152,5,2,0:0:0:0:
16,13,269238,5,2,0:0:0:0:
16,13,269324,5,2,0:0:0:0:
13,154,269324,5,2,1:0:0:0:
220,13,269410,5,4,0:0:0:0:
16,13,269410,5,2,0:0:0:0:
117,158,269497,5,8,1:0:0:0:
120,18,269583,5,8,2:0:0:0:
16,13,269669,5,2,0:0:0:0:
220,13,269669,5,4,0:0:0:0:
120,18,269755,5,8,2:0:0:0:
16,13,269841,5,2,0:0:0:0:
220,13,269928,5,4,0:0:0:0:
13,154,270014,5,2,1:0:0:0:
16,13,270100,5,2,0:0:0:0:
220,13,270186,5,4,0:0:0:0:
117,158,270186,5,8,1:0:0:0:
120,18,270272,5,8,2:0:0:0:
220,13,270359,5,4,0:0:0:0:
16,13,270359,5,2,0:0:0:0:
16,13,270531,5,2,0:0:0:0:
13,154,270531,5,2,1:0:0:0:
220,13,270531,5,4,0:0:0:0:
16,13,270790,5,2,0:0:0:0:
220,13,270790,5,4,0:0:0:0:
117,158,270876,5,8,1:0:0:0:
220,13,271049,5,4,0:0:0:0:
120,18,271135,5,8,2:0:0:0:
16,13,271221,5,2,0:0:0:0:
220,13,271307,5,4,0:0:0:0:
13,154,271394,5,2,1:0:0:0:
16,13,271480,5,2,0:0:0:0:
120,18,271566,5,8,2:0:0:0:
220,13,271566,5,4,0:0:0:0:
117,158,271566,5,8,1:0:0:0:
120,18,271652,5,8,2:0:0:0:
220,13,271738,5,4,0:0:0:0:
16,13,271738,5,2,0:0:0:0:
120,18,271738,5,8,2:0:0:0:
120,18,271824,5,8,2:0:0:0:
220,13,271911,5,4,0:0:0:0:
16,13,271911,5,2,0:0:0:0:
16,13,271997,5,2,0:0:0:0:
13,154,272083,5,2,1:0:0:0:
16,13,272083,5,2,0:0:0:0:
220,13,272169,5,4,0:0:0:0:
16,13,272169,5,2,0:0:0:0:
117,158,272256,5,8,1:0:0:0:
120,18,272342,5,8,2:0:0:0:
220,13,272428,5,4,0:0:0:0:
16,13,272428,5,2,0:0:0:0:
120,18,272514,5,8,2:0:0:0:
16,13,272600,5,2,0:0:0:0:
220,13,272687,5,4,0:0:0:0:
13,154,272773,5,2,1:0:0:0:
16,13,272859,5,2,0:0:0:0:
220,13,272945,5,4,0:0:0:0:
117,158,272945,5,8,1:0:0:0:
120,18,273031,5,8,2:0:0:0:
220,13,273118,5,4,0:0:0:0:
16,13,273118,5,2,0:0:0:0:
220,13,273289,5,4,0:0:0:0:
13,154,273289,5,2,1:0:0:0:
16,13,273289,5,2,0:0:0:0:
220,13,273548,5,4,0:0:0:0:
16,13,273548,5,2,0:0:0:0:
117,158,273634,5,8,1:0:0:0:
220,13,273807,5,4,0:0:0:0:
120,18,273893,5,8,2:0:0:0:
16,13,273979,5,2,0:0:0:0:
220,13,274065,5,4,0:0:0:0:
13,154,274152,5,2,1:0:0:0:
16,13,274238,5,2,0:0:0:0:
120,18,274324,5,8,2:0:0:0:
220,13,274324,5,4,0:0:0:0:
117,158,274324,5,8,1:0:0:0:
120,18,274410,5,8,2:0:0:0:
220,13,274496,5,4,0:0:0:0:
16,13,274496,5,2,0:0:0:0:
120,18,274496,5,8,2:0:0:0:
120,18,274582,5,8,2:0:0:0:
16,13,274669,5,2,0:0:0:0:
220,13,274669,5,4,0:0:0:0:
16,13,274755,5,2,0:0:0:0:
13,154,274841,5,2,1:0:0:0:
16,13,274841,5,2,0:0:0:0:
16,13,274927,5,2,0:0:0:0:
220,13,274927,5,4,0:0:0:0:
117,158,275014,5,8,1:0:0:0:
120,18,275100,5,8,2:0:0:0:
220,13,275186,5,4,0:0:0:0:
16,13,275186,5,2,0:0:0:0:
120,18,275272,5,8,2:0:0:0:
16,13,275358,5,2,0:0:0:0:
220,13,275445,5,4,0:0:0:0:
13,154,275531,5,2,1:0:0:0:
16,13,275617,5,2,0:0:0:0:
117,158,275703,5,8,1:0:0:0:
220,13,275703,5,4,0:0:0:0:
120,18,275789,5,8,2:0:0:0:
16,13,275876,5,2,0:0:0:0:
220,13,275876,5,4,0:0:0:0:
16,13,276048,5,2,0:0:0:0:
220,13,276048,5,4,0:0:0:0:
13,154,276048,5,2,1:0:0:0:
13,85,276048,5,2,3:0:0:0:
221,88,276048,5,4,3:0:0:0:
13,85,276134,5,2,3:0:0:0:
13,85,276307,5,2,3:0:0:0:
16,13,276307,5,2,0:0:0:0:
220,13,276307,5,4,0:0:0:0:
13,85,276393,5,2,3:0:0:0:
117,158,276393,5,8,1:0:0:0:
220,13,276566,5,4,0:0:0:0:
120,18,276652,5,8,2:0:0:0:
13,85,276738,5,2,3:0:0:0:
16,13,276738,5,2,0:0:0:0:
220,13,276824,5,4,0:0:0:0:
13,85,276910,5,2,3:0:0:0:
13,154,276911,5,2,1:0:0:0:
16,13,276997,5,2,0:0:0:0:
120,18,277083,5,8,2:0:0:0:
220,13,277083,5,4,0:0:0:0:
117,158,277083,5,8,1:0:0:0:
120,18,277169,5,8,2:0:0:0:
13,85,277169,5,2,3:0:0:0:
16,13,277255,5,2,0:0:0:0:
120,18,277255,5,8,2:0:0:0:
13,85,277255,5,2,3:0:0:0:
220,13,277255,5,4,0:0:0:0:
13,85,277341,5,2,3:0:0:0:
16,13,277428,5,2,0:0:0:0:
220,13,277428,5,4,0:0:0:0:
13,85,277513,5,2,3:0:0:0:
16,13,277514,5,2,0:0:0:0:
13,154,277600,5,2,1:0:0:0:
16,13,277600,5,2,0:0:0:0:
220,13,277686,5,4,0:0:0:0:
16,13,277686,5,2,0:0:0:0:
13,85,277686,5,2,3:0:0:0:
13,85,277772,5,2,3:0:0:0:
117,158,277773,5,8,1:0:0:0:
120,18,277859,5,8,2:0:0:0:
13,85,277945,5,2,3:0:0:0:
220,13,277945,5,4,0:0:0:0:
16,13,277945,5,2,0:0:0:0:
120,18,278031,5,8,2:0:0:0:
13,85,278117,5,2,3:0:0:0:
16,13,278117,5,2,0:0:0:0:
220,13,278204,5,4,0:0:0:0:
13,85,278289,5,2,3:0:0:0:
13,154,278290,5,2,1:0:0:0:
16,13,278376,5,2,0:0:0:0:
13,85,278376,5,2,3:0:0:0:
117,158,278462,5,8,1:0:0:0:
220,13,278462,5,4,0:0:0:0:
120,18,278548,5,8,2:0:0:0:
13,85,278548,5,2,3:0:0:0:
13,85,278634,5,2,3:0:0:0:
220,13,278635,5,4,0:0:0:0:
16,13,278635,5,2,0:0:0:0:
13,85,278720,5,2,3:0:0:0:
13,154,278807,5,2,1:0:0:0:
16,13,278807,5,2,0:0:0:0:
13,85,278807,5,2,3:0:0:0:
220,13,278807,5,4,0:0:0:0:
13,85,278893,5,2,3:0:0:0:
13,85,279066,5,2,3:0:0:0:
16,13,279066,5,2,0:0:0:0:
220,13,279066,5,4,0:0:0:0:
117,158,279152,5,8,1:0:0:0:
13,85,279152,5,2,3:0:0:0:
220,13,279325,5,4,0:0:0:0:
120,18,279411,5,8,2:0:0:0:
13,85,279497,5,2,3:0:0:0:
16,13,279497,5,2,0:0:0:0:
220,13,279583,5,4,0:0:0:0:
13,85,279669,5,2,3:0:0:0:
13,154,279670,5,2,1:0:0:0:
16,13,279756,5,2,0:0:0:0:
120,18,279842,5,8,2:0:0:0:
220,13,279842,5,4,0:0:0:0:
117,158,279842,5,8,1:0:0:0:
120,18,279928,5,8,2:0:0:0:
13,85,279928,5,2,3:0:0:0:
220,13,280014,5,4,0:0:0:0:
16,13,280014,5,2,0:0:0:0:
120,18,280014,5,8,2:0:0:0:
13,85,280014,5,2,3:0:0:0:
120,18,280100,5,8,2:0:0:0:
13,85,280100,5,2,3:0:0:0:
16,13,280187,5,2,0:0:0:0:
220,13,280187,5,4,0:0:0:0:
13,85,280272,5,2,3:0:0:0:
16,13,280273,5,2,0:0:0:0:
13,154,280359,5,2,1:0:0:0:
16,13,280359,5,2,0:0:0:0:
13,85,280445,5,2,3:0:0:0:
16,13,280445,5,2,0:0:0:0:
220,13,280445,5,4,0:0:0:0:
13,85,280531,5,2,3:0:0:0:
117,158,280532,5,8,1:0:0:0:
120,18,280618,5,8,2:0:0:0:
13,85,280704,5,2,3:0:0:0:
16,13,280704,5,2,0:0:0:0:
220,13,280704,5,4,0:0:0:0:
120,18,280790,5,8,2:0:0:0:
13,85,280876,5,2,3:0:0:0:
16,13,280876,5,2,0:0:0:0:
220,13,280963,5,4,0:0:0:0:
13,85,281048,5,2,3:0:0:0:
13,154,281049,5,2,1:0:0:0:
16,13,281135,5,2,0:0:0:0:
13,85,281135,5,2,3:0:0:0:
117,158,281221,5,8,1:0:0:0:
220,13,281221,5,4,0:0:0:0:
120,18,281307,5,8,2:0:0:0:
13,85,281307,5,2,3:0:0:0:
13,85,281393,5,2,3:0:0:0:
16,13,281394,5,2,0:0:0:0:
220,13,281394,5,4,0:0:0:0:
13,85,281479,5,2,3:0:0:0:
13,85,281565,5,2,3:0:0:0:
16,13,281566,5,2,0:0:0:0:
13,154,281566,5,2,1:0:0:0:
220,13,281566,5,4,0:0:0:0:
13,85,281651,5,2,3:0:0:0:
13,85,281824,5,2,3:0:0:0:
16,13,281825,5,2,0:0:0:0:
220,13,281825,5,4,0:0:0:0:
13,85,281910,5,2,3:0:0:0:
117,158,281911,5,8,1:0:0:0:
220,13,282084,5,4,0:0:0:0:
120,18,282170,5,8,2:0:0:0:
13,85,282255,5,2,3:0:0:0:
16,13,282256,5,2,0:0:0:0:
220,13,282342,5,4,0:0:0:0:
13,85,282427,5,2,3:0:0:0:
13,154,282429,5,2,1:0:0:0:
16,13,282515,5,2,0:0:0:0:
120,18,282601,5,8,2:0:0:0:
220,13,282601,5,4,0:0:0:0:
117,158,282601,5,8,1:0:0:0:
13,85,282686,5,2,3:0:0:0:
120,18,282687,5,8,2:0:0:0:
13,85,282772,5,2,3:0:0:0:
120,18,282773,5,8,2:0:0:0:
16,13,282773,5,2,0:0:0:0:
220,13,282773,5,4,0:0:0:0:
13,85,282858,5,2,3:0:0:0:
120,18,282859,5,8,2:0:0:0:
16,13,282946,5,2,0:0:0:0:
220,13,282946,5,4,0:0:0:0:
13,85,283030,5,2,3:0:0:0:
16,13,283032,5,2,0:0:0:0:
16,13,283118,5,2,0:0:0:0:
13,154,283118,5,2,1:0:0:0:
13,85,283203,5,2,3:0:0:0:
16,13,283204,5,2,0:0:0:0:
220,13,283204,5,4,0:0:0:0:
13,85,283289,5,2,3:0:0:0:
117,158,283291,5,8,1:0:0:0:
120,18,283377,5,8,2:0:0:0:
13,85,283462,5,2,3:0:0:0:
220,13,283463,5,4,0:0:0:0:
16,13,283463,5,2,0:0:0:0:
120,18,283549,5,8,2:0:0:0:
13,85,283634,5,2,3:0:0:0:
16,13,283635,5,2,0:0:0:0:
220,13,283722,5,4,0:0:0:0:
13,85,283806,5,2,3:0:0:0:
13,154,283808,5,2,1:0:0:0:
13,85,283893,5,2,3:0:0:0:
16,13,283894,5,2,0:0:0:0:
220,13,283980,5,4,0:0:0:0:
117,158,283980,5,8,1:0:0:0:
13,85,284065,5,2,3:0:0:0:
120,18,284066,5,8,2:0:0:0:
13,85,284151,5,2,3:0:0:0:
16,13,284153,5,2,0:0:0:0:
220,13,284153,5,4,0:0:0:0:
13,85,284237,5,2,3:0:0:0:
13,85,284324,5,2,3:0:0:0:
220,13,284324,5,4,0:0:0:0:
13,154,284324,5,2,1:0:0:0:
16,13,284324,5,2,0:0:0:0:
13,85,284410,5,2,3:0:0:0:
220,13,284583,5,4,0:0:0:0:
16,13,284583,5,2,0:0:0:0:
13,85,284583,5,2,3:0:0:0:
117,158,284669,5,8,1:0:0:0:
13,85,284669,5,2,3:0:0:0:
220,13,284842,5,4,0:0:0:0:
120,18,284928,5,8,2:0:0:0:
13,85,285014,5,2,3:0:0:0:
16,13,285014,5,2,0:0:0:0:
220,13,285100,5,4,0:0:0:0:
13,85,285186,5,2,3:0:0:0:
13,154,285187,5,2,1:0:0:0:
16,13,285273,5,2,0:0:0:0:
120,18,285359,5,8,2:0:0:0:
220,13,285359,5,4,0:0:0:0:
117,158,285359,5,8,1:0:0:0:
120,18,285445,5,8,2:0:0:0:
13,85,285445,5,2,3:0:0:0:
16,13,285531,5,2,0:0:0:0:
120,18,285531,5,8,2:0:0:0:
13,85,285531,5,2,3:0:0:0:
220,13,285531,5,4,0:0:0:0:
120,18,285617,5,8,2:0:0:0:
13,85,285617,5,2,3:0:0:0:
220,13,285704,5,4,0:0:0:0:
16,13,285704,5,2,0:0:0:0:
13,85,285789,5,2,3:0:0:0:
16,13,285790,5,2,0:0:0:0:
16,13,285876,5,2,0:0:0:0:
13,154,285876,5,2,1:0:0:0:
13,85,285962,5,2,3:0:0:0:
220,13,285962,5,4,0:0:0:0:
16,13,285962,5,2,0:0:0:0:
13,85,286048,5,2,3:0:0:0:
117,158,286049,5,8,1:0:0:0:
120,18,286135,5,8,2:0:0:0:
220,13,286221,5,4,0:0:0:0:
16,13,286221,5,2,0:0:0:0:
13,85,286221,5,2,3:0:0:0:
120,18,286307,5,8,2:0:0:0:
16,13,286393,5,2,0:0:0:0:
13,85,286393,5,2,3:0:0:0:
220,13,286480,5,4,0:0:0:0:
13,85,286565,5,2,3:0:0:0:
13,154,286566,5,2,1:0:0:0:
13,85,286652,5,2,3:0:0:0:
16,13,286652,5,2,0:0:0:0:
117,158,286738,5,8,1:0:0:0:
220,13,286738,5,4,0:0:0:0:
13,85,286824,5,2,3:0:0:0:
120,18,286824,5,8,2:0:0:0:
13,85,286910,5,2,3:0:0:0:
220,13,286911,5,4,0:0:0:0:
16,13,286911,5,2,0:0:0:0:
13,85,286996,5,2,3:0:0:0:
221,88,287082,5,4,3:0:0:0:
16,13,287082,5,2,0:0:0:0:
220,13,287082,5,4,0:0:0:0:
13,154,287082,5,2,1:0:0:0:
13,85,287341,5,2,3:0:0:0:
13,85,287427,5,2,3:0:0:0:
117,158,287427,5,8,1:0:0:0:
13,85,287599,5,2,3:0:0:0:
13,85,287772,5,2,3:0:0:0:
13,154,287944,5,2,1:0:0:0:
13,85,287944,5,2,3:0:0:0:
13,85,288030,5,2,3:0:0:0:
117,158,288116,5,8,1:0:0:0:
13,85,288375,5,2,3:0:0:0:
13,85,288461,5,2,3:0:0:0:
13,85,288548,5,2,3:0:0:0:
13,154,288634,5,2,1:0:0:0:
13,85,288634,5,2,3:0:0:0:
13,85,288720,5,2,3:0:0:0:
117,158,288806,5,8,1:0:0:0:
13,85,288979,5,2,3:0:0:0:
13,85,289065,5,2,3:0:0:0:
13,85,289151,5,2,3:0:0:0:
13,85,289323,5,2,3:0:0:0:
13,154,289323,5,2,1:0:0:0:
13,85,289410,5,2,3:0:0:0:
117,158,289495,5,8,1:0:0:0:
13,85,289582,5,2,3:0:0:0:
13,85,289668,5,2,3:0:0:0:
13,85,289754,5,2,3:0:0:0:
13,154,289841,5,2,1:0:0:0:
13,85,290100,5,2,3:0:0:0:
117,158,290186,5,8,1:0:0:0:
13,85,290186,5,2,3:0:0:0:
13,85,290358,5,2,3:0:0:0:
13,85,290531,5,2,3:0:0:0:
13,154,290703,5,2,1:0:0:0:
13,85,290703,5,2,3:0:0:0:
13,85,290789,5,2,3:0:0:0:
117,158,290875,5,8,1:0:0:0:
13,85,291134,5,2,3:0:0:0:
13,85,291220,5,2,3:0:0:0:
13,85,291307,5,2,3:0:0:0:
13,85,291393,5,2,3:0:0:0:
13,154,291393,5,2,1:0:0:0:
13,85,291479,5,2,3:0:0:0:
117,158,291565,5,8,1:0:0:0:
13,85,291738,5,2,3:0:0:0:
13,85,291824,5,2,3:0:0:0:
13,85,291910,5,2,3:0:0:0:
13,154,292082,5,2,1:0:0:0:
13,85,292082,5,2,3:0:0:0:
13,85,292169,5,2,3:0:0:0:
117,158,292254,5,8,1:0:0:0:
13,85,292341,5,2,3:0:0:0:
13,85,292427,5,2,3:0:0:0:
13,85,292513,5,2,3:0:0:0:
13,154,292599,5,2,1:0:0:0:
13,85,292858,5,2,3:0:0:0:
13,85,292944,5,2,3:0:0:0:
117,158,292944,5,8,1:0:0:0:
13,85,293116,5,2,3:0:0:0:
13,85,293289,5,2,3:0:0:0:
13,154,293461,5,2,1:0:0:0:
13,85,293461,5,2,3:0:0:0:
13,85,293547,5,2,3:0:0:0:
117,158,293633,5,8,1:0:0:0:
13,85,293892,5,2,3:0:0:0:
13,85,293978,5,2,3:0:0:0:
13,85,294065,5,2,3:0:0:0:
13,154,294151,5,2,1:0:0:0:
13,85,294151,5,2,3:0:0:0:
13,85,294237,5,2,3:0:0:0:
117,158,294323,5,8,1:0:0:0:
13,85,294496,5,2,3:0:0:0:
13,85,294582,5,2,3:0:0:0:
13,85,294668,5,2,3:0:0:0:
13,154,294840,5,2,1:0:0:0:
13,85,294840,5,2,3:0:0:0:
13,85,294927,5,2,3:0:0:0:
117,158,295012,5,8,1:0:0:0:
13,85,295099,5,2,3:0:0:0:
13,85,295185,5,2,3:0:0:0:
13,85,295271,5,2,3:0:0:0:
13,154,295358,5,2,1:0:0:0:
13,85,295617,5,2,3:0:0:0:
117,158,295703,5,8,1:0:0:0:
13,85,295703,5,2,3:0:0:0:
13,85,295875,5,2,3:0:0:0:
13,85,296048,5,2,3:0:0:0:
13,85,296220,5,2,3:0:0:0:
13,154,296220,5,2,1:0:0:0:
13,85,296306,5,2,3:0:0:0:
117,158,296392,5,8,1:0:0:0:
13,85,296651,5,2,3:0:0:0:
13,85,296737,5,2,3:0:0:0:
13,85,296824,5,2,3:0:0:0:
13,85,296910,5,2,3:0:0:0:
13,154,296910,5,2,1:0:0:0:
13,85,296996,5,2,3:0:0:0:
117,158,297082,5,8,1:0:0:0:
13,85,297255,5,2,3:0:0:0:
13,85,297341,5,2,3:0:0:0:
13,85,297427,5,2,3:0:0:0:
13,85,297599,5,2,3:0:0:0:
13,154,297599,5,2,1:0:0:0:
13,85,297686,5,2,3:0:0:0:
117,158,297771,5,8,1:0:0:0:
13,85,297858,5,2,3:0:0:0:
13,85,297944,5,2,3:0:0:0:
13,85,298030,5,2,3:0:0:0:
13,154,298117,5,2,1:0:0:0:
13,85,298376,5,2,3:0:0:0:
13,85,298462,5,2,3:0:0:0:
117,158,298462,5,8,1:0:0:0:
13,85,298634,5,2,3:0:0:0:
13,85,298807,5,2,3:0:0:0:
13,85,298979,5,2,3:0:0:0:
13,154,298979,5,2,1:0:0:0:
13,85,299065,5,2,3:0:0:0:
117,158,299151,5,8,1:0:0:0:
13,85,299410,5,2,3:0:0:0:
13,85,299496,5,2,3:0:0:0:
13,85,299583,5,2,3:0:0:0:
13,85,299669,5,2,3:0:0:0:
13,154,299669,5,2,1:0:0:0:
13,85,299755,5,2,3:0:0:0:
117,158,299841,5,8,1:0:0:0:
13,85,300014,5,2,3:0:0:0:
13,85,300100,5,2,3:0:0:0:
13,85,300186,5,2,3:0:0:0:
13,85,300358,5,2,3:0:0:0:
13,154,300358,5,2,1:0:0:0:
13,85,300445,5,2,3:0:0:0:
117,158,300530,5,8,1:0:0:0:
13,85,300617,5,2,3:0:0:0:
13,85,300703,5,2,3:0:0:0:
13,85,300789,5,2,3:0:0:0:
13,154,300875,5,2,1:0:0:0:
13,85,301134,5,2,3:0:0:0:
117,158,301220,5,8,1:0:0:0:
13,85,301220,5,2,3:0:0:0:
13,85,301392,5,2,3:0:0:0:
13,85,301565,5,2,3:0:0:0:
13,154,301737,5,2,1:0:0:0:
13,85,301737,5,2,3:0:0:0:
13,85,301823,5,2,3:0:0:0:
117,158,301909,5,8,1:0:0:0:
13,85,302168,5,2,3:0:0:0:
13,85,302254,5,2,3:0:0:0:
13,85,302341,5,2,3:0:0:0:
13,154,302427,5,2,1:0:0:0:
13,85,302427,5,2,3:0:0:0:
13,85,302513,5,2,3:0:0:0:
117,158,302599,5,8,1:0:0:0:
13,85,302772,5,2,3:0:0:0:
13,85,302858,5,2,3:0:0:0:
13,85,302944,5,2,3:0:0:0:
13,154,303116,5,2,1:0:0:0:
13,85,303116,5,2,3:0:0:0:
13,85,303203,5,2,3:0:0:0:
117,158,303288,5,8,1:0:0:0:
13,85,303375,5,2,3:0:0:0:
13,85,303461,5,2,3:0:0:0:
13,85,303547,5,2,3:0:0:0:
13,154,303634,5,2,1:0:0:0:
13,85,303893,5,2,3:0:0:0:
13,85,303979,5,2,3:0:0:0:
117,158,303979,5,8,1:0:0:0:
13,85,304151,5,2,3:0:0:0:
13,85,304324,5,2,3:0:0:0:
13,85,304496,5,2,3:0:0:0:
13,154,304496,5,2,1:0:0:0:
13,85,304582,5,2,3:0:0:0:
117,158,304668,5,8,1:0:0:0:
13,85,304927,5,2,3:0:0:0:
13,85,305013,5,2,3:0:0:0:
13,85,305100,5,2,3:0:0:0:
13,85,305186,5,2,3:0:0:0:
13,154,305186,5,2,1:0:0:0:
13,85,305272,5,2,3:0:0:0:
117,158,305358,5,8,1:0:0:0:
13,85,305531,5,2,3:0:0:0:
13,85,305617,5,2,3:0:0:0:
13,85,305703,5,2,3:0:0:0:
13,85,305875,5,2,3:0:0:0:
13,154,305875,5,2,1:0:0:0:
13,85,305962,5,2,3:0:0:0:
117,158,306047,5,8,1:0:0:0:
13,85,306134,5,2,3:0:0:0:
13,85,306220,5,2,3:0:0:0:
13,85,306306,5,2,3:0:0:0:
13,154,306392,5,2,1:0:0:0:
13,85,306651,5,2,3:0:0:0:
117,158,306737,5,8,1:0:0:0:
13,85,306737,5,2,3:0:0:0:
13,85,306909,5,2,3:0:0:0:
13,85,307082,5,2,3:0:0:0:
13,154,307254,5,2,1:0:0:0:
13,85,307254,5,2,3:0:0:0:
13,85,307340,5,2,3:0:0:0:
117,158,307426,5,8,1:0:0:0:
13,85,307685,5,2,3:0:0:0:
13,85,307771,5,2,3:0:0:0:
120,18,307772,5,8,2:0:0:0:
13,85,307858,5,2,3:0:0:0:
13,154,307944,5,2,1:0:0:0:
13,85,307944,5,2,3:0:0:0:
13,85,308030,5,2,3:0:0:0:
117,158,308116,5,8,1:0:0:0:
120,18,308117,5,8,2:0:0:0:
120,18,308203,5,8,2:0:0:0:
13,85,308289,5,2,3:0:0:0:
13,85,308375,5,2,3:0:0:0:
13,85,308461,5,2,3:0:0:0:
120,18,308461,5,8,2:0:0:0:
120,18,308548,5,8,2:0:0:0:
13,154,308633,5,2,1:0:0:0:
13,85,308633,5,2,3:0:0:0:
120,18,308634,5,8,2:0:0:0:
13,85,308720,5,2,3:0:0:0:
120,18,308720,5,8,2:0:0:0:
117,158,308805,5,8,1:0:0:0:
120,18,308806,5,8,2:0:0:0:
13,85,308892,5,2,3:0:0:0:
120,18,308892,5,8,2:0:0:0:
116,236,308979,5,8,0:0:0:0:
116,236,309022,5,8,0:0:0:0:
116,236,309065,5,8,0:0:0:0:
116,236,309108,5,8,0:0:0:0:
116,236,309151,5,8,0:0:0:0:
