osu file format v14

[General]
AudioFilename: audio.mp3
AudioLeadIn: 0
PreviewTime: -1
Countdown: 1
SampleSet: Normal
StackLeniency: 0.7
Mode: 0
LetterboxInBreaks: 1
WidescreenStoryboard: 1

[Editor]
DistanceSpacing: 0.2
BeatDivisor: 2
GridSize: 4
TimelineZoom: 1.9

[Metadata]
Title:How fast can you stream ?
TitleUnicode:How fast can you stream ?
Artist:Stream Training
ArtistUnicode:Stream Training
Creator:Hullahopp
Version:deltaMax AR10
Source:DDR Forever
Tags:deltaMax Stream
BeatmapID:1272613
BeatmapSetID:602509

[Difficulty]
HPDrainRate:5
CircleSize:4
OverallDifficulty:6
ApproachRate:10
SliderMultiplier:2.2
SliderTickRate:1

[Events]
//Background and Video events
0,0,"bg.png",0,0
//Break Periods
//Storyboard Layer 0 (Background)
//Storyboard Layer 1 (Fail)
//Storyboard Layer 2 (Pass)
//Storyboard Layer 3 (Foreground)
//Storyboard Sound Samples

[TimingPoints]
315,600,4,1,0,80,1,0
8115,-100,4,1,0,40,0,0
9915,594.088816278034,4,1,0,40,1,0
10509,588.264130594637,4,1,0,40,1,0
11097,582.552551094713,4,1,0,40,1,0
11680,576.950814943026,4,1,0,40,1,0
12257,571.455783608743,4,1,0,40,1,0
12828,566.064437001745,4,1,0,40,1,0
13394,560.773867937754,4,1,0,40,1,0
13955,555.581276910968,4,1,0,40,1,0
14511,550.483967154457,4,1,0,40,1,0
15061,545.479339969999,4,1,0,40,1,0
15606,540.564890310374,4,1,0,40,1,0
16147,535.73820259833,4,1,0,40,1,0
16683,530.996946767556,4,1,0,40,1,0
17214,526.33887451204,4,1,0,40,1,0
17740,521.761815731119,4,1,0,40,1,0
18262,517.263675158412,4,1,0,40,1,0
18779,512.84242916364,4,1,0,40,1,0
19292,508.496122717064,4,1,0,40,1,0
19800,504.222866506996,4,1,0,40,1,0
20304,500.020834201425,4,1,0,40,1,0
20804,495.888259845448,4,1,0,40,1,0
21300,491.823435386696,4,1,0,40,1,0
21792,487.824708321476,4,1,0,40,1,0
22280,483.890479454817,4,1,0,40,1,0
22764,480.019200768031,4,1,0,40,1,0
23244,476.209373387833,4,1,0,40,1,0
23720,472.459545651404,4,1,0,40,1,0
24192,468.768311262159,4,1,0,40,1,0
24661,465.1343075313,4,1,0,40,1,0
25126,461.556213700527,4,1,0,40,1,0
25588,458.032749341578,4,1,0,40,1,0
26046,454.562672828516,4,1,0,40,1,0
26501,451.144779878943,4,1,0,45,1,0
26952,447.777902160528,4,1,0,45,1,0
27400,444.46090595948,4,1,0,45,1,0
27844,441.192690907754,4,1,0,45,1,0
28285,437.972188766013,4,1,0,45,1,0
28723,434.798362259502,4,1,0,45,1,0
29158,431.670203964171,4,1,0,45,1,0
29590,428.586735240544,4,1,0,45,1,0
30019,425.547005212951,4,1,0,45,1,0
30445,422.550089791894,4,1,0,45,1,0
30868,419.595090737438,4,1,0,45,1,0
31288,416.681134761624,4,1,0,45,1,0
31705,413.807372668023,4,1,0,45,1,0
32119,410.972978526662,4,1,0,45,1,0
32530,408.177148882615,4,1,0,45,1,0
32938,405.419101996689,4,1,0,45,1,0
33343,402.698077116682,4,1,0,45,1,0
33746,400.013333777793,4,1,0,45,1,0
34146,397.364151130832,4,1,0,45,1,0
34543,394.749827296951,4,1,0,45,1,0
34938,392.169678747671,4,1,0,45,1,0
35330,389.623039709081,4,1,0,45,1,0
35720,387.109261589084,4,1,0,45,1,0
36107,384.62771242668,4,1,0,45,1,0
36492,382.177776362305,4,1,0,45,1,0
36874,379.758853128264,4,1,0,45,1,0
37254,377.370357558414,4,1,0,45,1,0
37631,375.011719116222,4,1,0,45,1,0
38006,372.682381440417,4,1,0,45,1,0
38379,370.381801907466,4,1,0,45,1,0
38749,368.10945121016,4,1,0,45,1,0
39117,365.864812951614,4,1,0,45,1,0
39483,363.647383254038,4,1,0,50,1,0
39847,361.456670381638,4,1,0,50,1,0
40208,359.292194377077,4,1,0,50,1,0
40567,357.153486710914,4,1,0,50,1,0
40924,355.040089943489,4,1,0,50,1,0
41279,352.951557398747,4,1,0,50,1,0
41632,350.887452849499,4,1,0,50,1,0
41983,348.847350213669,4,1,0,50,1,0
42332,346.830833261077,4,1,0,50,1,0
42679,344.837495330326,4,1,0,50,1,0
43024,342.866939055402,4,1,0,50,1,0
43367,340.918776101594,4,1,0,50,1,0
43708,338.992626910365,4,1,0,50,1,0
44047,337.088120452822,4,1,0,50,1,0
44384,335.204893991452,4,1,0,50,1,0
44719,333.342592849801,4,1,0,50,1,0
45052,331.500870189784,4,1,0,50,1,0
45384,329.679386796341,4,1,0,50,1,0
45714,327.877810869149,4,1,0,50,1,0
46042,326.095817821136,4,1,0,50,1,0
46368,324.333090083516,4,1,0,50,1,0
46692,322.589316917121,4,1,0,50,1,0
47015,320.864194229792,4,1,0,50,1,0
47336,319.157424399585,4,1,0,50,1,0
47655,317.468716103601,4,1,0,50,1,0
47972,315.797784152215,4,1,0,50,1,0
48288,314.144349328516,4,1,0,50,1,0
48602,312.508138232766,4,1,0,50,1,0
48915,310.888883131687,4,1,0,50,1,0
49226,309.286321812418,4,1,0,50,1,0
49535,307.70019744096,4,1,0,50,1,0
49843,306.13025842496,4,1,0,50,1,0
50149,304.576258280667,4,1,0,55,1,1
50454,303.037955503927,4,1,0,55,1,1
50757,301.515113445061,4,1,0,55,1,1
50983,-100,4,1,0,55,0,0
51059,300.007500187505,4,1,0,55,1,1
51359,298.51488843006,4,1,0,55,1,1
51658,297.037055372658,4,1,0,55,1,1
51955,295.573782605483,4,1,0,55,1,1
52251,294.124856001373,4,1,0,55,1,1
52545,292.690065611356,4,1,0,55,1,1
52838,291.269205563242,4,1,0,55,1,1
53129,289.862073963139,4,1,0,55,1,1
53419,288.468472799827,4,1,0,55,1,1
53707,287.088207851862,4,1,0,55,1,1
53994,285.721088597348,4,1,0,55,1,1
54280,284.366928126259,4,1,0,55,1,1
54564,283.025543055261,4,1,0,55,1,1
54847,281.696753444917,4,1,0,55,1,1
55129,280.380382719222,4,1,0,55,1,1
55409,279.076257587386,4,1,0,55,1,1
55688,277.784207967777,4,1,0,55,1,1
55966,276.504066913984,4,1,0,55,1,1
56243,275.235670542902,4,1,0,55,1,1
56518,273.978857964794,4,1,0,55,1,1
56792,272.733471215255,4,1,0,55,1,1
57065,271.499355189031,4,1,0,55,1,1
57336,270.276357575621,4,1,0,55,1,1
57606,269.06432879661,4,1,0,55,1,1
57875,267.863121944686,4,1,0,55,1,1
58143,266.672592724283,4,1,0,55,1,1
58410,265.492599393792,4,1,0,55,1,1
58675,264.323002709311,4,1,0,55,1,1
58939,263.163665869866,4,1,0,55,1,1
59202,262.014454464071,4,1,0,60,1,1
59464,260.875236418183,4,1,0,60,1,0
59725,259.745881945497,4,1,0,60,1,0
59985,258.626263497058,4,1,0,60,1,0
60244,257.516255713642,4,1,0,60,1,0
60502,256.415735378961,4,1,0,60,1,0
60758,255.324581374072,4,1,0,60,1,0
61013,254.242674632937,4,1,0,60,1,0
61267,253.169898099116,4,1,0,60,1,0
61520,252.106136683544,4,1,0,60,1,0
61772,251.051277223373,4,1,0,60,1,0
62023,250.005208441843,4,1,0,60,1,0
62273,248.967820909147,4,1,0,60,1,0
62522,247.939007004277,4,1,0,60,1,0
62769,246.918660877796,4,1,0,60,1,0
63017,245.906678415541,4,1,0,60,1,0
63263,244.902957203208,4,1,0,60,1,0
63508,243.907396491799,4,1,0,60,1,0
63752,242.91989716391,4,1,0,60,1,0
63995,241.940361700841,4,1,0,60,1,0
64237,240.968694150485,4,1,0,60,1,0
64478,240.004800096002,4,1,0,60,1,0
64718,239.048586625232,4,1,0,60,1,0
64957,238.099962300839,4,1,0,60,1,0
65195,237.158837131169,4,1,0,60,1,0
65432,236.225122541782,4,1,0,60,1,0
65668,235.298731347673,4,1,0,60,1,0
65903,234.379577726127,4,1,0,60,1,0
66137,233.467577190218,4,1,0,60,1,0
66370,232.562646562918,4,1,0,60,1,0
66602,231.664703951814,4,1,0,60,1,0
66835,230.773668724399,4,1,0,60,1,0
67066,229.889461483936,4,1,0,60,1,0
67296,229.012004045879,4,1,0,60,1,0
67525,228.141219414818,4,1,0,60,1,0
67753,227.277031761965,4,1,0,60,1,0
67980,226.41936640314,4,1,0,60,1,0
68206,225.568149777251,4,1,0,60,1,0
68432,224.72330942527,4,1,0,60,1,0
68657,223.884773969664,4,1,0,60,1,0
68881,223.052473094295,4,1,0,60,1,0
69104,222.226337524769,4,1,0,60,1,0
69326,221.406299009207,4,1,0,60,1,0
69547,220.592290299454,4,1,0,60,1,0
69768,219.784245132695,4,1,0,60,1,0
69988,218.982098213471,4,1,0,60,1,0
70207,218.185785196094,4,1,0,60,1,0
70425,217.39524266744,4,1,0,60,1,0
70642,216.610408130111,4,1,0,60,1,0
70859,215.831219985971,4,1,0,60,1,0
71075,215.057617520027,4,1,0,60,1,0
71290,214.289540884659,4,1,0,60,1,0
71504,213.526931084183,4,1,0,60,1,0
71718,212.769729959751,4,1,0,60,1,0
71931,212.017880174561,4,1,0,60,1,0
72143,211.271325199387,4,1,0,60,1,0
72354,210.530009298409,4,1,0,60,1,0
72565,209.793877515341,4,1,0,60,1,0
72775,209.062875659855,4,1,0,60,1,0
72984,208.336950294276,4,1,0,60,1,0
73192,207.616048720566,4,1,0,60,1,0
73400,206.900118967568,4,1,0,60,1,0
73607,206.189109778519,4,1,0,60,1,0
73813,205.482970598812,4,1,0,60,1,0
74018,204.78165156402,4,1,0,65,1,0
74223,204.085103488155,4,1,1,65,1,0
74427,203.393277852167,4,1,1,65,1,0
74630,202.706126792682,4,1,1,65,1,0
74833,202.023603090961,4,1,1,65,1,0
75035,201.345660162083,4,1,1,65,1,0
75236,200.672252044349,4,1,1,65,1,0
75437,200.00333338889,4,1,1,65,1,1
75637,199.338859449493,4,1,1,65,1,0
75836,198.678786072617,4,1,1,65,1,0
76035,198.023069687619,4,1,1,65,1,0
76233,197.371667297159,4,1,1,65,1,0
76430,196.724536467811,4,1,1,65,1,0
76627,196.081635320839,4,1,1,65,1,0
76823,195.442922523168,4,1,1,65,1,0
77018,194.808357278527,4,1,1,65,1,0
77213,194.177899318759,4,1,1,65,1,0
77407,193.551508895305,4,1,1,65,1,0
77601,192.929146770848,4,1,1,65,1,0
77794,192.310774211125,4,1,1,65,1,0
77986,191.696352976885,4,1,1,65,1,0
78178,191.085845316008,4,1,1,65,1,0
78369,190.479213955777,4,1,1,65,1,0
78559,189.876422095286,4,1,1,65,1,0
78749,189.277433398003,4,1,1,65,1,0
78938,188.682211984465,4,1,1,65,1,0
79127,188.090722425116,4,1,1,65,1,0
79315,187.502929733277,4,1,1,65,1,0
79503,186.918799358245,4,1,1,65,1,0
79690,186.338297178528,4,1,1,65,1,0
79876,185.761389495193,4,1,1,65,1,0
80062,185.188043025355,4,1,1,65,1,0
80247,184.618224895768,4,1,1,65,1,0
80431,184.051902636544,4,1,1,65,1,0
80616,183.489044174987,4,1,1,65,1,0
80798,182.92961782954,4,1,1,65,1,0
80982,182.373592303834,4,1,1,65,1,0
81164,181.820936680859,4,1,1,65,1,0
81346,181.271620417227,4,1,1,65,1,0
81527,180.72561333755,4,1,1,65,1,0
81708,180.182885628913,4,1,1,65,1,0
81888,179.643407835447,4,1,1,65,1,0
82068,179.107150852998,4,1,1,65,1,0
82247,178.574085923898,4,1,1,65,1,0
82426,178.044184631819,4,1,1,65,1,0
82604,177.517418896729,4,1,1,65,1,0
82782,176.993760969926,4,1,1,65,1,0
82959,176.473183429168,4,1,1,65,1,0
83135,175.955659173888,4,1,1,65,1,0
83311,175.441161420489,4,1,1,65,1,0
83486,174.929663697722,4,1,1,65,1,0
83661,174.421139842149,4,1,1,65,1,0
83835,173.915563993681,4,1,1,65,1,0
84009,173.412910591194,4,1,1,65,1,0
84182,172.913154368219,4,1,1,65,1,0
84355,172.416270348712,4,1,1,65,1,0
84527,171.922233842892,4,1,1,65,1,0
84699,171.431020443149,4,1,1,65,1,0
84870,170.942606020029,4,1,1,65,1,0
85041,170.456966718277,4,1,1,65,1,0
85211,169.97407895296,4,1,1,65,1,0
85381,169.493919405641,4,1,1,65,1,0
85550,169.016465020634,4,1,1,65,1,0
85719,168.541693001306,4,1,1,65,1,0
85888,168.069580806454,4,1,1,70,1,0
86056,167.600106146734,4,1,1,70,1,0
86224,167.133246981156,4,1,1,70,1,0
86391,166.668981513632,4,1,1,70,1,0
86558,166.207288189587,4,1,1,70,1,0
86724,165.74814569262,4,1,1,70,1,0
86890,165.291532941225,4,1,1,70,1,0
87055,164.837429085564,4,1,1,70,1,0
87220,164.385813504295,4,1,1,70,1,0
87384,163.936665801445,4,1,1,70,1,0
87548,163.489965803349,4,1,1,70,1,0
87711,163.045693555619,4,1,1,70,1,0
87874,162.60382932018,4,1,1,70,1,0
88037,162.164353572346,4,1,1,70,1,0
88199,161.727246997938,4,1,1,70,1,0
88361,161.292490490464,4,1,1,70,1,0
88522,160.860065148326,4,1,1,70,1,0
88683,160.429952272089,4,1,1,70,1,0
88843,160.002133361778,4,1,1,70,1,0
89003,159.57659011423,4,1,1,70,1,0
89163,159.153304420483,4,1,1,70,1,0
89322,158.732258363206,4,1,1,70,1,0
89481,158.313434214172,4,1,1,70,1,0
89639,157.896814431769,4,1,1,70,1,0
89797,157.482381658552,4,1,1,70,1,0
89954,157.070118718831,4,1,1,70,1,0
90111,156.6600086163,4,1,1,70,1,0
90268,156.2520345317,4,1,1,70,1,0
90424,155.846179820517,4,1,1,70,1,0
90580,155.442428010726,4,1,1,70,1,0
90735,155.040762800553,4,1,1,70,1,0
90890,154.641168056289,4,1,1,70,1,0
91045,154.243627810126,4,1,1,70,1,0
91199,153.848126258029,4,1,1,70,1,0
91353,153.454647757644,4,1,1,70,1,0
91506,153.063176826235,4,1,1,70,1,0
91659,152.673698138653,4,1,1,70,1,0
91812,152.286196525337,4,1,1,70,1,0
91964,151.900656970341,4,1,1,70,1,0
92116,151.517064609402,4,1,1,70,1,0
92268,151.135404728019,4,1,1,70,1,0
92419,150.755662759582,4,1,1,70,1,0
92570,150.377824283512,4,1,1,70,1,0
92720,150.001875023438,4,1,1,70,1,1
92870,149.627800845397,4,1,1,70,1,0
93020,149.255587756067,4,1,1,70,1,0
93169,148.885221901016,4,1,1,70,1,0
93318,148.51668956299,4,1,1,70,1,0
93467,148.149977160212,4,1,1,70,1,0
93615,147.78507124472,4,1,1,70,1,0
93763,147.421958500719,4,1,1,70,1,0
93910,147.060625742963,4,1,1,70,1,0
94057,146.701059915158,4,1,1,70,1,0
94204,146.343248088391,4,1,1,70,1,0
94350,145.98717745958,4,1,1,70,1,0
94496,145.632835349944,4,1,1,70,1,0
94642,145.280209203501,4,1,1,70,1,0
94787,144.929286585587,4,1,1,70,1,0
94932,144.580055181388,4,1,1,70,1,0
95077,144.232502794505,4,1,1,70,1,0
95221,143.886617345532,4,1,1,70,1,0
95365,143.542386870656,4,1,1,70,1,0
95509,143.199799520281,4,1,1,70,1,0
95652,142.858843557661,4,1,1,70,1,0
95795,142.51950735757,4,1,1,75,1,0
95938,142.181779404969,4,1,1,75,1,0
96080,141.845648293715,4,1,1,75,1,0
96222,141.511102725268,4,1,1,75,1,0
96364,141.178131507429,4,1,1,75,1,0
96505,140.846723553093,4,1,1,75,1,0
96646,140.516867879015,4,1,1,75,1,0
96787,140.188553604598,4,1,1,75,1,0
96927,139.861769950699,4,1,1,75,1,0
97067,139.536506238445,4,1,1,75,1,0
97207,139.212751888073,4,1,1,75,1,0
97346,138.890496417783,4,1,1,75,1,0
97485,138.569729442603,4,1,1,75,1,0
97624,138.25044067328,4,1,1,75,1,0
97762,137.932619915171,4,1,1,75,1,0
97900,137.616257067168,4,1,1,75,1,0
98038,137.301342120619,4,1,1,75,1,0
98175,136.987865158278,4,1,1,75,1,0
98312,136.675816353261,4,1,1,75,1,0
98449,136.365185968022,4,1,1,75,1,0
98585,136.055964353337,4,1,1,75,1,0
98721,135.748141947307,4,1,1,75,1,0
98857,135.441709274371,4,1,1,75,1,0
98992,135.136656944335,4,1,1,75,1,0
99127,134.832975651412,4,1,1,75,1,0
99262,134.530656173275,4,1,1,75,1,0
99397,134.229689370127,4,1,1,75,1,0
99531,133.930066183774,4,1,1,75,1,0
99665,133.631777636722,4,1,1,75,1,0
99799,133.334814831276,4,1,1,75,1,0
99932,133.039168948658,4,1,1,75,1,0
100065,132.744831248133,4,1,1,75,1,0
100198,132.451793066149,4,1,1,75,1,0
100330,132.160045815483,4,1,1,75,1,0
100462,131.869580984406,4,1,1,75,1,0
100594,131.580390135857,4,1,1,75,1,0
100726,131.292464906618,4,1,1,75,1,0
100857,131.005797006518,4,1,1,75,1,0
100988,130.720378217628,4,1,1,75,1,0
101119,130.436200393483,4,1,1,75,1,0
101249,130.153255458302,4,1,1,75,1,0
101379,129.871535406227,4,1,1,75,1,0
101509,129.591032300565,4,1,1,75,1,0
101639,129.311738273042,4,1,1,75,1,0
101768,129.03364552307,4,1,1,75,1,0
101897,128.756746317021,4,1,1,75,1,0
102026,128.481032987505,4,1,1,75,1,0
102154,128.20649793267,4,1,1,75,1,0
102282,127.933133615497,4,1,1,75,1,0
102410,127.660932563112,4,1,1,75,1,0
102538,127.389887366108,4,1,1,75,1,0
102665,127.119990677867,4,1,1,75,1,0
102792,126.851235213903,4,1,1,75,1,0
102919,126.5836137512,4,1,1,75,1,0
103046,126.31711912757,4,1,1,75,1,0
103172,126.051744241011,4,1,1,75,1,0
103298,125.787482049078,4,1,1,75,1,0
103424,125.524325568259,4,1,1,75,1,0
103550,125.26226787336,4,1,1,75,1,0
103675,125.001302096897,4,1,1,75,1,0
103800,124.741421428497,4,1,1,75,1,0
103925,124.482619114306,4,1,1,75,1,0
104049,124.224888456402,4,1,1,75,1,0
104173,123.968222812219,4,1,1,75,1,0
104297,123.712615593975,4,1,1,80,1,0
104421,123.45806026811,4,1,1,80,1,0
104544,123.204550354726,4,1,1,80,1,0
104667,122.952079427043,4,1,1,80,1,0
104790,122.70064111085,4,1,1,80,1,0
104913,122.45022908397,4,1,1,80,1,0
105035,122.200837075734,4,1,1,80,1,0
105157,121.952458866452,4,1,1,80,1,0
105279,121.705088286899,4,1,1,80,1,0
105401,121.458719217806,4,1,1,80,1,0
105522,121.213345589349,4,1,1,80,1,0
105643,120.968961380659,4,1,1,80,1,0
105764,120.725560619322,4,1,1,80,1,0
105885,120.483137380897,4,1,1,80,1,0
106005,120.241685788435,4,1,1,80,1,0
106125,120.001200012,4,1,1,80,1,1
106245,119.761674268206,4,1,1,80,1,0
106365,119.523102819749,4,1,1,80,1,0
106485,119.28547997495,4,1,1,80,1,0
106604,119.048800087302,4,1,1,80,1,0
106723,118.813057555025,4,1,1,80,1,0
106842,118.578246820621,4,1,1,80,1,0
106961,118.344362370438,4,1,1,80,1,0
107079,118.11139873424,4,1,1,80,1,0
107197,117.879350484779,4,1,1,80,1,0
107315,117.648212237375,4,1,1,80,1,0
107433,117.417978649498,4,1,1,80,1,0
107550,117.188644420356,4,1,1,80,1,0
107667,116.96020429049,4,1,1,80,1,0
107784,116.732653041372,4,1,1,80,1,0
107901,116.505985495005,4,1,1,80,1,0
108018,116.280196513532,4,1,1,80,1,0
108134,116.055280998849,4,1,1,80,1,0
108250,115.831233892219,4,1,1,80,1,0
108366,115.608050173894,4,1,1,80,1,0
108482,115.385724862739,4,1,1,80,1,0
108597,115.164253015864,4,1,1,80,1,0
108712,114.943629728254,4,1,1,80,1,0
108827,114.72385013241,4,1,1,80,1,0
108942,114.50490939799,4,1,1,80,1,0
109057,114.286802731455,4,1,1,80,1,0
109171,114.069525375716,4,1,1,80,1,0
109285,113.853072609797,4,1,1,80,1,0
109399,113.637439748482,4,1,1,80,1,0
109513,113.422622141986,4,1,1,80,1,0
109626,113.208615175615,4,1,1,80,1,0
109739,112.995414269438,4,1,1,80,1,0
109852,112.783014877959,4,1,1,80,1,0
109965,112.571412489798,4,1,1,80,1,0
110078,112.360602627365,4,1,1,80,1,0
110190,112.15058084655,4,1,1,80,1,0
110302,111.941342736406,4,1,1,80,1,0
110414,111.732883918845,4,1,1,80,1,0
110526,111.525200048328,4,1,1,80,1,0
110638,111.318286811566,4,1,1,80,1,0
110749,111.112139927222,4,1,1,80,1,0
110860,110.906755145611,4,1,1,80,1,0
110971,110.702128248416,4,1,1,80,1,0
111082,110.498255048389,4,1,1,80,1,0
111192,110.295131389075,4,1,1,80,1,0
111302,110.092753144524,4,1,1,80,1,0
111412,109.891116219013,4,1,1,80,1,0
111522,109.690216546769,4,1,1,80,1,0
111632,109.490050091698,4,1,1,80,1,0
111741,109.290612847112,4,1,1,90,1,0
111850,109.091900835462,4,1,1,90,1,0
111959,108.893910108077,4,1,1,90,1,0
112068,108.696636744898,4,1,1,90,1,0
112177,108.500076854221,4,1,1,90,1,0
112286,108.304226572442,4,1,1,90,1,0
112394,108.109082063802,4,1,1,90,1,0
112502,107.91463952014,4,1,1,90,1,0
112610,107.720895160639,4,1,1,90,1,0
112718,107.527845231588,4,1,1,90,1,0
112826,107.335486006136,4,1,1,90,1,0
112933,107.143813784052,4,1,1,90,1,0
113040,106.952824891487,4,1,1,90,1,0
113147,106.762515680744,4,1,1,90,1,0
113254,106.57288253004,4,1,1,90,1,0
113361,106.383921843279,4,1,1,90,1,0
113467,106.195630049823,4,1,0,90,1,0
113573,106.008003604272,4,1,0,90,1,0
113679,105.821038986234,4,1,0,90,1,0
113785,105.634732700112,4,1,0,90,1,0
113891,105.449081274879,4,1,0,90,1,0
113996,105.264081263871,4,1,0,90,1,0
114101,105.079729244564,4,1,0,90,1,0
114206,104.896021818373,4,1,0,90,1,0
114311,104.712955610433,4,1,0,100,1,1
114348,-100,4,1,1,100,0,0

[HitObjects]
256,312,9915,5,0,0:0:0:0:
236,300,10212,1,0,0:0:0:0:
216,288,10509,1,0,0:0:0:0:
196,276,10803,1,0,0:0:0:0:
176,264,11097,1,0,0:0:0:0:
156,252,11388,1,0,0:0:0:0:
136,240,11679,1,0,0:0:0:0:
116,228,11968,1,0,0:0:0:0:
128,208,12256,5,0,0:0:0:0:
140,188,12542,1,0,0:0:0:0:
152,168,12828,1,0,0:0:0:0:
164,148,13111,1,0,0:0:0:0:
176,128,13394,1,0,0:0:0:0:
188,108,13674,1,0,0:0:0:0:
200,88,13954,1,0,0:0:0:0:
212,68,14232,1,0,0:0:0:0:
232,76,14510,5,0,0:0:0:0:
252,88,14786,1,0,0:0:0:0:
272,100,15061,1,0,0:0:0:0:
292,112,15333,1,0,0:0:0:0:
312,124,15606,1,0,0:0:0:0:
328,136,15876,1,0,0:0:0:0:
348,148,16146,1,0,0:0:0:0:
368,160,16414,1,0,0:0:0:0:
360,180,16683,5,0,0:0:0:0:
348,200,16948,1,0,0:0:0:0:
336,220,17213,1,0,0:0:0:0:
324,240,17477,1,0,0:0:0:0:
312,256,17740,1,0,0:0:0:0:
300,272,18000,1,0,0:0:0:0:
288,288,18261,1,0,0:0:0:0:
276,304,18520,1,0,0:0:0:0:
256,292,18779,5,0,0:0:0:0:
236,280,19035,1,0,0:0:0:0:
216,268,19291,1,0,0:0:0:0:
196,256,19546,1,0,0:0:0:0:
176,244,19800,1,0,0:0:0:0:
156,232,20052,1,0,0:0:0:0:
136,220,20304,1,0,0:0:0:0:
116,208,20554,1,0,0:0:0:0:
128,188,20804,5,0,0:0:0:0:
140,168,21051,1,0,0:0:0:0:
152,148,21299,1,0,0:0:0:0:
164,128,21545,1,0,0:0:0:0:
176,108,21791,1,0,0:0:0:0:
188,88,22035,1,0,0:0:0:0:
200,68,22279,1,0,0:0:0:0:
212,48,22521,1,0,0:0:0:0:
232,56,22763,5,0,0:0:0:0:
252,64,23004,1,0,0:0:0:0:
272,72,23244,1,0,0:0:0:0:
292,80,23482,1,0,0:0:0:0:
312,88,23720,1,0,0:0:0:0:
332,100,23956,1,0,0:0:0:0:
352,108,24192,1,0,0:0:0:0:
372,120,24426,1,0,0:0:0:0:
364,140,24660,5,0,0:0:0:0:
356,160,24893,1,0,0:0:0:0:
348,180,25126,1,0,0:0:0:0:
340,200,25356,1,0,0:0:0:0:
328,220,25587,1,0,0:0:0:0:
316,240,25817,1,0,0:0:0:0:
308,260,26046,1,0,0:0:0:0:
296,280,26273,1,0,0:0:0:0:
276,276,26500,5,0,0:0:0:0:
256,272,26726,1,0,0:0:0:0:
236,268,26952,1,0,0:0:0:0:
216,264,27175,1,0,0:0:0:0:
196,260,27399,1,0,0:0:0:0:
176,256,27622,1,0,0:0:0:0:
156,252,27844,1,0,0:0:0:0:
136,248,28064,1,0,0:0:0:0:
144,228,28285,5,0,0:0:0:0:
152,208,28503,1,0,0:0:0:0:
160,188,28722,1,0,0:0:0:0:
168,168,28940,1,0,0:0:0:0:
176,148,29157,1,0,0:0:0:0:
184,128,29373,1,0,0:0:0:0:
192,108,29589,1,0,0:0:0:0:
200,88,29804,1,0,0:0:0:0:
220,100,30018,5,0,0:0:0:0:
240,112,30231,1,0,0:0:0:0:
260,124,30444,1,0,0:0:0:0:
280,136,30656,1,0,0:0:0:0:
296,148,30867,1,0,0:0:0:0:
316,160,31077,1,0,0:0:0:0:
332,172,31287,1,0,0:0:0:0:
348,184,31496,1,0,0:0:0:0:
332,200,31704,5,0,0:0:0:0:
316,216,31911,1,0,0:0:0:0:
304,232,32118,1,0,0:0:0:0:
288,248,32324,1,0,0:0:0:0:
276,264,32529,1,0,0:0:0:0:
264,280,32734,1,0,0:0:0:0:
248,296,32938,1,0,0:0:0:0:
236,312,33140,1,0,0:0:0:0:
216,300,33343,5,0,0:0:0:0:
196,288,33544,1,0,0:0:0:0:
180,276,33745,1,0,0:0:0:0:
160,264,33946,1,0,0:0:0:0:
144,252,34146,1,0,0:0:0:0:
128,240,34344,1,0,0:0:0:0:
108,228,34543,1,0,0:0:0:0:
92,216,34740,1,0,0:0:0:0:
104,200,34937,5,0,0:0:0:0:
120,184,35134,1,0,0:0:0:0:
132,168,35330,1,0,0:0:0:0:
144,152,35524,1,0,0:0:0:0:
156,136,35719,1,0,0:0:0:0:
172,120,35913,1,0,0:0:0:0:
184,104,36107,1,0,0:0:0:0:
196,88,36299,1,0,0:0:0:0:
216,100,36491,5,0,0:0:0:0:
236,112,36683,1,0,0:0:0:0:
256,124,36874,1,0,0:0:0:0:
272,136,37063,1,0,0:0:0:0:
288,148,37253,1,0,0:0:0:0:
308,160,37442,1,0,0:0:0:0:
328,172,37631,1,0,0:0:0:0:
344,184,37818,1,0,0:0:0:0:
332,200,38006,5,0,0:0:0:0:
320,216,38192,1,0,0:0:0:0:
308,232,38378,1,0,0:0:0:0:
296,248,38564,1,0,0:0:0:0:
284,264,38749,1,0,0:0:0:0:
272,280,38933,1,0,0:0:0:0:
260,296,39117,1,0,0:0:0:0:
248,312,39299,1,0,0:0:0:0:
228,300,39482,5,0,0:0:0:0:
208,288,39664,1,0,0:0:0:0:
188,276,39846,1,0,0:0:0:0:
168,264,40027,1,0,0:0:0:0:
152,252,40208,1,0,0:0:0:0:
136,240,40387,1,0,0:0:0:0:
120,228,40567,1,0,0:0:0:0:
104,216,40745,1,0,0:0:0:0:
120,200,40924,5,0,0:0:0:0:
136,184,41101,1,0,0:0:0:0:
152,168,41279,1,0,0:0:0:0:
168,152,41455,1,0,0:0:0:0:
184,136,41631,1,0,0:0:0:0:
200,120,41807,1,0,0:0:0:0:
216,104,41982,1,0,0:0:0:0:
228,88,42157,1,0,0:0:0:0:
244,100,42331,5,0,0:0:0:0:
260,112,42505,1,0,0:0:0:0:
276,124,42678,1,0,0:0:0:0:
292,136,42851,1,0,0:0:0:0:
308,148,43023,1,0,0:0:0:0:
324,160,43195,1,0,0:0:0:0:
340,172,43366,1,0,0:0:0:0:
356,188,43537,1,0,0:0:0:0:
344,208,43707,5,0,0:0:0:0:
332,228,43877,1,0,0:0:0:0:
320,248,44046,1,0,0:0:0:0:
308,268,44215,1,0,0:0:0:0:
296,288,44384,1,0,0:0:0:0:
284,308,44551,1,0,0:0:0:0:
272,328,44719,1,0,0:0:0:0:
260,344,44885,1,0,0:0:0:0:
240,336,45052,5,0,0:0:0:0:
220,328,45217,1,0,0:0:0:0:
200,320,45383,1,0,0:0:0:0:
180,312,45548,1,0,0:0:0:0:
160,304,45713,1,0,0:0:0:0:
140,296,45877,1,0,0:0:0:0:
120,288,46041,1,0,0:0:0:0:
100,280,46205,1,0,0:0:0:0:
108,260,46368,5,0,0:0:0:0:
116,240,46530,1,0,0:0:0:0:
124,220,46692,1,0,0:0:0:0:
132,200,46853,1,0,0:0:0:0:
140,180,47014,1,0,0:0:0:0:
148,160,47175,1,0,0:0:0:0:
156,140,47335,1,0,0:0:0:0:
164,120,47495,1,0,0:0:0:0:
184,124,47655,5,0,0:0:0:0:
204,128,47813,1,0,0:0:0:0:
224,132,47972,1,0,0:0:0:0:
244,136,48129,1,0,0:0:0:0:
264,140,48287,1,0,0:0:0:0:
284,144,48445,1,0,0:0:0:0:
304,148,48602,1,0,0:0:0:0:
324,152,48758,1,0,0:0:0:0:
316,172,48914,5,0,0:0:0:0:
308,192,49070,1,0,0:0:0:0:
300,212,49225,1,0,0:0:0:0:
292,232,49380,1,0,0:0:0:0:
284,252,49535,1,0,0:0:0:0:
276,272,49688,1,0,0:0:0:0:
268,292,49842,1,0,0:0:0:0:
260,312,49996,1,0,0:0:0:0:
244,300,50149,5,0,0:0:0:0:
228,288,50301,1,0,0:0:0:0:
212,276,50453,1,0,0:0:0:0:
196,264,50605,1,0,0:0:0:0:
180,252,50757,1,0,0:0:0:0:
164,240,50907,1,0,0:0:0:0:
148,228,51058,1,0,0:0:0:0:
132,216,51209,1,0,0:0:0:0:
148,200,51359,5,0,0:0:0:0:
164,184,51508,1,0,0:0:0:0:
180,168,51657,1,0,0:0:0:0:
196,152,51806,1,0,0:0:0:0:
212,136,51955,1,0,0:0:0:0:
228,120,52102,1,0,0:0:0:0:
244,104,52250,1,0,0:0:0:0:
256,88,52398,1,0,0:0:0:0:
276,100,52545,5,0,0:0:0:0:
296,112,52691,1,0,0:0:0:0:
316,124,52837,1,0,0:0:0:0:
336,136,52983,1,0,0:0:0:0:
356,148,53129,1,0,0:0:0:0:
372,160,53273,1,0,0:0:0:0:
388,172,53418,1,0,0:0:0:0:
404,184,53563,1,0,0:0:0:0:
388,200,53707,5,0,0:0:0:0:
372,216,53850,1,0,0:0:0:0:
356,232,53994,1,0,0:0:0:0:
340,248,54136,1,0,0:0:0:0:
324,264,54279,1,0,0:0:0:0:
308,280,54422,1,0,0:0:0:0:
292,296,54564,1,0,0:0:0:0:
276,312,54705,1,0,0:0:0:0:
256,300,54847,5,0,0:0:0:0:
236,288,54987,1,0,0:0:0:0:
216,276,55128,1,0,0:0:0:0:
196,264,55269,1,0,0:0:0:0:
176,252,55409,1,0,0:0:0:0:
156,240,55548,1,0,0:0:0:0:
136,228,55688,1,0,0:0:0:0:
116,216,55826,1,0,0:0:0:0:
132,200,55965,5,0,0:0:0:0:
148,184,56104,1,0,0:0:0:0:
164,168,56242,1,0,0:0:0:0:
180,152,56380,1,0,0:0:0:0:
196,136,56518,1,0,0:0:0:0:
212,120,56654,1,0,0:0:0:0:
224,104,56791,1,0,0:0:0:0:
240,88,56928,1,0,0:0:0:0:
260,100,57064,5,0,0:0:0:0:
280,112,57200,1,0,0:0:0:0:
300,124,57336,1,0,0:0:0:0:
320,136,57471,1,0,0:0:0:0:
340,148,57606,1,0,0:0:0:0:
360,156,57740,1,0,0:0:0:0:
380,168,57875,1,0,0:0:0:0:
400,180,58008,1,0,0:0:0:0:
388,200,58142,5,0,0:0:0:0:
376,220,58276,1,0,0:0:0:0:
364,236,58409,1,0,0:0:0:0:
352,252,58542,1,0,0:0:0:0:
340,268,58675,1,0,0:0:0:0:
328,284,58807,1,0,0:0:0:0:
316,304,58939,1,0,0:0:0:0:
304,320,59070,1,0,0:0:0:0:
284,312,59202,5,0,0:0:0:0:
264,304,59333,1,0,0:0:0:0:
244,296,59464,1,0,0:0:0:0:
224,288,59594,1,0,0:0:0:0:
204,280,59724,1,0,0:0:0:0:
184,276,59854,1,0,0:0:0:0:
164,268,59984,1,0,0:0:0:0:
144,264,60114,1,0,0:0:0:0:
156,244,60243,5,0,0:0:0:0:
168,224,60372,1,0,0:0:0:0:
180,204,60501,1,0,0:0:0:0:
192,184,60630,1,0,0:0:0:0:
204,164,60758,1,0,0:0:0:0:
216,144,60885,1,0,0:0:0:0:
228,124,61013,1,0,0:0:0:0:
240,104,61140,1,0,0:0:0:0:
260,116,61267,5,0,0:0:0:0:
280,128,61393,1,0,0:0:0:0:
300,140,61520,1,0,0:0:0:0:
320,152,61646,1,0,0:0:0:0:
340,164,61772,1,0,0:0:0:0:
360,176,61897,1,0,0:0:0:0:
380,188,62023,1,0,0:0:0:0:
400,200,62148,1,0,0:0:0:0:
384,216,62273,5,0,0:0:0:0:
368,232,62397,1,0,0:0:0:0:
352,248,62521,1,0,0:0:0:0:
336,264,62645,1,0,0:0:0:0:
320,280,62769,1,0,0:0:0:0:
304,296,62892,1,0,0:0:0:0:
288,312,63015,1,0,0:0:0:0:
272,328,63139,1,0,0:0:0:0:
256,316,63262,5,0,0:0:0:0:
240,300,63385,1,0,0:0:0:0:
224,288,63507,1,0,0:0:0:0:
208,272,63629,1,0,0:0:0:0:
192,260,63751,1,0,0:0:0:0:
176,248,63873,1,0,0:0:0:0:
160,236,63994,1,0,0:0:0:0:
144,220,64115,1,0,0:0:0:0:
160,204,64236,5,0,0:0:0:0:
176,188,64357,1,0,0:0:0:0:
192,172,64477,1,0,0:0:0:0:
208,156,64598,1,0,0:0:0:0:
224,140,64718,1,0,0:0:0:0:
240,124,64837,1,0,0:0:0:0:
256,108,64957,1,0,0:0:0:0:
272,92,65076,1,0,0:0:0:0:
288,108,65195,5,0,0:0:0:0:
304,124,65313,1,0,0:0:0:0:
320,140,65432,1,0,0:0:0:0:
336,156,65550,1,0,0:0:0:0:
352,172,65668,1,0,0:0:0:0:
368,188,65785,1,0,0:0:0:0:
384,204,65903,1,0,0:0:0:0:
396,220,66020,1,0,0:0:0:0:
380,232,66137,5,0,0:0:0:0:
364,244,66253,1,0,0:0:0:0:
348,256,66370,1,0,0:0:0:0:
332,268,66486,1,0,0:0:0:0:
316,280,66602,1,0,0:0:0:0:
300,292,66717,1,0,0:0:0:0:
284,304,66833,1,0,0:0:0:0:
268,316,66950,1,0,0:0:0:0:
252,300,67065,5,0,0:0:0:0:
236,284,67180,1,0,0:0:0:0:
220,268,67295,1,0,0:0:0:0:
204,252,67410,1,0,0:0:0:0:
188,236,67525,1,0,0:0:0:0:
172,220,67639,1,0,0:0:0:0:
156,204,67753,1,0,0:0:0:0:
140,188,67866,1,0,0:0:0:0:
160,176,67980,5,0,0:0:0:0:
180,164,68093,1,0,0:0:0:0:
196,152,68206,1,0,0:0:0:0:
212,140,68318,1,0,0:0:0:0:
232,128,68431,1,0,0:0:0:0:
248,116,68544,1,0,0:0:0:0:
264,104,68656,1,0,0:0:0:0:
284,92,68768,1,0,0:0:0:0:
296,112,68880,5,0,0:0:0:0:
308,132,68992,1,0,0:0:0:0:
320,152,69104,1,0,0:0:0:0:
332,172,69215,1,0,0:0:0:0:
344,192,69326,1,0,0:0:0:0:
356,212,69436,1,0,0:0:0:0:
368,232,69547,1,0,0:0:0:0:
380,252,69657,1,0,0:0:0:0:
360,260,69767,5,0,0:0:0:0:
340,268,69877,1,0,0:0:0:0:
320,276,69987,1,0,0:0:0:0:
300,284,70097,1,0,0:0:0:0:
280,296,70206,1,0,0:0:0:0:
260,304,70316,1,0,0:0:0:0:
240,316,70425,1,0,0:0:0:0:
220,324,70533,1,0,0:0:0:0:
208,308,70642,5,0,0:0:0:0:
196,292,70750,1,0,0:0:0:0:
184,276,70858,1,0,0:0:0:0:
172,260,70966,1,0,0:0:0:0:
160,244,71074,1,0,0:0:0:0:
148,228,71182,1,0,0:0:0:0:
136,212,71290,1,0,0:0:0:0:
124,196,71397,1,0,0:0:0:0:
144,184,71504,5,0,0:0:0:0:
164,172,71610,1,0,0:0:0:0:
184,160,71717,1,0,0:0:0:0:
204,148,71824,1,0,0:0:0:0:
224,136,71930,1,0,0:0:0:0:
244,124,72037,1,0,0:0:0:0:
264,112,72143,1,0,0:0:0:0:
284,100,72248,1,0,0:0:0:0:
300,116,72354,5,0,0:0:0:0:
316,132,72459,1,0,0:0:0:0:
332,148,72564,1,0,0:0:0:0:
348,164,72669,1,0,0:0:0:0:
364,180,72774,1,0,0:0:0:0:
376,196,72879,1,0,0:0:0:0:
392,212,72984,1,0,0:0:0:0:
404,228,73088,1,0,0:0:0:0:
384,240,73192,5,0,0:0:0:0:
364,252,73295,1,0,0:0:0:0:
344,264,73399,1,0,0:0:0:0:
324,276,73503,1,0,0:0:0:0:
304,288,73606,1,0,0:0:0:0:
284,300,73710,1,0,0:0:0:0:
264,312,73813,1,0,0:0:0:0:
248,324,73915,1,0,0:0:0:0:
232,308,74018,5,0,0:0:0:0:
220,292,74120,1,0,0:0:0:0:
204,276,74222,1,0,0:0:0:0:
188,260,74325,1,0,0:0:0:0:
176,244,74427,1,0,0:0:0:0:
164,228,74528,1,0,0:0:0:0:
152,212,74630,1,0,0:0:0:0:
140,196,74731,1,0,0:0:0:0:
156,180,74832,5,0,0:0:0:0:
172,164,74934,1,0,0:0:0:0:
188,148,75035,1,0,0:0:0:0:
204,136,75135,1,0,0:0:0:0:
220,120,75236,1,0,0:0:0:0:
236,108,75336,1,0,0:0:0:0:
252,96,75436,1,0,0:0:0:0:
268,80,75537,1,0,0:0:0:0:
284,92,75637,5,0,0:0:0:0:
300,104,75736,1,0,0:0:0:0:
316,120,75836,1,0,0:0:0:0:
332,132,75935,1,0,0:0:0:0:
348,144,76034,1,0,0:0:0:0:
364,160,76134,1,0,0:0:0:0:
380,172,76233,1,0,0:0:0:0:
396,184,76331,1,0,0:0:0:0:
384,200,76430,5,0,0:0:0:0:
372,216,76528,1,0,0:0:0:0:
360,232,76626,1,0,0:0:0:0:
344,248,76725,1,0,0:0:0:0:
332,264,76823,1,0,0:0:0:0:
320,280,76920,1,0,0:0:0:0:
304,296,77018,1,0,0:0:0:0:
292,312,77115,1,0,0:0:0:0:
272,300,77212,5,0,0:0:0:0:
252,288,77310,1,0,0:0:0:0:
236,276,77407,1,0,0:0:0:0:
220,264,77503,1,0,0:0:0:0:
200,252,77600,1,0,0:0:0:0:
184,240,77697,1,0,0:0:0:0:
168,228,77793,1,0,0:0:0:0:
148,216,77890,1,0,0:0:0:0:
160,196,77986,5,0,0:0:0:0:
172,180,78081,1,0,0:0:0:0:
184,164,78177,1,0,0:0:0:0:
196,144,78273,1,0,0:0:0:0:
208,128,78369,1,0,0:0:0:0:
220,112,78464,1,0,0:0:0:0:
232,96,78559,1,0,0:0:0:0:
244,80,78653,1,0,0:0:0:0:
260,96,78748,5,0,0:0:0:0:
276,112,78843,1,0,0:0:0:0:
292,128,78938,1,0,0:0:0:0:
308,144,79032,1,0,0:0:0:0:
324,160,79126,1,0,0:0:0:0:
336,176,79221,1,0,0:0:0:0:
348,192,79315,1,0,0:0:0:0:
360,208,79408,1,0,0:0:0:0:
340,220,79502,5,0,0:0:0:0:
320,232,79596,1,0,0:0:0:0:
300,244,79689,1,0,0:0:0:0:
280,256,79783,1,0,0:0:0:0:
260,268,79876,1,0,0:0:0:0:
244,280,79968,1,0,0:0:0:0:
224,292,80061,1,0,0:0:0:0:
208,304,80154,1,0,0:0:0:0:
196,284,80247,5,0,0:0:0:0:
184,264,80339,1,0,0:0:0:0:
172,244,80431,1,0,0:0:0:0:
160,224,80523,1,0,0:0:0:0:
148,208,80615,1,0,0:0:0:0:
136,188,80707,1,0,0:0:0:0:
124,172,80798,1,0,0:0:0:0:
112,156,80889,1,0,0:0:0:0:
132,144,80980,5,0,0:0:0:0:
152,132,81073,1,0,0:0:0:0:
168,120,81164,1,0,0:0:0:0:
184,108,81254,1,0,0:0:0:0:
200,96,81345,1,0,0:0:0:0:
220,84,81436,1,0,0:0:0:0:
236,72,81527,1,0,0:0:0:0:
252,60,81617,1,0,0:0:0:0:
268,76,81707,5,0,0:0:0:0:
284,92,81798,1,0,0:0:0:0:
300,108,81888,1,0,0:0:0:0:
316,124,81977,1,0,0:0:0:0:
332,140,82067,1,0,0:0:0:0:
348,156,82157,1,0,0:0:0:0:
364,172,82247,1,0,0:0:0:0:
376,188,82336,1,0,0:0:0:0:
364,204,82425,5,0,0:0:0:0:
352,220,82515,1,0,0:0:0:0:
340,236,82604,1,0,0:0:0:0:
328,252,82692,1,0,0:0:0:0:
316,268,82781,1,0,0:0:0:0:
304,284,82870,1,0,0:0:0:0:
292,300,82958,1,0,0:0:0:0:
280,316,83047,1,0,0:0:0:0:
260,304,83135,5,0,0:0:0:0:
244,292,83222,1,0,0:0:0:0:
224,280,83310,1,0,0:0:0:0:
208,268,83398,1,0,0:0:0:0:
188,256,83486,1,0,0:0:0:0:
172,244,83573,1,0,0:0:0:0:
156,232,83660,1,0,0:0:0:0:
140,220,83748,1,0,0:0:0:0:
152,204,83835,5,0,0:0:0:0:
164,188,83921,1,0,0:0:0:0:
176,172,84008,1,0,0:0:0:0:
192,156,84095,1,0,0:0:0:0:
204,140,84182,1,0,0:0:0:0:
216,124,84268,1,0,0:0:0:0:
228,108,84354,1,0,0:0:0:0:
244,92,84441,1,0,0:0:0:0:
260,108,84527,5,0,0:0:0:0:
276,124,84612,1,0,0:0:0:0:
292,140,84698,1,0,0:0:0:0:
308,156,84784,1,0,0:0:0:0:
324,172,84870,1,0,0:0:0:0:
340,188,84955,1,0,0:0:0:0:
356,204,85040,1,0,0:0:0:0:
372,220,85126,1,0,0:0:0:0:
356,236,85211,5,0,0:0:0:0:
340,252,85295,1,0,0:0:0:0:
324,268,85380,1,0,0:0:0:0:
308,284,85465,1,0,0:0:0:0:
292,300,85550,1,0,0:0:0:0:
276,316,85634,1,0,0:0:0:0:
260,332,85719,1,0,0:0:0:0:
244,348,85803,1,0,0:0:0:0:
228,332,85887,5,0,0:0:0:0:
212,316,85972,1,0,0:0:0:0:
196,300,86056,1,0,0:0:0:0:
180,284,86139,1,0,0:0:0:0:
164,268,86223,1,0,0:0:0:0:
148,252,86307,1,0,0:0:0:0:
132,236,86391,1,0,0:0:0:0:
116,220,86474,1,0,0:0:0:0:
132,208,86557,5,0,0:0:0:0:
148,196,86641,1,0,0:0:0:0:
164,184,86724,1,0,0:0:0:0:
180,172,86806,1,0,0:0:0:0:
196,160,86889,1,0,0:0:0:0:
212,148,86972,1,0,0:0:0:0:
228,136,87055,1,0,0:0:0:0:
244,124,87137,1,0,0:0:0:0:
260,140,87219,5,0,0:0:0:0:
276,156,87302,1,0,0:0:0:0:
292,172,87384,1,0,0:0:0:0:
308,184,87465,1,0,0:0:0:0:
324,196,87547,1,0,0:0:0:0:
340,212,87629,1,0,0:0:0:0:
356,224,87711,1,0,0:0:0:0:
372,236,87792,1,0,0:0:0:0:
356,248,87874,5,0,0:0:0:0:
340,260,87955,1,0,0:0:0:0:
324,272,88036,1,0,0:0:0:0:
308,284,88118,1,0,0:0:0:0:
292,296,88199,1,0,0:0:0:0:
276,308,88279,1,0,0:0:0:0:
260,320,88360,1,0,0:0:0:0:
244,336,88441,1,0,0:0:0:0:
228,320,88522,5,0,0:0:0:0:
212,304,88602,1,0,0:0:0:0:
196,288,88682,1,0,0:0:0:0:
180,272,88763,1,0,0:0:0:0:
164,256,88843,1,0,0:0:0:0:
148,240,88923,1,0,0:0:0:0:
132,224,89003,1,0,0:0:0:0:
120,208,89082,1,0,0:0:0:0:
136,192,89162,5,0,0:0:0:0:
152,176,89242,1,0,0:0:0:0:
168,160,89322,1,0,0:0:0:0:
184,144,89401,1,0,0:0:0:0:
200,128,89480,1,0,0:0:0:0:
216,112,89560,1,0,0:0:0:0:
228,96,89639,1,0,0:0:0:0:
240,80,89717,1,0,0:0:0:0:
256,92,89796,5,0,0:0:0:0:
272,104,89875,1,0,0:0:0:0:
288,116,89954,1,0,0:0:0:0:
304,128,90032,1,0,0:0:0:0:
320,144,90111,1,0,0:0:0:0:
336,156,90189,1,0,0:0:0:0:
352,168,90267,1,0,0:0:0:0:
368,184,90346,1,0,0:0:0:0:
352,200,90424,5,0,0:0:0:0:
336,216,90501,1,0,0:0:0:0:
320,232,90579,1,0,0:0:0:0:
304,248,90657,1,0,0:0:0:0:
288,264,90735,1,0,0:0:0:0:
272,280,90812,1,0,0:0:0:0:
256,296,90890,1,0,0:0:0:0:
240,312,90967,1,0,0:0:0:0:
224,296,91044,5,0,0:0:0:0:
208,280,91122,1,0,0:0:0:0:
192,264,91199,1,0,0:0:0:0:
176,248,91275,1,0,0:0:0:0:
160,232,91352,1,0,0:0:0:0:
144,216,91429,1,0,0:0:0:0:
128,200,91506,1,0,0:0:0:0:
112,184,91582,1,0,0:0:0:0:
128,172,91659,5,0,0:0:0:0:
144,160,91735,1,0,0:0:0:0:
160,148,91811,1,0,0:0:0:0:
176,136,91888,1,0,0:0:0:0:
192,124,91964,1,0,0:0:0:0:
208,112,92039,1,0,0:0:0:0:
224,96,92115,1,0,0:0:0:0:
240,84,92191,1,0,0:0:0:0:
256,100,92267,5,0,0:0:0:0:
272,116,92343,1,0,0:0:0:0:
288,132,92419,1,0,0:0:0:0:
304,148,92494,1,0,0:0:0:0:
320,164,92569,1,0,0:0:0:0:
336,180,92645,1,0,0:0:0:0:
352,192,92720,1,0,0:0:0:0:
368,208,92795,1,0,0:0:0:0:
352,220,92870,5,0,0:0:0:0:
336,232,92944,1,0,0:0:0:0:
320,244,93019,1,0,0:0:0:0:
304,256,93094,1,0,0:0:0:0:
288,268,93169,1,0,0:0:0:0:
272,280,93243,1,0,0:0:0:0:
256,292,93317,1,0,0:0:0:0:
240,304,93392,1,0,0:0:0:0:
224,288,93466,5,0,0:0:0:0:
208,272,93541,1,0,0:0:0:0:
196,256,93615,1,0,0:0:0:0:
184,240,93688,1,0,0:0:0:0:
168,224,93762,1,0,0:0:0:0:
156,208,93836,1,0,0:0:0:0:
140,192,93910,1,0,0:0:0:0:
128,176,93983,1,0,0:0:0:0:
148,164,94057,5,0,0:0:0:0:
164,152,94130,1,0,0:0:0:0:
180,140,94203,1,0,0:0:0:0:
200,128,94277,1,0,0:0:0:0:
216,116,94350,1,0,0:0:0:0:
232,104,94422,1,0,0:0:0:0:
252,92,94495,1,0,0:0:0:0:
268,80,94568,1,0,0:0:0:0:
280,96,94641,5,0,0:0:0:0:
292,112,94714,1,0,0:0:0:0:
304,128,94787,1,0,0:0:0:0:
316,144,94859,1,0,0:0:0:0:
328,160,94931,1,0,0:0:0:0:
340,176,95004,1,0,0:0:0:0:
352,192,95076,1,0,0:0:0:0:
364,208,95149,1,0,0:0:0:0:
352,228,95221,5,0,0:0:0:0:
340,244,95292,1,0,0:0:0:0:
328,264,95364,1,0,0:0:0:0:
316,284,95436,1,0,0:0:0:0:
304,300,95508,1,0,0:0:0:0:
292,316,95580,1,0,0:0:0:0:
280,336,95652,1,0,0:0:0:0:
268,352,95723,1,0,0:0:0:0:
248,340,95794,5,0,0:0:0:0:
228,328,95866,1,0,0:0:0:0:
208,316,95937,1,0,0:0:0:0:
188,304,96009,1,0,0:0:0:0:
172,292,96080,1,0,0:0:0:0:
156,280,96150,1,0,0:0:0:0:
136,268,96221,1,0,0:0:0:0:
120,256,96292,1,0,0:0:0:0:
128,236,96363,5,0,0:0:0:0:
136,216,96434,1,0,0:0:0:0:
144,196,96505,1,0,0:0:0:0:
152,176,96575,1,0,0:0:0:0:
160,156,96645,1,0,0:0:0:0:
168,136,96716,1,0,0:0:0:0:
176,116,96786,1,0,0:0:0:0:
184,96,96857,1,0,0:0:0:0:
204,104,96927,5,0,0:0:0:0:
224,112,96996,1,0,0:0:0:0:
244,116,97066,1,0,0:0:0:0:
264,124,97136,1,0,0:0:0:0:
284,128,97206,1,0,0:0:0:0:
304,136,97276,1,0,0:0:0:0:
324,140,97346,1,0,0:0:0:0:
344,144,97415,1,0,0:0:0:0:
340,164,97484,5,0,0:0:0:0:
336,184,97554,1,0,0:0:0:0:
332,204,97623,1,0,0:0:0:0:
328,224,97693,1,0,0:0:0:0:
324,244,97762,1,0,0:0:0:0:
320,264,97830,1,0,0:0:0:0:
316,284,97899,1,0,0:0:0:0:
312,304,97968,1,0,0:0:0:0:
292,300,98037,5,0,0:0:0:0:
272,296,98106,1,0,0:0:0:0:
248,292,98175,1,0,0:0:0:0:
228,288,98243,1,0,0:0:0:0:
208,284,98311,1,0,0:0:0:0:
188,280,98380,1,0,0:0:0:0:
168,276,98448,1,0,0:0:0:0:
148,272,98517,1,0,0:0:0:0:
156,252,98585,5,0,0:0:0:0:
164,232,98653,1,0,0:0:0:0:
172,212,98721,1,0,0:0:0:0:
180,192,98788,1,0,0:0:0:0:
188,172,98856,1,0,0:0:0:0:
196,152,98924,1,0,0:0:0:0:
204,132,98992,1,0,0:0:0:0:
208,112,99059,1,0,0:0:0:0:
228,120,99127,5,0,0:0:0:0:
248,128,99194,1,0,0:0:0:0:
268,136,99261,1,0,0:0:0:0:
288,144,99329,1,0,0:0:0:0:
308,152,99396,1,0,0:0:0:0:
328,160,99464,1,0,0:0:0:0:
348,172,99531,1,0,0:0:0:0:
368,180,99597,1,0,0:0:0:0:
356,200,99664,5,0,0:0:0:0:
344,220,99731,1,0,0:0:0:0:
332,236,99798,1,0,0:0:0:0:
320,252,99865,1,0,0:0:0:0:
308,272,99932,1,0,0:0:0:0:
296,288,99998,1,0,0:0:0:0:
284,304,100065,1,0,0:0:0:0:
272,320,100131,1,0,0:0:0:0:
252,312,100197,5,0,0:0:0:0:
232,304,100264,1,0,0:0:0:0:
212,296,100330,1,0,0:0:0:0:
192,288,100396,1,0,0:0:0:0:
172,280,100462,1,0,0:0:0:0:
152,272,100527,1,0,0:0:0:0:
132,264,100593,1,0,0:0:0:0:
112,256,100659,1,0,0:0:0:0:
124,240,100725,5,0,0:0:0:0:
136,224,100791,1,0,0:0:0:0:
148,208,100857,1,0,0:0:0:0:
160,192,100922,1,0,0:0:0:0:
176,176,100988,1,0,0:0:0:0:
188,160,101053,1,0,0:0:0:0:
200,144,101118,1,0,0:0:0:0:
212,128,101184,1,0,0:0:0:0:
232,140,101249,5,0,0:0:0:0:
252,152,101314,1,0,0:0:0:0:
272,164,101379,1,0,0:0:0:0:
292,176,101443,1,0,0:0:0:0:
312,188,101508,1,0,0:0:0:0:
332,200,101573,1,0,0:0:0:0:
352,212,101638,1,0,0:0:0:0:
372,224,101703,1,0,0:0:0:0:
356,240,101768,5,0,0:0:0:0:
340,256,101832,1,0,0:0:0:0:
324,272,101897,1,0,0:0:0:0:
308,288,101961,1,0,0:0:0:0:
292,304,102025,1,0,0:0:0:0:
276,320,102090,1,0,0:0:0:0:
260,336,102154,1,0,0:0:0:0:
244,352,102218,1,0,0:0:0:0:
228,336,102282,5,0,0:0:0:0:
212,320,102345,1,0,0:0:0:0:
196,304,102409,1,0,0:0:0:0:
180,288,102473,1,0,0:0:0:0:
164,272,102537,1,0,0:0:0:0:
148,256,102601,1,0,0:0:0:0:
132,240,102665,1,0,0:0:0:0:
116,224,102728,1,0,0:0:0:0:
132,208,102792,5,0,0:0:0:0:
144,192,102855,1,0,0:0:0:0:
156,176,102918,1,0,0:0:0:0:
172,160,102982,1,0,0:0:0:0:
184,144,103045,1,0,0:0:0:0:
196,128,103109,1,0,0:0:0:0:
212,112,103172,1,0,0:0:0:0:
224,96,103235,1,0,0:0:0:0:
244,104,103298,5,0,0:0:0:0:
264,112,103360,1,0,0:0:0:0:
284,120,103423,1,0,0:0:0:0:
304,128,103486,1,0,0:0:0:0:
324,136,103549,1,0,0:0:0:0:
344,144,103612,1,0,0:0:0:0:
364,152,103675,1,0,0:0:0:0:
384,160,103737,1,0,0:0:0:0:
376,180,103800,5,0,0:0:0:0:
368,200,103862,1,0,0:0:0:0:
360,220,103924,1,0,0:0:0:0:
352,240,103987,1,0,0:0:0:0:
344,260,104049,1,0,0:0:0:0:
336,280,104111,1,0,0:0:0:0:
328,300,104173,1,0,0:0:0:0:
320,320,104234,1,0,0:0:0:0:
300,312,104296,5,0,0:0:0:0:
280,304,104358,1,0,0:0:0:0:
260,296,104420,1,0,0:0:0:0:
240,284,104482,1,0,0:0:0:0:
220,276,104544,1,0,0:0:0:0:
200,268,104605,1,0,0:0:0:0:
180,256,104667,1,0,0:0:0:0:
160,244,104728,1,0,0:0:0:0:
168,224,104789,5,0,0:0:0:0:
176,204,104851,1,0,0:0:0:0:
184,184,104912,1,0,0:0:0:0:
192,164,104974,1,0,0:0:0:0:
200,144,105035,1,0,0:0:0:0:
208,124,105096,1,0,0:0:0:0:
216,104,105157,1,0,0:0:0:0:
224,84,105217,1,0,0:0:0:0:
240,96,105278,5,0,0:0:0:0:
256,108,105339,1,0,0:0:0:0:
272,120,105400,1,0,0:0:0:0:
288,132,105461,1,0,0:0:0:0:
304,148,105522,1,0,0:0:0:0:
320,160,105582,1,0,0:0:0:0:
336,172,105643,1,0,0:0:0:0:
352,184,105703,1,0,0:0:0:0:
340,200,105763,5,0,0:0:0:0:
328,220,105824,1,0,0:0:0:0:
316,236,105884,1,0,0:0:0:0:
304,256,105945,1,0,0:0:0:0:
292,272,106005,1,0,0:0:0:0:
280,288,106065,1,0,0:0:0:0:
268,304,106125,1,0,0:0:0:0:
256,324,106185,1,0,0:0:0:0:
240,308,106245,5,0,0:0:0:0:
224,292,106304,1,0,0:0:0:0:
208,276,106364,1,0,0:0:0:0:
192,260,106424,1,0,0:0:0:0:
176,248,106484,1,0,0:0:0:0:
160,236,106544,1,0,0:0:0:0:
144,220,106604,1,0,0:0:0:0:
128,204,106663,1,0,0:0:0:0:
140,188,106723,5,0,0:0:0:0:
152,172,106782,1,0,0:0:0:0:
164,156,106841,1,0,0:0:0:0:
176,140,106901,1,0,0:0:0:0:
188,124,106960,1,0,0:0:0:0:
200,108,107020,1,0,0:0:0:0:
212,92,107079,1,0,0:0:0:0:
224,76,107138,1,0,0:0:0:0:
240,88,107197,5,0,0:0:0:0:
256,100,107255,1,0,0:0:0:0:
272,112,107314,1,0,0:0:0:0:
288,124,107373,1,0,0:0:0:0:
304,136,107432,1,0,0:0:0:0:
320,148,107491,1,0,0:0:0:0:
336,160,107550,1,0,0:0:0:0:
352,172,107608,1,0,0:0:0:0:
344,192,107667,5,0,0:0:0:0:
336,212,107725,1,0,0:0:0:0:
328,232,107783,1,0,0:0:0:0:
320,252,107842,1,0,0:0:0:0:
312,272,107900,1,0,0:0:0:0:
304,292,107959,1,0,0:0:0:0:
296,312,108018,1,0,0:0:0:0:
288,332,108076,1,0,0:0:0:0:
268,324,108134,5,0,0:0:0:0:
248,316,108192,1,0,0:0:0:0:
228,308,108250,1,0,0:0:0:0:
208,300,108307,1,0,0:0:0:0:
188,288,108365,1,0,0:0:0:0:
168,280,108423,1,0,0:0:0:0:
148,268,108481,1,0,0:0:0:0:
128,256,108539,1,0,0:0:0:0:
140,236,108597,5,0,0:0:0:0:
152,216,108654,1,0,0:0:0:0:
164,196,108712,1,0,0:0:0:0:
176,176,108769,1,0,0:0:0:0:
188,156,108826,1,0,0:0:0:0:
200,136,108884,1,0,0:0:0:0:
212,116,108941,1,0,0:0:0:0:
224,96,108999,1,0,0:0:0:0:
244,108,109056,5,0,0:0:0:0:
264,120,109114,1,0,0:0:0:0:
284,132,109171,1,0,0:0:0:0:
304,144,109228,1,0,0:0:0:0:
324,156,109285,1,0,0:0:0:0:
340,168,109341,1,0,0:0:0:0:
360,180,109398,1,0,0:0:0:0:
380,192,109455,1,0,0:0:0:0:
368,208,109512,5,0,0:0:0:0:
356,224,109569,1,0,0:0:0:0:
344,240,109626,1,0,0:0:0:0:
332,256,109682,1,0,0:0:0:0:
320,276,109739,1,0,0:0:0:0:
308,292,109795,1,0,0:0:0:0:
296,308,109851,1,0,0:0:0:0:
284,324,109908,1,0,0:0:0:0:
264,312,109964,5,0,0:0:0:0:
244,300,110021,1,0,0:0:0:0:
224,288,110077,1,0,0:0:0:0:
208,276,110134,1,0,0:0:0:0:
192,264,110190,1,0,0:0:0:0:
176,252,110246,1,0,0:0:0:0:
160,240,110302,1,0,0:0:0:0:
144,228,110357,1,0,0:0:0:0:
156,208,110413,5,0,0:0:0:0:
168,188,110469,1,0,0:0:0:0:
180,168,110525,1,0,0:0:0:0:
192,148,110581,1,0,0:0:0:0:
204,128,110637,1,0,0:0:0:0:
216,112,110693,1,0,0:0:0:0:
228,92,110749,1,0,0:0:0:0:
240,76,110804,1,0,0:0:0:0:
260,88,110860,5,0,0:0:0:0:
276,100,110915,1,0,0:0:0:0:
292,116,110970,1,0,0:0:0:0:
308,132,111026,1,0,0:0:0:0:
324,144,111081,1,0,0:0:0:0:
340,156,111137,1,0,0:0:0:0:
356,168,111192,1,0,0:0:0:0:
372,180,111247,1,0,0:0:0:0:
360,200,111302,5,0,0:0:0:0:
348,220,111357,1,0,0:0:0:0:
336,240,111412,1,0,0:0:0:0:
324,260,111466,1,0,0:0:0:0:
312,280,111521,1,0,0:0:0:0:
300,300,111576,1,0,0:0:0:0:
288,320,111631,1,0,0:0:0:0:
276,340,111686,1,0,0:0:0:0:
256,332,111741,5,0,0:0:0:0:
236,324,111795,1,0,0:0:0:0:
216,316,111850,1,0,0:0:0:0:
196,308,111904,1,0,0:0:0:0:
176,296,111959,1,0,0:0:0:0:
156,288,112013,1,0,0:0:0:0:
136,280,112067,1,0,0:0:0:0:
116,268,112122,1,0,0:0:0:0:
128,248,112176,5,0,0:0:0:0:
140,228,112231,1,0,0:0:0:0:
152,208,112285,1,0,0:0:0:0:
164,188,112340,1,0,0:0:0:0:
176,168,112394,1,0,0:0:0:0:
188,148,112448,1,0,0:0:0:0:
200,128,112502,1,0,0:0:0:0:
212,108,112555,1,0,0:0:0:0:
232,116,112609,5,0,0:0:0:0:
252,124,112663,1,0,0:0:0:0:
272,132,112717,1,0,0:0:0:0:
292,140,112771,1,0,0:0:0:0:
312,148,112825,1,0,0:0:0:0:
332,156,112879,1,0,0:0:0:0:
352,164,112933,1,0,0:0:0:0:
372,172,112986,1,0,0:0:0:0:
364,192,113040,5,0,0:0:0:0:
356,212,113093,1,0,0:0:0:0:
348,232,113146,1,0,0:0:0:0:
336,252,113200,1,0,0:0:0:0:
328,272,113253,1,0,0:0:0:0:
320,292,113307,1,0,0:0:0:0:
312,312,113360,1,0,0:0:0:0:
304,332,113414,1,0,0:0:0:0:
284,324,113467,5,0,0:0:0:0:
264,316,113520,1,0,0:0:0:0:
244,308,113573,1,0,0:0:0:0:
224,300,113626,1,0,0:0:0:0:
204,292,113679,1,0,0:0:0:0:
184,284,113731,1,0,0:0:0:0:
164,276,113784,1,0,0:0:0:0:
144,268,113837,1,0,0:0:0:0:
124,260,113890,5,0,0:0:0:0:
136,240,113943,1,0,0:0:0:0:
148,220,113996,1,0,0:0:0:0:
160,200,114048,1,0,0:0:0:0:
172,180,114101,1,0,0:0:0:0:
184,160,114153,1,0,0:0:0:0:
196,140,114206,1,0,0:0:0:0:
208,120,114258,1,0,0:0:0:0:
220,100,114310,5,0,0:0:0:0:
