osu file format v14

[General]
AudioFilename: audio.mp3
AudioLeadIn: 0
PreviewTime: 57769
Countdown: 0
SampleSet: Soft
StackLeniency: 0.7
Mode: 0
LetterboxInBreaks: 0
WidescreenStoryboard: 0

[Editor]
DistanceSpacing: 1.3
BeatDivisor: 4
GridSize: 4
TimelineZoom: 2.899999

[Metadata]
Title:Wandering Dream Chaser
TitleUnicode:Wandering Dream Chaser
Artist:Straylight
ArtistUnicode:ストレイライト
Creator:kusano
Version:Very Hard
Source:アイドルマスター シャイニーカラーズ
Tags:THE IDOLM@STER SHINY COLORS im@s imas アイマス yotm シャニマス Shanimas FR@GMENT WING 06 黛冬優子 Mayuzumi Fuyuko 幸村恵理 Yukimura Eri 芹沢あさひ Serizawa Asahi 田中有紀 Tanaka Yuki 和泉愛依 Izumi Mei 北原沙弥香 Kitahara Sayaka
BeatmapID:2126897
BeatmapSetID:1016079

[Difficulty]
HPDrainRate:6
CircleSize:3.9
OverallDifficulty:7
ApproachRate:9
SliderMultiplier:1.7
SliderTickRate:1

[Events]
//Background and Video events
0,0,"s.png",0,0
//Break Periods
2,56031,57338
//Storyboard Layer 0 (Background)
//Storyboard Layer 1 (Fail)
//Storyboard Layer 2 (Pass)
//Storyboard Layer 3 (Foreground)
//Storyboard Layer 4 (Overlay)
//Storyboard Sound Samples

[TimingPoints]
635,337.078651685393,4,2,0,30,1,0
1983,-200,4,2,0,40,0,0
10410,-200,4,2,0,50,0,0
11252,-250,4,2,0,60,0,0
11337,-250,4,2,0,20,0,0
12432,-66.6666666666667,4,2,0,75,0,0
12769,-100,4,2,0,70,0,0
23556,-100,4,2,0,60,0,0
33668,-100,4,2,0,70,0,0
55831,-100,4,2,0,45,0,0
58612,-90.9090909090909,4,2,0,80,0,1
80185,-100,4,2,0,75,0,0
85663,-100,4,2,0,25,0,0
86084,-100,4,2,0,75,0,0
86168,-100,4,2,0,25,0,0
86590,-100,4,2,0,75,0,0

[Colours]
Combo1 : 255,0,255
Combo2 : 243,1,0
Combo3 : 92,230,38

[HitObjects]
256,192,635,12,0,1899,0:0:0:0:
120,112,1983,6,0,L|108:152,1,42.5,2|0,0:0|0:0,0:0:0:0:
204,96,2320,1,2,0:0:0:0:
288,80,2488,1,0,0:0:0:0:
176,216,2657,2,0,L|188:176,1,42.5,2|0,0:0|0:0,0:0:0:0:
92,232,2994,1,2,0:0:0:0:
8,248,3163,1,0,0:0:0:0:
100,104,3331,6,0,L|112:144,1,42.5,2|0,0:0|0:0,0:0:0:0:
260,240,3668,2,0,L|272:200,1,42.5,2|0,0:0|0:0,0:0:0:0:
140,91,4005,2,0,L|100:103,1,42.5,2|0,0:0|0:0,0:0:0:0:
219,227,4342,2,0,L|259:239,1,42.5,2|0,0:0|0:0,0:0:0:0:
340,268,4679,5,2,0:0:0:0:
424,256,4848,1,0,0:0:0:0:
480,192,5017,1,2,0:0:0:0:
484,108,5185,1,0,0:0:0:0:
436,36,5354,2,0,L|376:48,1,42.5,2|0,0:0|0:0,0:0:0:0:
276,156,5691,2,0,L|336:144,1,42.5,2|0,0:0|0:0,0:0:0:0:
188,64,6028,6,0,L|156:112,1,42.5,2|0,0:0|0:0,0:0:0:0:
184,240,6365,2,0,L|216:192,1,42.5,2|0,0:0|0:0,0:0:0:0:
76,116,6702,1,2,0:0:0:0:
72,132,6786,1,0,0:0:0:0:
68,148,6870,1,0,0:0:0:0:
64,164,6955,1,0,0:0:0:0:
60,180,7039,2,0,L|52:216,3,21.25,2|0|0|0,0:0|0:0|0:0|0:0,0:0:0:0:
52,236,7376,6,0,L|60:288,1,42.5,2|0,0:0|0:0,0:0:0:0:
204,268,7713,2,0,L|212:216,1,42.5,2|0,0:0|0:0,0:0:0:0:
44,288,8050,1,2,0:0:0:0:
204,268,8219,1,0,0:0:0:0:
132,328,8387,1,2,0:0:0:0:
100,208,8556,1,0,0:0:0:0:
220,360,8724,6,0,L|280:348,1,42.5,2|0,0:0|0:0,0:0:0:0:
328,168,9061,2,0,L|268:180,1,42.5,2|0,0:0|0:0,0:0:0:0:
220,360,9399,1,2,0:0:0:0:
344,256,9567,1,0,0:0:0:0:
308,376,9736,1,2,0:0:0:0:
204,196,9904,1,0,0:0:0:0:
320,126,10073,6,0,L|331:184,1,42.5,2|0,0:0|0:0,0:0:0:0:
128,264,10410,2,0,L|117:206,1,42.5,2|0,0:0|0:0,0:0:0:0:
104,140,10747,1,2,0:0:0:0:
234,42,10915,1,0,0:0:0:0:
230,70,11000,1,0,0:0:0:0:
226,98,11084,1,2,0:0:0:0:
222,126,11168,1,0,0:0:0:0:
218,154,11252,6,0,B|207:215|255:255|255:255|311:267|355:231,1,221,4|0,0:3|0:0,0:0:0:0:
356,231,12432,6,0,P|276:200|176:244,1,191.250007295609,4|0,0:0|0:0,0:0:0:0:
152,268,12769,5,4,1:0:0:0:
228,128,12938,1,0,0:0:0:0:
272,288,13106,1,0,1:0:0:0:
140,228,13275,1,2,0:0:0:0:
244,144,13443,2,0,P|288:152|340:164,1,85,4|4,0:3|0:3,0:0:0:0:
372,320,13781,2,0,P|328:312|276:300,1,85,0|2,1:0|0:0,0:0:0:0:
236,232,14118,5,4,0:3:0:0:
280,340,14286,1,0,0:0:0:0:
164,324,14455,1,0,1:0:0:0:
308,268,14623,1,2,0:0:0:0:
216,384,14792,1,4,0:3:0:0:
160,244,14960,1,4,0:3:0:0:
280,340,15129,1,0,1:0:0:0:
388,320,15297,1,2,0:0:0:0:
496,296,15466,6,0,L|480:208,1,85,4|0,0:3|0:0,0:0:0:0:
248,164,15803,2,0,L|264:252,1,85,0|2,1:0|0:0,0:0:0:0:
412,148,16140,2,0,L|400:88,2,42.5,4|0|4,0:3|0:0|0:3,0:0:0:0:
480,212,16477,1,0,1:0:0:0:
332,312,16646,1,2,0:0:0:0:
176,224,16814,5,4,0:3:0:0:
248,164,16983,1,0,0:0:0:0:
268,256,17151,1,0,1:0:0:0:
156,264,17320,1,2,0:0:0:0:
228,140,17488,1,4,0:3:0:0:
248,144,17573,1,0,0:0:0:0:
268,148,17657,1,4,0:3:0:0:
288,152,17741,1,0,0:0:0:0:
308,156,17826,1,0,1:0:0:0:
328,160,17910,1,0,0:0:0:0:
348,164,17994,1,4,0:3:0:0:
368,168,18078,1,0,1:0:0:0:
388,172,18163,5,4,0:0:0:0:
472,136,18331,1,0,0:0:0:0:
372,260,18500,2,0,L|276:240,1,85,0|2,1:0|0:0,0:0:0:0:
228,140,18837,2,0,L|132:160,1,85,4|4,0:3|0:3,0:0:0:0:
60,176,19174,1,0,1:0:0:0:
88,96,19342,1,2,0:0:0:0:
208,224,19511,5,4,0:3:0:0:
124,240,19679,1,0,0:0:0:0:
228,140,19848,1,0,1:0:0:0:
124,240,20017,1,2,0:0:0:0:
144,157,20185,1,4,0:3:0:0:
292,196,20354,1,4,0:3:0:0:
188,304,20522,1,0,1:0:0:0:
272,280,20691,1,2,0:0:0:0:
208,224,20859,5,4,0:3:0:0:
356,256,21028,1,0,0:0:0:0:
289,112,21196,2,0,P|282:156|296:204,1,85,0|2,1:0|0:0,0:0:0:0:
356,256,21533,1,4,0:3:0:0:
440,240,21702,1,4,0:3:0:0:
464,216,21786,1,0,0:0:0:0:
476,184,21870,1,0,1:0:0:0:
476,148,21955,1,0,0:0:0:0:
464,116,22039,6,0,P|392:72|304:64,1,170,4|0,1:2|1:0,0:0:0:0:
160,128,22545,1,2,0:0:0:0:
160,128,22629,1,0,0:0:0:0:
160,128,22713,2,0,P|204:132|248:112,1,85,4|0,1:2|0:0,0:0:0:0:
104,36,23050,1,2,1:2:0:0:
68,192,23219,1,0,1:0:0:0:
0,96,23387,1,2,0:0:0:0:
172,132,23556,6,0,P|204:160|224:204,1,85,4|0,0:3|0:0,0:0:0:0:
232,284,23893,1,4,0:3:0:0:
124,324,24061,2,0,P|126:281|136:240,1,85,0|4,0:0|0:3,0:0:0:0:
272,124,24399,2,0,P|300:156|312:200,1,85,0|4,0:0|0:3,0:0:0:0:
324,284,24736,6,0,P|335:324|363:356,1,85,0|4,0:0|0:3,0:0:0:0:
496,272,25073,2,0,L|404:284,1,85,0|4,0:0|0:3,0:0:0:0:
220,197,25410,2,0,L|136:208,1,85,0|4,0:0|0:3,0:0:0:0:
52,220,25747,1,0,0:0:0:0:
188,288,25915,1,4,0:3:0:0:
84,140,26084,1,0,0:0:0:0:
272,268,26252,6,0,P|304:220|284:140,1,127.5,4|0,0:3|0:0,0:0:0:0:
268,120,26590,1,4,0:3:0:0:
392,212,26758,2,0,L|488:200,1,85,0|4,0:0|0:3,0:0:0:0:
280,84,27095,2,0,L|184:96,1,85,0|4,0:0|0:3,0:0:0:0:
108,104,27432,6,0,P|80:136|72:192,1,85,0|4,0:0|0:3,0:0:0:0:
188,252,27769,2,0,P|185:209|151:164,1,85,0|4,0:0|0:3,0:0:0:0:
16,292,28106,1,0,0:0:0:0:
96,268,28275,2,0,L|124:136,1,127.5,4|0,0:3|0:0,0:0:0:0:
132,100,28612,1,4,0:3:0:0:
236,140,28781,1,0,0:0:0:0:
236,140,28865,1,0,0:0:0:0:
236,140,28949,6,0,L|324:132,1,85,4|0,0:3|0:0,0:0:0:0:
416,212,29286,2,0,L|408:124,1,85,4|0,0:3|0:0,0:0:0:0:
339,311,29623,2,0,L|424:304,1,85,4|0,0:3|0:0,0:0:0:0:
244,232,29960,2,0,L|252:320,1,85,4|0,0:3|0:0,0:0:0:0:
320,132,30297,5,4,0:3:0:0:
244,232,30466,1,0,0:0:0:0:
196,116,30634,1,4,0:3:0:0:
332,108,30803,1,0,0:0:0:0:
260,224,30972,2,0,P|216:220|156:212,1,85,4|0,0:3|0:0,0:0:0:0:
24,156,31309,2,0,P|68:152|128:144,1,85,4|0,0:3|0:0,0:0:0:0:
148,124,31561,1,0,0:0:0:0:
148,124,31646,6,0,P|164:84|184:32,1,85,4|0,0:3|0:0,0:0:0:0:
12,184,31983,2,0,P|24:224|44:280,1,85,4|0,0:3|0:0,0:0:0:0:
92,332,32320,1,4,0:3:0:0:
272,32,32657,1,4,0:3:0:0:
472,320,32994,5,4,0:3:0:0:
132,240,33331,1,4,0:3:0:0:
424,48,33668,1,0,1:0:0:0:
328,88,33837,2,0,L|348:204,1,85,0|2,1:0|0:0,0:0:0:0:
356,256,34174,1,0,0:0:0:0:
232,112,34342,6,0,P|168:112|88:136,1,127.5,4|0,0:0|0:0,0:0:0:0:
72,152,34679,1,0,1:0:0:0:
152,24,34848,1,2,0:0:0:0:
232,112,35017,1,4,0:3:0:0:
63,236,35185,2,0,P|64:193|72:151,1,85,4|0,0:3|1:0,0:0:0:0:
316,64,35522,6,0,P|328:104|324:148,1,85,0|4,0:0|0:3,0:0:0:0:
276,220,35859,1,2,0:0:0:0:
420,232,36028,2,0,P|408:192|412:148,1,85,0|2,1:0|0:0,0:0:0:0:
464,80,36365,1,4,0:3:0:0:
276,220,36533,1,4,0:3:0:0:
411,149,36702,2,0,P|367:133|327:125,1,85,0|2,1:0|0:0,0:0:0:0:
128,156,37039,6,0,P|188:160|252:188,1,127.5,4|0,0:3|0:0,0:0:0:0:
276,220,37376,1,2,1:2:0:0:
212,84,37545,2,0,P|196:48|192:0,1,85,2|4,0:0|0:3,0:0:0:0:
172,240,37882,2,0,P|188:276|192:324,1,85,4|0,0:3|1:0,0:0:0:0:
0,224,38219,6,0,L|108:232,1,85,2|4,0:0|0:3,0:0:0:0:
235,173,38556,2,0,L|320:180,1,85,2|0,0:0|1:0,0:0:0:0:
124,88,38893,2,0,P|76:128|68:192,1,127.5,2|0,0:0|0:0,0:0:0:0:
84,230,39230,1,4,0:3:0:0:
268,212,39399,2,0,P|228:192|168:176,1,85,2|0,1:2|0:0,0:0:0:0:
148,172,39651,1,0,0:0:0:0:
148,172,39736,5,4,0:3:0:0:
292,120,39904,1,0,0:0:0:0:
196,272,40073,2,0,P|236:256|280:252,1,85,2|0,1:2|0:0,0:0:0:0:
364,276,40410,2,0,P|440:260|456:168,1,170,4|2,0:3|1:2,0:0:0:0:
375,104,40915,6,0,P|332:111|280:123,1,85,0|4,0:0|0:3,0:0:0:0:
228,180,41252,1,2,0:0:0:0:
260,40,41421,1,0,1:0:0:0:
320,204,41590,1,2,0:0:0:0:
184,96,41758,2,0,P|136:140|132:200,1,127.5,4|0,0:3|0:0,0:0:0:0:
152,240,42095,1,0,1:0:0:0:
320,204,42264,1,2,0:0:0:0:
320,204,42348,1,0,0:0:0:0:
320,204,42432,6,0,P|316:156|308:104,1,85,4|2,0:3|0:0,0:0:0:0:
92,72,42769,2,0,P|96:120|104:172,1,85,0|0,1:0|0:0,0:0:0:0:
140,232,43106,1,4,0:3:0:0:
310,119,43275,1,4,0:3:0:0:
101,156,43443,1,0,1:0:0:0:
224,248,43612,1,2,0:0:0:0:
224,248,43696,1,0,0:0:0:0:
224,248,43781,6,0,L|312:236,1,85,4|0,0:0|1:0,0:0:0:0:
424,132,44118,2,0,L|336:144,1,85,2|0,0:0|1:0,0:0:0:0:
252,156,44455,1,6,0:0:0:0:
396,224,44623,1,0,1:0:0:0:
396,224,44708,1,0,1:0:0:0:
396,224,44792,1,4,1:2:0:0:
339,143,44960,1,4,0:3:0:0:
280,324,45129,5,4,1:0:0:0:
188,264,45297,1,0,1:0:0:0:
288,212,45466,1,2,0:0:0:0:
320,360,45634,2,0,P|256:364|192:356,1,127.5,4|0,1:0|0:0,0:0:0:0:
156,336,45972,1,4,0:3:0:0:
312,240,46140,1,0,1:0:0:0:
134,157,46309,6,0,L|146:317,1,127.5,4|0,1:0|0:0,0:0:0:0:
148,328,46646,1,4,0:3:0:0:
320,232,46814,2,0,P|328:191|328:140,1,85,4|2,1:2|0:0,0:0:0:0:
312,64,47151,1,2,1:2:0:0:
312,64,47236,1,0,0:0:0:0:
312,64,47320,1,0,0:0:0:0:
416,220,47488,1,2,1:2:0:0:
240,124,47657,1,0,1:0:0:0:
404,72,47826,6,0,P|364:84|316:112,1,85,4|0,1:0|1:0,0:0:0:0:
268,168,48163,1,4,0:3:0:0:
464,260,48331,2,0,P|472:196|452:132,1,127.5,4|0,1:0|0:0,0:0:0:0:
432,100,48668,1,4,0:3:0:0:
244,184,48837,1,0,1:0:0:0:
400,68,49005,6,0,P|337:58|256:52,1,127.5,4|0,1:0|0:0,0:0:0:0:
228,52,49342,1,4,0:3:0:0:
356,148,49511,1,4,1:2:0:0:
272,284,49679,1,2,1:2:0:0:
128,212,49848,2,0,P|168:192|212:184,1,85,4|0,0:3|1:0,0:0:0:0:
368,240,50185,1,2,1:2:0:0:
408,224,50269,1,0,0:0:0:0:
436,192,50354,1,0,0:0:0:0:
448,152,50438,1,0,0:0:0:0:
444,108,50522,6,0,P|428:68|408:28,1,85,4|4,1:0|0:3,0:0:0:0:
276,128,50859,1,4,0:3:0:0:
228,28,51028,2,0,P|272:32|328:40,1,85,4|0,1:2|0:0,0:0:0:0:
168,187,51365,2,0,P|175:146|188:105,1,85,4|4,0:3|0:3,0:0:0:0:
228,28,51702,1,4,1:2:0:0:
68,36,51870,6,0,P|80:76|88:118,1,85,4|4,0:3|0:3,0:0:0:0:
76,204,52208,1,4,0:3:0:0:
252,88,52376,2,0,P|180:88|116:104,1,127.5,4|0,1:2|0:0,0:0:0:0:
88,118,52713,1,0,1:0:0:0:
220,8,52882,1,4,1:2:0:0:
304,156,53050,1,0,0:0:0:0:
196,252,53219,6,0,P|200:208|224:156,1,85,4|0,1:0|0:0,0:0:0:0:
340,80,53556,2,0,L|444:88,1,85,0|0,1:0|0:0,0:0:0:0:
214,170,53893,2,0,L|110:162,1,85,4|4,0:3|0:3,0:0:0:0:
340,80,54230,1,0,1:0:0:0:
214,170,54399,1,4,0:0:0:0:
252,88,54567,5,4,0:3:0:0:
332,168,54736,1,2,0:0:0:0:
332,168,54820,1,0,0:0:0:0:
332,168,54904,1,0,1:0:0:0:
260,252,55073,1,2,0:0:0:0:
180,172,55241,1,0,1:0:0:0:
156,176,55326,1,0,1:0:0:0:
132,180,55410,1,0,1:0:0:0:
108,184,55494,1,0,1:0:0:0:
84,188,55578,1,0,1:0:0:0:
60,192,55663,1,0,1:0:0:0:
36,196,55747,2,0,L|-8:204,1,42.5,0|2,1:0|0:0,0:0:0:0:
124,52,57938,6,0,P|144:108|144:184,1,127.5,2|2,0:0|0:0,0:0:0:0:
132,216,58275,1,0,0:0:0:0:
236,96,58443,1,2,0:0:0:0:
308,264,58612,6,0,L|156:244,1,140.25000428009,4|0,1:0|0:0,0:0:0:0:
124,236,58949,1,2,1:2:0:0:
160,352,59118,2,0,P|206:351|253:347,1,93.5000028533936,2|4,0:0|0:3,0:0:0:0:
328,288,59455,1,4,0:3:0:0:
252,176,59623,1,0,1:0:0:0:
400,136,59792,6,0,P|396:200|372:272,1,140.25000428009,2|0,0:0|0:0,0:0:0:0:
328,288,60129,1,2,0:0:0:0:
480,232,60297,1,0,1:0:0:0:
248,260,60466,2,0,P|225:193|220:144,1,93.5000028533936,2|4,0:0|0:3,0:0:0:0:
232,76,60803,1,4,0:3:0:0:
88,200,60972,2,0,P|128:148|136:72,1,140.25000428009,0|0,1:0|0:0,0:0:0:0:
124,28,61309,5,4,0:0:0:0:
232,76,61477,1,0,0:0:0:0:
88,200,61646,2,0,P|128:184|180:176,1,93.5000028533936,0|2,1:0|0:0,0:0:0:0:
272,200,61983,1,4,0:3:0:0:
232,76,62151,1,4,0:3:0:0:
416,112,62320,2,0,P|392:152|356:192,1,93.5000028533936,0|2,1:0|0:0,0:0:0:0:
156,272,62657,6,0,P|228:272|300:296,1,140.25000428009,4|0,0:3|0:0,0:0:0:0:
332,320,62994,1,0,1:0:0:0:
448,276,63163,1,2,0:0:0:0:
360,192,63331,1,4,0:3:0:0:
356,200,63415,1,0,0:0:0:0:
352,208,63500,1,4,0:3:0:0:
440,124,63668,1,0,1:0:0:0:
268,180,63837,1,0,1:0:0:0:
268,180,63921,1,0,1:0:0:0:
268,180,64005,6,0,P|196:176|112:160,1,140.25000428009,4|0,1:2|0:0,0:0:0:0:
88,144,64342,1,0,1:0:0:0:
136,252,64511,1,2,0:0:0:0:
279,148,64679,2,0,P|236:152|188:163,1,93.5000028533936,4|4,0:3|0:3,0:0:0:0:
220,324,65017,2,0,P|248:290|273:247,1,93.5000028533936,2|0,1:2|0:0,0:0:0:0:
120,104,65354,6,0,P|100:144|104:204,1,93.5000028533936,4|0,0:3|0:0,0:0:0:0:
340,312,65691,2,0,P|360:272|356:212,1,93.5000028533936,2|0,1:2|0:0,0:0:0:0:
32,248,66028,2,0,P|68:276|129:272,1,93.5000028533936,4|4,0:3|0:3,0:0:0:0:
320,144,66365,2,0,P|282:119|222:119,1,93.5000028533936,2|0,1:2|0:0,0:0:0:0:
108,292,66702,6,0,L|252:276,1,140.25000428009,4|0,0:0|0:0,0:0:0:0:
296,272,67039,1,0,1:0:0:0:
212,384,67208,1,2,0:0:0:0:
108,292,67376,2,0,P|92:252|100:192,1,93.5000028533936,4|4,0:3|0:3,0:0:0:0:
276,96,67713,1,0,1:0:0:0:
276,96,67797,1,0,1:0:0:0:
276,96,67882,6,0,P|292:136|284:196,1,93.5000028533936,4|0,1:2|0:0,0:0:0:0:
36,124,68219,1,0,1:0:0:0:
84,116,68303,1,0,1:0:0:0:
132,108,68387,1,0,1:0:0:0:
180,100,68472,1,0,1:0:0:0:
228,92,68556,2,0,P|280:128|280:208,1,140.25000428009,4|0,1:2|0:0,0:0:0:0:
264,244,68893,1,0,1:0:0:0:
360,96,69061,1,4,1:2:0:0:
196,180,69230,1,2,0:0:0:0:
324,316,69399,6,0,P|380:276|424:216,1,140.25000428009,4|0,1:0|0:0,0:0:0:0:
432,172,69736,1,0,1:0:0:0:
440,328,69904,2,0,P|480:356|524:360,1,93.5000028533936,2|4,0:0|0:3,0:0:0:0:
320,208,70241,2,0,P|280:184|232:180,1,93.5000028533936,4|0,0:3|1:0,0:0:0:0:
144,204,70578,1,2,0:0:0:0:
212,92,70747,5,4,0:3:0:0:
24,124,70915,2,0,P|69:114|120:108,1,93.5000028533936,2|0,0:0|1:0,0:0:0:0:
240,184,71252,2,0,P|326:193|390:117,1,187.000005706787,2|4,0:0|0:3,0:0:0:0:
280,16,71758,2,0,P|284:60|296:116,1,93.5000028533936,0|0,1:2|0:0,0:0:0:0:
472,216,72095,6,0,P|488:148|456:76,1,140.25000428009,4|0,0:0|0:0,0:0:0:0:
432,48,72432,1,0,1:0:0:0:
464,224,72601,1,2,0:0:0:0:
296,176,72769,2,0,P|232:184|172:204,1,93.5000028533936,4|4,0:3|0:3,0:0:0:0:
116,232,73106,1,0,1:0:0:0:
180,104,73275,1,0,0:0:0:0:
288,280,73443,6,0,P|216:280|132:256,1,140.25000428009,4|0,0:3|0:0,0:0:0:0:
116,232,73781,1,0,1:0:0:0:
200,368,73949,1,2,0:0:0:0:
288,280,74118,1,4,0:3:0:0:
108,332,74286,1,4,0:3:0:0:
72,324,74370,1,4,0:3:0:0:
40,304,74455,1,0,1:0:0:0:
20,272,74539,1,0,1:0:0:0:
16,236,74623,1,0,1:0:0:0:
24,200,74708,1,0,1:0:0:0:
40,168,74792,6,0,P|64:132|100:88,1,93.5000028533936,4|0,1:2|0:0,0:0:0:0:
172,40,75129,1,0,1:0:0:0:
320,108,75297,2,0,P|248:108|184:136,1,140.25000428009,2|0,0:0|0:0,0:0:0:0:
152,168,75634,1,4,0:3:0:0:
284,280,75803,2,0,P|280:236|268:176,1,93.5000028533936,0|2,1:0|0:0,0:0:0:0:
80,108,76140,6,0,P|56:172|88:236,1,140.25000428009,4|0,0:3|0:0,0:0:0:0:
128,252,76477,2,0,P|175:239|236:232,1,93.5000028533936,2|0,1:2|0:0,0:0:0:0:
408,176,76814,2,0,P|432:240|400:304,1,140.25000428009,4|0,0:3|0:0,0:0:0:0:
360,320,77151,2,0,P|312:307|252:300,1,93.5000028533936,2|0,1:2|0:0,0:0:0:0:
184,332,77488,5,4,0:0:0:0:
304,220,77657,1,0,0:0:0:0:
132,256,77826,2,0,L|144:152,1,93.5000028533936,0|2,1:0|0:0,0:0:0:0:
148,116,78078,1,0,0:0:0:0:
148,116,78163,1,4,0:3:0:0:
48,224,78331,1,4,0:3:0:0:
232,152,78500,1,0,1:0:0:0:
44,36,78668,2,0,L|56:140,1,93.5000028533936,4|2,0:0|0:0,0:0:0:0:
64,220,79005,5,0,1:2:0:0:
64,220,79090,1,0,1:0:0:0:
64,220,79174,1,0,1:0:0:0:
242,244,79342,2,0,L|232:152,1,93.5000028533936,4|4,0:3|0:3,0:0:0:0:
224,60,79679,1,4,0:3:0:0:
76,188,79848,2,0,L|220:168,1,140.25000428009,0|0,1:0|0:0,0:0:0:0:
258,162,80185,5,4,0:0:0:0:
340,88,80354,1,0,0:0:0:0:
434,204,80522,2,0,P|440:162|444:120,1,85,2|0,1:2|0:0,0:0:0:0:
258,162,80859,1,4,0:3:0:0:
312,248,81028,1,4,0:3:0:0:
151,281,81196,2,0,P|192:292|231:307,1,85,2|0,1:2|0:0,0:0:0:0:
392,221,81533,6,2,P|350:231|311:247,1,85,4|0,0:3|0:0,0:0:0:0:
232,308,81870,1,2,1:2:0:0:
100,208,82039,2,2,P|128:180|172:152,1,85,0|4,0:0|0:3,0:0:0:0:
248,132,82376,1,4,0:3:0:0:
76,112,82545,1,0,1:0:0:0:
116,240,82713,1,0,0:0:0:0:
280,168,82882,6,0,P|240:152|196:148,1,85,4|0,0:0|0:0,0:0:0:0:
34,260,83219,2,0,P|74:244|118:240,1,85,2|0,1:2|0:0,0:0:0:0:
204,232,83556,1,4,0:3:0:0:
116,156,83724,1,4,0:3:0:0:
256,88,83893,1,0,1:0:0:0:
204,232,84061,1,0,0:0:0:0:
356,204,84230,6,0,P|348:156|340:116,1,85,4|0,0:0|0:0,0:0:0:0:
272,68,84567,1,0,1:0:0:0:
432,144,84736,1,2,0:0:0:0:
240,244,84904,2,0,P|204:192|212:120,1,127.5,4|4,0:3|0:3,0:0:0:0:
224,84,85241,2,0,P|184:100|136:104,1,85,0|0,1:0|0:0,0:0:0:0:
56,200,85578,6,0,L|68:260,5,42.5,2|0|0|0|0|0,1:2|1:0|1:0|1:0|1:0|1:0,0:0:0:0:
152,276,86084,2,0,L|143:317,5,42.5,2|0|0|0|0|0,1:2|1:0|1:0|1:0|1:0|1:0,0:0:0:0:
136,360,86590,2,0,P|188:328|256:320,1,127.5,2|0,1:2|0:0,0:0:0:0:
296,332,86927,6,0,P|368:340|428:256,1,170,2|2,1:2|1:2,0:0:0:0:
424,184,87432,1,0,0:0:0:0:
296,332,87601,1,2,1:2:0:0:
426,271,87769,1,0,0:0:0:0:
332,188,87938,1,2,1:2:0:0:
288,192,88022,1,0,1:0:0:0:
244,196,88106,1,0,1:0:0:0:
200,200,88191,1,0,1:0:0:0:
156,204,88275,6,0,P|104:180|84:112,1,127.5,4|0,1:2|0:0,0:0:0:0:
92,72,88612,1,4,0:3:0:0:
356,120,88781,2,0,P|352:164|344:208,1,85,4|0,1:2|0:0,0:0:0:0:
312,288,89118,1,4,0:3:0:0:
132,188,89286,2,0,P|136:232|144:276,1,85,4|0,1:2|0:0,0:0:0:0:
176,356,89623,5,4,0:3:0:0:
176,356,89708,1,0,0:0:0:0:
176,356,89792,1,4,1:2:0:0:
336,304,89960,1,2,0:0:0:0:
336,304,90045,2,0,L|316:196,1,85
312,176,90297,1,4,1:2:0:0:
444,240,90466,1,0,0:0:0:0:
252,304,90634,2,0,P|200:268|124:232,1,127.5,4|0,1:2|0:0,0:0:0:0:
100,224,90972,5,4,1:0:0:0:
216,168,91140,1,0,0:0:0:0:
86,140,91309,2,0,L|102:240,1,85,0|2,1:0|0:0,0:0:0:0:
112,312,91646,1,4,0:3:0:0:
200,248,91814,1,4,0:3:0:0:
280,328,91983,2,0,P|237:334|200:352,1,85,0|2,1:0|0:0,0:0:0:0:
372,364,92320,6,0,P|404:336|428:300,1,85,4|0,0:3|0:0,0:0:0:0:
440,216,92657,1,0,1:0:0:0:
360,248,92826,1,2,0:0:0:0:
220,164,92994,2,0,P|244:200|276:228,1,85,4|4,0:3|0:3,0:0:0:0:
427,300,93331,1,0,1:0:0:0:
275,227,93500,1,2,0:0:0:0:
372,160,93668,6,0,P|368:116|364:76,1,85,4|0,0:3|0:0,0:0:0:0:
192,56,94005,2,0,P|196:100|200:140,1,85,0|2,1:0|0:0,0:0:0:0:
236,220,94342,1,4,0:3:0:0:
236,220,94427,1,0,0:0:0:0:
236,220,94511,1,4,0:3:0:0:
112,136,94679,2,0,P|69:146|20:164,1,85,0|2,1:0|0:0,0:0:0:0:
0,240,95017,5,4,0:3:0:0:
52,308,95185,1,0,0:0:0:0:
148,248,95354,1,0,1:0:0:0:
124,360,95522,1,2,0:0:0:0:
224,300,95691,1,4,0:3:0:0:
240,300,95775,1,2,0:0:0:0:
256,300,95859,1,4,0:3:0:0:
272,300,95943,1,0,0:0:0:0:
288,300,96028,1,0,1:0:0:0:
304,300,96112,1,4,0:3:0:0:
320,300,96196,1,4,0:3:0:0:
336,300,96281,1,0,1:0:0:0:
352,300,96365,6,0,P|388:280|412:240,1,85,4|0,1:2|0:0,0:0:0:0:
440,100,96702,2,0,P|404:120|380:160,1,85,0|2,1:2|0:0,0:0:0:0:
410,243,97039,1,4,0:3:0:0:
292,168,97208,2,0,L|204:180,1,85,4|0,0:3|1:0,0:0:0:0:
120,192,97545,1,2,0:0:0:0:
240,96,97713,5,4,0:3:0:0:
176,264,97882,1,0,0:0:0:0:
120,192,98050,1,0,1:0:0:0:
292,168,98219,1,2,0:0:0:0:
268,252,98387,1,4,0:3:0:0:
152,108,98556,1,4,0:3:0:0:
207,179,98724,1,0,1:0:0:0:
328,88,98893,1,0,1:0:0:0:
328,88,98977,1,0,1:0:0:0:
328,88,99061,5,4,1:2:0:0:
136,112,99230,1,4,1:2:0:0:
116,120,99567,5,4,1:2:0:0:
372,208,99736,1,4,1:2:0:0:
392,216,100073,5,4,1:2:0:0:
100,304,100241,1,4,1:2:0:0:
