osu file format v14

[General]
AudioFilename: audio.mp3
AudioLeadIn: 0
PreviewTime: 66674
Countdown: 0
SampleSet: Soft
StackLeniency: 0.7
Mode: 2
LetterboxInBreaks: 0
WidescreenStoryboard: 1

[Editor]
DistanceSpacing: 3.2
BeatDivisor: 12
GridSize: 8
TimelineZoom: 2.2

[Metadata]
Title:TOP -Japanese ver.- (TV Size)
TitleUnicode:TOP -Japanese ver.- (TV Size)
Artist:Stray Kids
ArtistUnicode:스트레이 키즈
Creator:rew0825
Version:Salad
Source:神之塔 -Tower of God-
Tags:tog kami no tou tō naver webtoon anime animation SIU Sin-ui Tap crunchyroll 신의 탑 pop jpop j-pop opening skz ストレイキッズ k-pop kpop LINE マンガ online web manga 방찬 리노 창빈 현진 한 필릭스 승민 아이엔 bang chan hyunjin lee know minho changbin han felix seungmin i.n korean japanese Telecom Film Talse Uzer
BeatmapID:2457342
BeatmapSetID:1149834

[Difficulty]
HPDrainRate:3
CircleSize:3
OverallDifficulty:6.8
ApproachRate:6.8
SliderMultiplier:2.14999990463257
SliderTickRate:1

[Events]
//Background and Video events
0,0,"Kami-no-Tou-02-45.jpg",0,0
//Break Periods
//Storyboard Layer 0 (Background)
//Storyboard Layer 1 (Fail)
//Storyboard Layer 2 (Pass)
//Storyboard Layer 3 (Foreground)
//Storyboard Layer 4 (Overlay)
//Storyboard Sound Samples

[TimingPoints]
1312,612.244897959184,4,2,1,45,1,0
4067,-100,4,2,1,25,0,0
4373,-100,4,2,1,45,0,0
8965,-100,4,2,1,50,0,0
21056,-100,4,2,1,50,0,0
25801,-100,4,2,1,55,0,0
42485,-100,4,2,1,45,0,0
42944,-100,4,2,1,50,0,0
44169,-100,4,2,1,55,0,0
45393,-100,4,2,1,45,0,0
48148,-100,4,2,1,25,0,0
48454,-100,4,2,1,45,0,0
53046,-100,4,2,1,50,0,0
55188,-100,4,2,1,55,0,0
64985,-100,4,2,1,50,0,0
66822,-100,4,2,1,55,0,0
67434,-100,4,2,1,60,0,1
87026,-100,4,2,1,55,0,0
87485,-100,4,2,1,40,0,0
87944,-100,4,2,1,35,0,0
88250,-100,4,2,1,30,0,0
88556,-100,4,2,1,25,0,0
88863,-100,4,2,1,20,0,0
89169,-100,4,2,1,15,0,0
89475,-100,4,2,1,10,0,0

[Colours]
Combo1 : 188,213,216
Combo2 : 39,89,127
Combo3 : 124,96,91
Combo4 : 131,45,41

[HitObjects]
320,192,597,5,2,0:0:0:0:
440,192,903,1,2,0:0:0:0:
96,192,1312,6,0,P|24:152|96:80,1,214.999990463257,6|2,0:0|0:0,0:0:0:0:
224,80,2230,1,2,0:0:0:0:
96,80,2536,2,0,L|320:80,1,214.999990463257,2|2,0:0|0:0,0:0:0:0:
168,80,3454,6,0,P|96:120|168:192,1,214.999990463257,2|2,0:0|0:0,0:0:0:0:
416,192,4679,1,2,0:0:0:0:
296,192,4985,6,0,L|184:192,1,107.499995231629,2|2,0:0|0:0,0:0:0:0:
320,192,5597,2,0,L|328:80,1,107.499995231629,2|2,0:0|0:0,0:0:0:0:
184,80,6209,6,0,L|176:192,1,107.499995231629,2|2,0:0|0:0,0:0:0:0:
304,184,6822,1,2,0:0:0:0:
176,184,7128,1,2,0:0:0:0:
312,184,7434,6,0,L|424:184,1,107.499995231629,2|2,0:0|0:0,0:0:0:0:
288,184,8097,2,0,L|176:184,1,107.499995231629,2|2,0:0|0:0,0:0:0:0:
256,184,8582,6,0,L|392:184,1,134.374994039536,2|0,0:0|1:2,0:0:0:0:
264,48,9271,1,0,1:2:0:0:
200,48,9424,2,0,P|160:88|184:128,1,107.499995231629,2|2,1:2|1:2,0:0:0:0:
240,176,9883,6,0,L|352:176,1,107.499995231629,2|2,1:2|1:2,0:0:0:0:
216,176,10495,1,2,1:2:0:0:
344,176,10801,1,2,1:2:0:0:
64,176,11107,6,0,L|56:64,1,107.499995231629,6|8,1:2|0:0,0:0:0:0:
184,64,11720,1,2,1:2:0:0:
56,64,12026,1,2,0:2:0:0:
192,64,12332,6,0,L|304:64,1,107.499995231629,2|2,1:2|0:2,0:0:0:0:
168,64,12944,2,0,L|56:64,1,107.499995231629,2|10,1:2|0:2,0:0:0:0:
128,64,13403,6,0,L|296:64,1,161.249992847443,2|10,0:2|0:0,0:0:0:0:
168,64,14169,2,0,L|160:176,1,107.499995231629,2|2,1:2|0:2,0:0:0:0:
232,176,14628,6,0,P|304:176|328:256,1,161.249992847443,8|2,0:0|0:0,0:0:0:0:
200,248,15393,1,2,1:2:0:0:
328,248,15699,1,10,0:0:0:0:
48,248,16005,5,2,1:2:0:0:
8,192,16158,1,2,0:0:0:0:
24,128,16312,1,10,0:0:0:0:
88,112,16465,1,2,0:0:0:0:
152,112,16618,1,2,1:2:0:0:
288,112,16924,5,2,0:0:0:0:
352,112,17077,1,8,0:0:0:0:
344,176,17230,1,2,1:2:0:0:
280,176,17383,1,2,0:0:0:0:
216,176,17536,1,2,0:0:0:0:
88,176,17842,1,0,1:0:0:0:
216,176,18148,1,0,1:0:0:0:
488,96,18454,6,0,L|496:208,1,107.499995231629,2|2,1:2|0:0,0:0:0:0:
368,208,19067,2,0,L|360:320,1,107.499995231629,2|2,1:2|0:0,0:0:0:0:
488,320,19679,5,2,1:2:0:0:
424,320,19832,1,2,0:0:0:0:
360,320,19985,1,2,1:2:0:0:
88,320,20291,1,10,0:0:0:0:
48,272,20444,1,8,0:0:0:0:
88,224,20597,1,10,0:0:0:0:
152,224,20750,1,8,0:0:0:0:
320,224,20903,5,4,1:2:0:0:
256,192,21209,12,2,24271,0:0:0:0:
304,264,24577,5,2,0:0:0:0:
368,264,24730,1,2,0:0:0:0:
304,264,24883,1,2,0:0:0:0:
168,264,25189,1,10,0:0:0:0:
104,264,25342,1,10,0:0:0:0:
112,200,25495,1,10,0:0:0:0:
176,200,25648,1,10,0:0:0:0:
344,200,25801,6,0,L|456:200,1,107.499995231629,6|2,1:2|0:0,0:0:0:0:
320,200,26414,1,2,1:2:0:0:
448,200,26720,1,10,0:0:0:0:
312,200,27026,6,0,L|88:200,1,214.999990463257,2|10,1:2|0:2,0:0:0:0:
224,200,27944,1,2,0:0:0:0:
360,200,28250,6,0,P|416:160|360:120,1,161.249992847443,2|10,1:2|0:0,0:0:0:0:
296,120,28863,1,2,1:2:0:0:
168,120,29169,1,10,0:0:0:0:
304,120,29475,6,0,L|312:232,1,107.499995231629,2|0,1:2|0:0,0:0:0:0:
184,232,30087,1,10,0:0:0:0:
312,232,30393,1,2,0:0:0:0:
40,240,30699,5,2,1:2:0:0:
32,176,30852,1,2,0:0:0:0:
96,176,31005,1,2,0:0:0:0:
224,176,31312,2,0,L|336:176,1,107.499995231629,2|8,1:2|0:0,0:0:0:0:
264,176,31771,1,2,0:0:0:0:
192,176,31924,6,0,L|184:64,1,107.499995231629,2|2,1:2|0:0,0:0:0:0:
312,72,32536,2,0,L|320:184,1,107.499995231629,10|2,0:0|0:0,0:0:0:0:
256,184,32995,1,2,0:0:0:0:
184,184,33148,5,2,1:2:0:0:
56,184,33454,2,0,L|48:240,1,53.7499976158143,2|10,0:0|0:0,0:0:0:0:
112,240,33760,2,0,L|224:240,1,107.499995231629,2|8,1:2|0:0,0:0:0:0:
360,240,34373,6,0,P|408:232|416:176,1,107.499995231629,2|2,1:2|0:0,0:0:0:0:
288,240,34985,1,10,0:0:0:0:
184,240,35215,1,10,0:0:0:0:
288,240,35444,1,10,0:0:0:0:
456,240,35597,6,0,L|464:128,1,107.499995231629,6|0,1:2|0:0,0:0:0:0:
336,128,36209,1,10,0:0:0:0:
464,128,36516,1,10,0:0:0:0:
328,128,36822,5,2,1:2:0:0:
264,128,36975,1,2,0:0:0:0:
240,184,37128,1,2,0:0:0:0:
368,184,37434,2,0,P|416:176|424:120,1,107.499995231629,10|2,0:0|0:0,0:0:0:0:
368,184,37893,1,2,0:0:0:0:
296,184,38046,5,0,1:2:0:0:
168,184,38352,1,2,0:0:0:0:
296,184,38658,2,0,L|408:184,1,107.499995231629,10|2,0:0|0:0,0:0:0:0:
272,184,39271,6,0,L|264:72,1,107.499995231629,2|2,1:2|0:0,0:0:0:0:
328,72,39730,1,2,0:0:0:0:
392,72,39883,2,0,L|472:72,2,80.6249964237214,10|2|2,0:0|0:0|0:0,0:0:0:0:
224,72,40495,6,0,L|112:72,1,107.499995231629,2|2,1:2|0:0,0:0:0:0:
248,72,41107,1,10,0:0:0:0:
116,72,41414,1,8,0:0:0:0:
264,72,41720,6,0,L|376:72,1,107.499995231629,0|2,1:2|0:0,0:0:0:0:
232,72,42332,1,8,0:0:0:0:
168,88,42485,1,0,1:0:0:0:
184,152,42638,1,0,1:0:0:0:
248,160,42791,1,0,1:0:0:0:
320,136,42944,5,0,1:2:0:0:
448,136,43250,1,2,0:0:0:0:
496,184,43403,1,2,0:0:0:0:
448,224,43556,1,2,0:0:0:0:
320,224,43863,1,2,0:0:0:0:
48,224,44169,5,2,1:2:0:0:
40,160,44322,1,0,0:0:0:0:
104,160,44475,1,2,1:2:0:0:
232,160,44781,1,2,1:2:0:0:
296,160,44934,1,2,1:2:0:0:
288,96,45087,1,2,1:2:0:0:
224,96,45240,1,0,1:2:0:0:
56,96,45393,6,0,P|88:200|184:200,1,214.999990463257,6|2,0:0|0:0,0:0:0:0:
312,200,46312,1,2,0:0:0:0:
184,200,46618,2,0,P|112:160|184:88,1,214.999990463257,2|2,0:0|0:0,0:0:0:0:
328,88,47536,6,0,P|400:128|328:200,1,214.999990463257,2|2,0:0|0:0,0:0:0:0:
72,200,48760,1,2,0:0:0:0:
200,200,49067,6,0,L|312:200,1,107.499995231629,2|2,0:0|0:0,0:0:0:0:
440,200,49679,1,2,0:0:0:0:
312,200,49985,1,2,0:0:0:0:
176,200,50291,6,0,L|168:88,1,107.499995231629,2|2,0:0|0:0,0:0:0:0:
296,88,50903,1,2,0:0:0:0:
168,88,51209,1,2,0:0:0:0:
296,88,51516,6,0,L|408:88,1,107.499995231629,2|2,0:0|0:0,0:0:0:0:
264,88,52179,2,0,P|232:104|264:152,1,107.499995231629,2|2,0:0|0:0,0:0:0:0:
336,152,52664,6,0,P|400:168|432:224,1,134.374994039536,2|0,0:0|1:2,0:0:0:0:
304,176,53352,1,0,1:2:0:0:
240,176,53505,2,0,L|352:176,1,107.499995231629,2|2,1:2|1:2,0:0:0:0:
416,176,53965,6,0,L|424:64,1,107.499995231629,2|2,1:2|1:2,0:0:0:0:
296,72,54577,1,2,1:2:0:0:
424,72,54883,1,2,1:2:0:0:
152,72,55189,6,0,L|144:184,1,107.499995231629,6|8,1:2|0:0,0:0:0:0:
272,176,55801,2,0,L|280:288,1,107.499995231629,2|2,1:2|0:2,0:0:0:0:
136,288,56414,6,0,L|128:176,1,107.499995231629,2|2,1:2|0:2,0:0:0:0:
256,184,57026,2,0,L|368:184,1,107.499995231629,2|10,1:2|0:2,0:0:0:0:
296,184,57485,6,0,L|128:184,1,161.249992847443,2|10,0:2|0:0,0:0:0:0:
264,184,58250,2,0,L|272:72,1,107.499995231629,2|2,1:2|0:2,0:0:0:0:
200,80,58709,6,0,P|120:80|104:152,1,161.249992847443,8|2,0:0|0:0,0:0:0:0:
232,152,59475,1,2,1:2:0:0:
104,152,59781,1,10,0:0:0:0:
376,152,60087,5,2,1:2:0:0:
440,152,60240,1,2,0:0:0:0:
432,216,60393,1,10,0:0:0:0:
368,216,60546,1,2,0:0:0:0:
304,216,60699,1,2,1:2:0:0:
168,216,61005,5,2,0:0:0:0:
104,208,61158,1,8,0:0:0:0:
72,152,61312,1,2,1:2:0:0:
104,96,61465,1,2,0:0:0:0:
168,88,61618,1,2,0:0:0:0:
296,88,61924,1,0,1:0:0:0:
168,88,62230,1,0,1:0:0:0:
440,88,62536,6,0,L|448:200,1,107.499995231629,2|2,1:2|0:0,0:0:0:0:
320,192,63148,2,0,L|312:304,1,107.499995231629,2|2,1:2|0:0,0:0:0:0:
440,296,63760,5,2,1:2:0:0:
488,256,63914,1,2,0:0:0:0:
440,216,64067,1,2,1:2:0:0:
168,216,64373,1,10,0:0:0:0:
104,216,64526,1,8,0:0:0:0:
112,152,64679,1,10,0:0:0:0:
176,152,64832,1,8,0:0:0:0:
344,152,64985,6,0,L|456:152,1,107.499995231629,6|8,1:2|0:0,0:0:0:0:
312,152,65597,2,0,L|200:152,1,107.499995231629,2|8,1:2|0:0,0:0:0:0:
344,152,66209,5,10,0:0:0:0:
408,152,66363,1,0,1:2:0:0:
440,208,66516,1,8,0:0:0:0:
408,264,66669,1,0,1:2:0:0:
344,264,66822,1,10,0:0:0:0:
200,264,67128,2,0,L|192:208,1,53.7499976158143,10|8,0:0|0:0,0:0:0:0:
360,208,67434,6,0,L|472:208,1,107.499995231629,6|2,1:2|0:2,0:0:0:0:
336,208,68046,2,0,L|224:208,1,107.499995231629,8|0,0:0|0:0,0:0:0:0:
368,208,68658,6,0,L|376:96,1,107.499995231629,2|2,1:2|0:0,0:0:0:0:
248,96,69271,1,10,0:0:0:0:
376,96,69577,1,2,0:0:0:0:
104,96,69883,6,0,L|96:208,1,107.499995231629,2|2,1:2|0:0,0:0:0:0:
224,200,70495,1,8,0:0:0:0:
96,200,70801,1,0,1:0:0:0:
232,200,71107,6,0,L|344:200,1,107.499995231629,2|2,1:2|0:0,0:0:0:0:
208,200,71720,1,8,0:0:0:0:
344,200,72026,2,0,L|352:144,1,53.7499976158143,2|8,0:0|0:0,0:0:0:0:
176,144,72332,6,0,L|64:144,1,107.499995231629,4|2,1:2|0:0,0:0:0:0:
200,144,72944,1,10,0:0:0:0:
72,144,73250,1,2,0:0:0:0:
216,144,73556,6,0,L|224:256,1,107.499995231629,2|2,1:2|0:0,0:0:0:0:
96,256,74169,2,0,L|88:144,1,107.499995231629,10|2,0:0|0:0,0:0:0:0:
360,144,74781,6,0,L|368:32,1,107.499995231629,2|2,1:2|0:0,0:0:0:0:
240,32,75393,1,10,0:0:0:0:
368,32,75699,1,2,1:2:0:0:
232,32,76005,6,0,P|152:32|136:104,1,161.249992847443,2|0,1:2|1:0,0:0:0:0:
304,104,76618,2,0,L|416:104,1,107.499995231629,10|2,0:0|1:2,0:0:0:0:
136,104,77230,6,0,L|128:216,1,107.499995231629,6|2,1:2|0:0,0:0:0:0:
256,208,77842,2,0,L|368:208,1,107.499995231629,10|0,0:0|0:0,0:0:0:0:
224,208,78454,6,0,L|112:208,1,107.499995231629,2|2,1:2|0:0,0:0:0:0:
248,208,79067,1,10,0:0:0:0:
120,208,79373,1,2,0:0:0:0:
392,208,79679,6,0,L|400:96,1,107.499995231629,2|2,1:2|0:0,0:0:0:0:
272,96,80291,1,8,0:0:0:0:
400,96,80597,1,0,1:0:0:0:
264,96,80903,6,0,L|152:96,1,107.499995231629,2|2,1:2|0:0,0:0:0:0:
288,96,81516,1,10,0:0:0:0:
160,96,81822,2,0,L|152:160,1,53.7499976158143,2|10,0:0|0:0,0:0:0:0:
328,152,82128,5,6,1:2:0:0:
392,152,82281,1,2,0:0:0:0:
424,208,82434,1,2,0:0:0:0:
392,264,82587,1,2,0:0:0:0:
328,264,82740,1,10,0:0:0:0:
184,264,83046,5,2,0:0:0:0:
120,264,83199,1,2,0:0:0:0:
88,208,83352,1,2,1:2:0:0:
120,152,83505,1,2,0:0:0:0:
184,152,83658,1,2,0:0:0:0:
320,152,83965,1,10,0:0:0:0:
192,152,84271,1,2,0:0:0:0:
464,152,84577,6,0,L|472:264,1,107.499995231629,2|2,1:2|0:0,0:0:0:0:
344,264,85189,1,10,0:0:0:0:
472,264,85495,1,2,1:2:0:0:
336,264,85801,5,2,1:2:0:0:
208,264,86107,2,0,L|200:200,1,53.7499976158143,2|2,0:0|1:2,0:0:0:0:
376,208,86414,2,0,P|392:208|376:152,1,107.499995231629,10|10,0:0|0:0,0:0:0:0:
320,152,86873,1,8,0:0:0:0:
152,152,87026,5,6,1:2:0:0:
256,192,87485,12,0,89475,0:0:0:0:
