osu file format v14

[General]
AudioFilename: audio.mp3
AudioLeadIn: 0
PreviewTime: 66674
Countdown: 0
SampleSet: Soft
StackLeniency: 0.7
Mode: 2
LetterboxInBreaks: 0
WidescreenStoryboard: 1

[Editor]
DistanceSpacing: 1.1
BeatDivisor: 12
GridSize: 8
TimelineZoom: 1.5

[Metadata]
Title:TOP -Japanese ver.- (TV Size)
TitleUnicode:TOP -Japanese ver.- (TV Size)
Artist:Stray Kids
ArtistUnicode:스트레이 키즈
Creator:rew0825
Version:Rain
Source:神之塔 -Tower of God-
Tags:tog kami no tou tō naver webtoon anime animation SIU Sin-ui Tap crunchyroll 신의 탑 pop jpop j-pop opening skz ストレイキッズ k-pop kpop LINE マンガ online web manga 방찬 리노 창빈 현진 한 필릭스 승민 아이엔 bang chan hyunjin lee know minho changbin han felix seungmin i.n korean japanese Telecom Film Talse Uzer
BeatmapID:2400374
BeatmapSetID:1149834

[Difficulty]
HPDrainRate:5
CircleSize:4
OverallDifficulty:8.8
ApproachRate:8.8
SliderMultiplier:2.93999990463257
SliderTickRate:1

[Events]
//Background and Video events
0,0,"Kami-no-Tou-02-45.jpg",0,0
//Break Periods
//Storyboard Layer 0 (Background)
//Storyboard Layer 1 (Fail)
//Storyboard Layer 2 (Pass)
//Storyboard Layer 3 (Foreground)
//Storyboard Layer 4 (Overlay)
//Storyboard Sound Samples

[TimingPoints]
1312,612.244897959184,4,2,1,45,1,0
4067,-100,4,2,1,25,0,0
4373,-100,4,2,1,45,0,0
8965,-100,4,2,1,50,0,0
11107,-100,4,2,1,55,0,0
13556,-100,4,2,3,55,0,0
13709,-100,4,2,1,55,0,0
14781,-100,4,2,3,55,0,0
14934,-100,4,2,1,55,0,0
21056,-100,4,2,1,50,0,0
25801,-100,4,2,1,55,0,0
31312,-90.9090909090909,4,2,1,55,0,0
31618,-100,4,2,2,55,0,0
31771,-100,4,2,1,55,0,0
32536,-90.9090909090909,4,2,1,55,0,0
33148,-100,4,2,1,55,0,0
33760,-90.9090909090909,4,2,1,55,0,0
34067,-100,4,2,2,55,0,0
34220,-100,4,2,1,55,0,0
34985,-83.3333333333333,4,2,1,55,0,0
35597,-100,4,2,1,55,0,0
37434,-90.9090909090909,4,2,1,55,0,0
38046,-100,4,2,1,55,0,0
39883,-90.9090909090909,4,2,1,55,0,0
40495,-100,4,2,1,55,0,0
41107,-90.9090909090909,4,2,1,55,0,0
41414,-100,4,2,2,55,0,0
41567,-100,4,2,1,55,0,0
42332,-90.9090909090909,4,2,1,55,0,0
42562,-100,4,2,1,55,0,0
42791,-100,4,2,1,45,0,0
42944,-100,4,2,1,50,0,0
44169,-100,4,2,1,55,0,0
45393,-100,4,2,1,45,0,0
48148,-100,4,2,1,25,0,0
48454,-100,4,2,1,45,0,0
53046,-100,4,2,1,50,0,0
55188,-100,4,2,1,55,0,0
57638,-100,4,2,3,55,0,0
57791,-100,4,2,1,55,0,0
58863,-100,4,2,3,55,0,0
59016,-100,4,2,1,55,0,0
64985,-100,4,2,1,50,0,0
66822,-100,4,2,1,55,0,0
67434,-100,4,2,1,60,0,1
87026,-100,4,2,1,55,0,0
87485,-100,4,2,1,40,0,0
87944,-100,4,2,1,35,0,0
88250,-100,4,2,1,30,0,0
88556,-100,4,2,1,25,0,0
88863,-100,4,2,1,20,0,0
89169,-100,4,2,1,15,0,0
89475,-100,4,2,1,10,0,0

[Colours]
Combo1 : 189,213,215
Combo2 : 39,89,127
Combo3 : 124,96,91
Combo4 : 131,45,41

[HitObjects]
136,192,597,5,2,0:0:0:0:
392,192,903,2,0,P|432:152|392:112,1,122.499996026357,2|0,0:0|0:0,0:0:0:0:
176,112,1312,6,0,P|104:144|176:224,1,220.499992847443,6|2,0:0|0:0,0:0:0:0:
256,224,1924,2,0,L|416:224,2,146.999995231629,2|2|2,0:0|0:0|0:0,0:0:0:0:
112,224,2689,2,0,P|40:192|112:112,1,220.499992847443,2|2,0:0|0:0,0:0:0:0:
360,112,3454,6,0,P|216:112|136:232,1,293.999990463257,2|2,0:0|0:0,0:0:0:0:
280,232,4373,1,0,0:0:0:0:
424,232,4679,1,2,0:0:0:0:
344,232,4832,1,2,0:0:0:0:
192,232,4985,6,0,L|32:232,1,146.999995231629,2|2,0:0|0:0,0:0:0:0:
208,232,5597,2,0,L|368:232,1,146.999995231629,2|2,0:0|0:0,0:0:0:0:
96,232,6209,6,0,P|48:208|96:152,1,146.999995231629,2|2,0:0|0:0,0:0:0:0:
168,80,6669,1,2,0:0:0:0:
248,80,6822,1,2,0:0:0:0:
88,80,7128,1,2,0:0:0:0:
344,80,7434,6,0,P|408:80|432:152,1,146.999995231629,2|2,0:0|0:0,0:0:0:0:
248,152,8097,2,0,L|152:152,2,73.4999976158143,2|2|2,0:0|0:0|0:0,0:0:0:0:
408,152,8582,6,0,P|440:208|352:256,1,183.749994039536,2|0,0:0|1:2,0:0:0:0:
270,232,9118,1,0,1:2:0:0:
272,152,9271,1,0,1:2:0:0:
424,152,9424,2,0,L|504:152,2,73.4999976158143,2|2|2,1:2|0:0|1:2,0:0:0:0:
272,152,9883,6,0,L|104:152,1,146.999995231629,2|2,1:2|1:2,0:0:0:0:
208,152,10342,1,0,1:2:0:0:
352,152,10495,2,0,P|416:152|440:80,1,146.999995231629,2|2,1:2|1:2,0:0:0:0:
72,80,11107,6,0,L|64:240,1,146.999995231629,6|8,1:2|0:0,0:0:0:0:
152,232,11567,1,2,0:2:0:0:
304,232,11720,2,0,L|312:152,1,73.4999976158143,2|8,1:2|0:0,0:0:0:0:
224,160,12026,2,0,L|216:80,1,73.4999976158143,2|0,0:2|0:0,0:0:0:0:
368,88,12332,6,0,P|416:112|368:168,1,146.999995231629,2|2,1:2|0:2,0:0:0:0:
280,168,12791,1,8,0:0:0:0:
136,168,12944,2,0,P|88:192|136:248,1,146.999995231629,2|10,1:2|0:2,0:0:0:0:
280,248,13403,6,0,L|440:248,1,146.999995231629,2|0,0:2|0:0,0:0:0:0:
344,248,13863,2,0,L|256:248,1,73.4999976158143,10|0,0:0|0:0,0:0:0:0:
112,248,14169,2,0,L|104:168,1,73.4999976158143,2|8,1:2|0:0,0:0:0:0:
192,168,14475,1,2,0:2:0:0:
336,176,14628,6,0,P|400:176|424:104,1,146.999995231629,8|0,0:0|0:0,0:0:0:0:
336,104,15087,2,0,L|256:104,1,73.4999976158143,2|8,0:0|0:0,0:0:0:0:
112,104,15393,1,2,1:2:0:0:
32,104,15546,1,0,0:0:0:0:
48,176,15699,1,10,0:0:0:0:
128,176,15852,1,0,0:0:0:0:
352,176,16005,6,0,L|360:256,1,73.4999976158143,2|2,1:2|0:0,0:0:0:0:
280,248,16312,1,10,0:0:0:0:
360,248,16465,1,2,0:0:0:0:
216,248,16618,2,0,L|120:248,1,73.4999976158143,2|8,1:2|0:0,0:0:0:0:
288,248,16924,6,0,L|296:168,1,73.4999976158143,2|8,0:0|0:0,0:0:0:0:
216,176,17230,1,2,1:2:0:0:
296,176,17383,1,2,0:0:0:0:
152,176,17536,2,0,L|144:96,1,73.4999976158143,2|8,0:0|0:0,0:0:0:0:
296,104,17842,2,0,L|384:104,1,73.4999976158143,0|0,1:0|0:0,0:0:0:0:
456,104,18148,1,0,1:0:0:0:
368,104,18301,1,8,0:0:0:0:
112,104,18454,6,0,L|104:184,1,73.4999976158143,2|2,1:2|0:0,0:0:0:0:
192,176,18760,1,2,0:0:0:0:
104,176,18914,1,10,0:2:0:0:
256,176,19067,2,0,L|264:256,1,73.4999976158143,2|2,1:2|0:0,0:0:0:0:
176,248,19373,1,2,0:0:0:0:
264,248,19526,1,10,0:2:0:0:
488,248,19679,5,2,1:2:0:0:
496,168,19832,1,2,0:0:0:0:
456,96,19985,1,2,1:2:0:0:
376,80,20138,1,2,0:0:0:0:
160,80,20291,2,0,L|64:80,1,73.4999976158143,10|8,0:0|0:0,0:0:0:0:
232,80,20597,2,0,L|328:80,1,73.4999976158143,10|8,0:0|0:0,0:0:0:0:
48,80,20903,5,4,1:2:0:0:
256,192,21056,12,0,23965,0:0:0:0:
112,256,24271,6,0,L|16:256,1,73.4999976158143,2|2,0:0|0:0,0:0:0:0:
184,256,24577,2,0,L|192:176,1,73.4999976158143,2|2,0:0|0:0,0:0:0:0:
112,184,24883,2,0,L|104:104,1,73.4999976158143,2|2,0:0|0:0,0:0:0:0:
328,112,25189,2,0,L|408:112,1,73.4999976158143,10|10,0:0|0:0,0:0:0:0:
256,112,25495,2,0,L|176:112,1,73.4999976158143,10|10,0:0|0:0,0:0:0:0:
440,112,25801,6,0,L|448:192,1,73.4999976158143,6|2,1:2|0:0,0:0:0:0:
368,184,26107,1,2,0:0:0:0:
448,184,26260,1,8,0:0:0:0:
304,184,26414,2,0,L|296:264,1,73.4999976158143,2|2,1:2|0:0,0:0:0:0:
376,256,26720,1,10,0:0:0:0:
120,256,27026,6,0,P|72:232|120:176,1,146.999995231629,2|0,1:2|0:0,0:0:0:0:
200,176,27485,1,2,0:0:0:0:
344,176,27638,2,0,L|432:176,1,73.4999976158143,10|2,0:2|0:0,0:0:0:0:
408,96,27944,1,2,0:0:0:0:
40,96,28250,5,2,1:2:0:0:
120,96,28403,2,0,L|112:176,1,73.4999976158143,2|2,0:0|0:0,0:0:0:0:
32,168,28709,1,10,0:0:0:0:
176,168,28863,2,0,L|184:248,1,73.4999976158143,2|2,1:2|0:0,0:0:0:0:
104,240,29169,1,10,0:0:0:0:
360,240,29475,6,0,P|408:216|360:160,1,146.999995231629,2|0,1:2|0:0,0:0:0:0:
280,160,29934,1,2,0:0:0:0:
136,160,30087,2,0,P|88:136|136:80,1,146.999995231629,10|2,0:0|0:0,0:0:0:0:
208,80,30546,1,2,0:0:0:0:
440,80,30699,6,0,L|448:160,1,73.4999976158143,2|2,1:2|0:0,0:0:0:0:
368,152,31005,1,2,0:0:0:0:
448,152,31158,1,10,0:0:0:0:
312,152,31312,2,0,L|160:152,2,121.274999767113,2|2|2,1:2|0:0|0:0,0:0:0:0:
168,152,31924,6,0,L|160:232,1,73.4999976158143,2|0,1:2|0:0,0:0:0:0:
240,224,32230,1,2,0:0:0:0:
160,224,32383,1,2,0:0:0:0:
304,224,32536,2,0,L|432:224,2,121.274999767113,10|2|2,0:0|0:0|0:0,0:0:0:0:
80,224,33148,6,0,L|72:144,1,73.4999976158143,2|0,1:2|0:0,0:0:0:0:
152,152,33454,1,2,0:0:0:0:
72,152,33607,1,10,0:0:0:0:
216,152,33760,2,0,L|360:152,2,121.274999767113,2|2|2,1:2|0:0|0:0,0:0:0:0:
368,152,34373,5,2,1:2:0:0:
488,152,34577,1,2,0:0:0:0:
496,96,34679,1,2,0:0:0:0:
480,48,34781,1,2,0:0:0:0:
208,80,34985,2,0,L|336:120,2,132.29999167099,10|10|10,0:0|0:0|0:0,0:0:0:0:
472,80,35597,6,0,L|480:232,1,146.999995231629,6|0,1:2|0:0,0:0:0:0:
400,232,36056,1,0,0:0:0:0:
256,232,36209,2,0,L|248:312,1,73.4999976158143,10|0,0:0|0:0,0:0:0:0:
328,304,36516,1,10,0:0:0:0:
248,304,36669,1,2,0:0:0:0:
392,304,36822,6,0,L|472:304,2,73.4999976158143,2|2|2,1:2|0:0|0:0,0:0:0:0:
136,304,37434,2,0,L|8:304,2,121.274999767113,10|2|2,0:0|0:0|0:0,0:0:0:0:
360,304,38046,5,0,1:2:0:0:
480,304,38276,2,0,L|488:240,1,55.1249982118607,2|2,0:0|0:0,0:0:0:0:
424,248,38505,1,2,1:2:0:0:
280,248,38658,2,0,L|120:248,1,146.999995231629,10|2,0:0|0:0,0:0:0:0:
216,248,39118,1,2,0:0:0:0:
360,248,39271,6,0,L|368:160,1,73.4999976158143,2|2,1:2|0:0,0:0:0:0:
288,176,39577,1,2,0:0:0:0:
368,176,39730,1,2,0:0:0:0:
224,176,39883,2,0,L|96:176,2,121.274999767113,10|2|2,0:0|0:0|0:0,0:0:0:0:
448,176,40495,5,2,1:2:0:0:
368,176,40648,1,2,0:0:0:0:
376,248,40801,1,2,0:0:0:0:
456,248,40954,1,2,0:0:0:0:
312,248,41107,2,0,L|176:248,2,121.274999767113,10|2|0,0:0|0:0|0:0,0:0:0:0:
88,248,41720,6,0,L|80:168,1,73.4999976158143,0|2,1:2|0:0,0:0:0:0:
160,176,42026,1,2,0:0:0:0:
80,176,42179,1,2,0:0:0:0:
224,176,42332,1,8,0:0:0:0:
304,176,42485,1,0,1:0:0:0:
296,96,42638,1,0,1:0:0:0:
216,96,42791,1,0,1:0:0:0:
448,176,42944,5,0,1:2:0:0:
368,176,43097,1,2,0:0:0:0:
376,248,43250,1,2,0:0:0:0:
456,248,43403,1,2,0:0:0:0:
312,248,43556,2,0,P|264:224|312:168,1,146.999995231629,2|2,0:0|0:0,0:0:0:0:
392,168,44016,1,2,0:0:0:0:
168,168,44169,5,2,1:2:0:0:
88,168,44322,1,0,0:0:0:0:
96,240,44475,1,2,1:2:0:0:
176,240,44628,1,2,0:0:0:0:
400,240,44781,2,0,L|408:160,1,73.4999976158143,2|2,1:2|1:2,0:0:0:0:
264,168,45087,2,0,L|160:168,1,73.4999976158143,2|0,1:2|1:2,0:0:0:0:
408,168,45393,6,0,P|480:200|408:280,1,220.499992847443,6|2,0:0|0:0,0:0:0:0:
320,280,46005,2,0,L|160:280,2,146.999995231629,2|2|2,0:0|0:0|0:0,0:0:0:0:
472,280,46771,6,0,L|488:56,1,220.499992847443,2|2,0:0|0:0,0:0:0:0:
240,56,47536,2,0,P|120:136|184:240,1,293.999990463257,2|2,0:0|0:0,0:0:0:0:
344,240,48454,1,0,0:0:0:0:
184,240,48760,1,2,0:0:0:0:
264,240,48914,1,2,0:0:0:0:
408,240,49067,6,0,L|416:88,1,146.999995231629,2|2,0:0|0:0,0:0:0:0:
256,96,49679,2,0,L|96:96,1,146.999995231629,2|2,0:0|0:0,0:0:0:0:
368,96,50291,6,0,P|416:120|368:176,1,146.999995231629,2|2,0:0|0:0,0:0:0:0:
296,176,50750,1,2,0:0:0:0:
216,176,50903,1,2,0:0:0:0:
376,176,51209,1,2,0:0:0:0:
120,176,51516,6,0,L|112:328,1,146.999995231629,2|2,0:0|0:0,0:0:0:0:
304,328,52179,2,0,L|384:328,2,73.4999976158143,2|2|2,0:0|0:0|0:0,0:0:0:0:
144,328,52664,6,0,P|80:288|144:232,1,183.749994039536,2|0,0:0|1:2,0:0:0:0:
224,232,53199,1,0,1:2:0:0:
272,232,53352,1,0,1:2:0:0:
120,248,53505,2,0,L|16:248,2,73.4999976158143,2|2|2,1:2|0:0|1:2,0:0:0:0:
272,248,53965,6,0,L|424:248,1,146.999995231629,2|2,1:2|1:2,0:0:0:0:
336,248,54424,1,0,1:2:0:0:
192,248,54577,2,0,L|40:248,1,146.999995231629,2|2,1:2|1:2,0:0:0:0:
456,248,55189,6,0,L|464:96,1,146.999995231629,6|8,1:2|0:0,0:0:0:0:
384,96,55648,1,2,0:2:0:0:
232,96,55801,2,0,L|224:176,1,73.4999976158143,2|8,1:2|0:0,0:0:0:0:
312,168,56107,2,0,L|320:248,1,73.4999976158143,2|0,0:2|0:0,0:0:0:0:
168,240,56414,6,0,P|104:240|80:168,1,146.999995231629,2|2,1:2|0:2,0:0:0:0:
160,168,56873,1,8,0:0:0:0:
312,168,57026,2,0,L|464:168,1,146.999995231629,2|10,1:2|0:2,0:0:0:0:
312,168,57485,6,0,L|152:168,1,146.999995231629,2|0,0:2|0:0,0:0:0:0:
72,168,57944,2,0,L|64:248,1,73.4999976158143,10|0,0:0|0:0,0:0:0:0:
216,240,58250,2,0,L|304:240,2,73.4999976158143,2|8|2,1:2|0:0|0:2,0:0:0:0:
64,240,58709,6,0,L|56:88,1,146.999995231629,8|0,0:0|0:0,0:0:0:0:
144,160,59169,2,0,L|232:160,1,73.4999976158143,2|8,0:0|0:0,0:0:0:0:
368,160,59475,1,2,1:2:0:0:
448,160,59628,1,0,0:0:0:0:
440,240,59781,1,10,0:0:0:0:
360,240,59934,1,0,0:0:0:0:
104,240,60087,6,0,L|96:160,1,73.4999976158143,2|2,1:2|0:0,0:0:0:0:
176,168,60393,1,10,0:0:0:0:
96,168,60546,1,2,0:0:0:0:
248,168,60699,2,0,L|336:168,1,73.4999976158143,2|8,1:2|0:0,0:0:0:0:
176,168,61005,6,0,L|168:88,1,73.4999976158143,2|8,0:0|0:0,0:0:0:0:
248,96,61312,1,2,1:2:0:0:
168,96,61465,1,2,0:0:0:0:
320,96,61618,2,0,L|328:176,1,73.4999976158143,2|8,0:0|0:0,0:0:0:0:
176,168,61924,2,0,L|96:168,1,73.4999976158143,0|0,1:0|0:0,0:0:0:0:
192,168,62230,1,0,1:0:0:0:
104,168,62383,1,8,0:0:0:0:
360,168,62536,6,0,L|440:168,1,73.4999976158143,2|2,1:2|0:0,0:0:0:0:
344,168,62842,1,2,0:0:0:0:
432,168,62995,1,10,0:2:0:0:
288,168,63148,2,0,L|280:88,1,73.4999976158143,2|2,1:2|0:0,0:0:0:0:
368,96,63454,1,2,0:0:0:0:
280,96,63607,1,10,0:2:0:0:
56,96,63760,5,2,1:2:0:0:
32,176,63914,1,2,0:0:0:0:
72,248,64067,1,2,1:2:0:0:
152,256,64220,1,2,0:0:0:0:
376,256,64373,2,0,L|296:256,1,73.4999976158143,10|8,0:0|0:0,0:0:0:0:
152,256,64679,2,0,L|240:256,1,73.4999976158143,10|8,0:0|0:0,0:0:0:0:
464,256,64985,6,0,L|472:104,1,146.999995231629,6|8,1:2|0:0,0:0:0:0:
216,112,65597,2,0,L|64:112,1,146.999995231629,2|8,1:2|0:0,0:0:0:0:
328,184,66209,6,0,L|416:184,1,73.4999976158143,10|0,0:0|1:2,0:0:0:0:
256,184,66516,2,0,L|168:184,1,73.4999976158143,8|0,0:0|1:2,0:0:0:0:
400,184,66822,2,0,L|408:104,1,73.4999976158143,10|0,0:0|1:2,0:0:0:0:
264,112,67128,2,0,L|176:112,1,73.4999976158143,10|8,0:0|0:0,0:0:0:0:
456,112,67434,6,0,L|464:192,1,73.4999976158143,6|2,1:2|0:0,0:0:0:0:
312,184,67740,1,2,0:2:0:0:
56,184,68046,2,0,L|48:336,1,146.999995231629,8|0,0:0|0:0,0:0:0:0:
416,328,68658,6,0,L|504:328,1,73.4999976158143,2|2,1:2|0:0,0:0:0:0:
344,328,68965,1,2,0:0:0:0:
88,328,69271,2,0,L|80:248,1,73.4999976158143,10|2,0:0|0:0,0:0:0:0:
168,256,69577,1,2,0:0:0:0:
80,256,69730,1,2,0:0:0:0:
336,256,69883,6,0,L|344:176,1,73.4999976158143,2|0,1:2|0:0,0:0:0:0:
256,184,70189,1,2,0:0:0:0:
344,184,70342,1,2,0:0:0:0:
192,184,70495,2,0,L|112:184,1,73.4999976158143,8|2,0:0|0:0,0:0:0:0:
264,184,70801,2,0,L|344:184,1,73.4999976158143,0|2,1:0|0:0,0:0:0:0:
112,184,71107,6,0,L|104:264,1,73.4999976158143,2|0,1:2|0:0,0:0:0:0:
248,256,71414,2,0,L|336:256,1,73.4999976158143,2|0,0:0|1:2,0:0:0:0:
176,256,71720,2,0,L|96:256,2,73.4999976158143,8|2|2,0:0|0:0|0:0,0:0:0:0:
320,256,72179,1,8,0:0:0:0:
64,256,72332,6,0,L|56:176,1,73.4999976158143,4|2,1:2|0:0,0:0:0:0:
200,184,72638,1,2,0:0:0:0:
456,184,72944,2,0,L|464:336,1,146.999995231629,10|2,0:0|0:0,0:0:0:0:
96,328,73556,6,0,L|16:328,1,73.4999976158143,2|2,1:2|0:0,0:0:0:0:
168,328,73863,1,2,0:0:0:0:
424,328,74169,2,0,L|432:240,1,73.4999976158143,10|2,0:0|0:0,0:0:0:0:
344,256,74475,1,2,0:0:0:0:
432,256,74628,1,2,0:0:0:0:
176,256,74781,6,0,L|96:256,1,73.4999976158143,2|0,1:2|0:0,0:0:0:0:
200,184,75087,1,2,0:0:0:0:
104,184,75240,1,2,0:0:0:0:
248,96,75393,2,0,L|328:96,1,73.4999976158143,10|0,0:0|0:0,0:0:0:0:
176,96,75699,2,0,L|168:176,1,73.4999976158143,2|0,1:2|0:0,0:0:0:0:
392,112,76005,6,0,P|440:136|392:192,1,146.999995231629,2|0,1:2|0:0,0:0:0:0:
304,192,76465,1,0,1:0:0:0:
80,192,76618,2,0,L|168:192,1,73.4999976158143,10|2,0:0|1:2,0:0:0:0:
304,192,76924,2,0,L|392:192,1,73.4999976158143,2|0,1:2|0:0,0:0:0:0:
120,192,77230,6,0,L|40:192,1,73.4999976158143,6|2,1:2|0:0,0:0:0:0:
192,192,77536,1,2,0:0:0:0:
448,192,77842,2,0,L|456:344,1,146.999995231629,10|0,0:0|0:0,0:0:0:0:
88,336,78454,6,0,L|80:256,1,73.4999976158143,2|2,1:2|0:0,0:0:0:0:
224,264,78760,1,2,0:0:0:0:
480,264,79067,2,0,L|400:264,1,73.4999976158143,10|2,0:0|0:0,0:0:0:0:
320,264,79373,1,2,0:0:0:0:
408,264,79526,1,2,0:0:0:0:
152,264,79679,6,0,L|144:184,1,73.4999976158143,2|0,1:2|0:0,0:0:0:0:
232,192,79985,1,2,0:0:0:0:
144,192,80138,1,2,0:0:0:0:
296,192,80291,2,0,L|400:192,1,73.4999976158143,8|2,0:0|0:0,0:0:0:0:
224,192,80597,2,0,L|136:192,1,73.4999976158143,0|2,1:0|0:0,0:0:0:0:
384,192,80903,6,0,L|392:272,1,73.4999976158143,2|0,1:2|0:0,0:0:0:0:
304,264,81209,1,2,0:0:0:0:
392,264,81363,1,0,1:0:0:0:
248,264,81516,2,0,L|152:264,2,73.4999976158143,10|2|2,0:0|0:0|0:0,0:0:0:0:
392,264,81975,1,10,0:0:0:0:
136,264,82128,6,0,L|128:184,1,73.4999976158143,6|2,1:2|0:0,0:0:0:0:
216,192,82434,1,2,0:0:0:0:
128,192,82587,1,2,0:0:0:0:
352,192,82740,2,0,L|360:112,1,73.4999976158143,10|0,0:0|0:0,0:0:0:0:
208,120,83046,6,0,L|200:200,1,73.4999976158143,2|2,0:0|0:0,0:0:0:0:
288,192,83352,1,2,1:2:0:0:
200,192,83505,1,2,0:0:0:0:
424,192,83658,2,0,L|432:272,1,73.4999976158143,2|0,0:0|0:0,0:0:0:0:
280,264,83965,2,0,L|192:264,1,73.4999976158143,10|2,0:0|0:0,0:0:0:0:
120,264,84271,1,2,0:0:0:0:
208,264,84424,1,2,0:0:0:0:
464,264,84577,6,0,L|472:184,1,73.4999976158143,2|0,1:2|0:0,0:0:0:0:
384,192,84883,1,2,0:0:0:0:
472,192,85036,1,2,0:0:0:0:
328,192,85189,2,0,L|320:112,1,73.4999976158143,10|2,0:0|0:0,0:0:0:0:
408,120,85495,1,2,1:2:0:0:
320,120,85648,1,2,0:0:0:0:
96,192,85801,5,2,1:2:0:0:
24,136,85954,1,2,0:0:0:0:
56,56,86107,1,2,0:0:0:0:
144,48,86260,1,2,1:2:0:0:
368,48,86414,2,0,L|376:136,1,73.4999976158143,10|0,0:0|0:0,0:0:0:0:
240,120,86720,1,10,0:0:0:0:
376,120,86873,1,8,0:0:0:0:
120,120,87026,5,6,1:2:0:0:
256,192,87485,12,0,89475,0:0:0:0:
