osu file format v14

[General]
AudioFilename: audio.mp3
AudioLeadIn: 0
PreviewTime: 66674
Countdown: 0
SampleSet: Soft
StackLeniency: 0.7
Mode: 2
LetterboxInBreaks: 0
WidescreenStoryboard: 1

[Editor]
DistanceSpacing: 1.4
BeatDivisor: 12
GridSize: 8
TimelineZoom: 1.7

[Metadata]
Title:TOP -Japanese ver.- (TV Size)
TitleUnicode:TOP -Japanese ver.- (TV Size)
Artist:Stray Kids
ArtistUnicode:스트레이 키즈
Creator:rew0825
Version:Cup
Source:神之塔 -Tower of God-
Tags:tog kami no tou tō naver webtoon anime animation SIU Sin-ui Tap crunchyroll 신의 탑 pop jpop j-pop opening skz ストレイキッズ k-pop kpop LINE マンガ online web manga 방찬 리노 창빈 현진 한 필릭스 승민 아이엔 bang chan hyunjin lee know minho changbin han felix seungmin i.n korean japanese Telecom Film Talse Uzer
BeatmapID:2457405
BeatmapSetID:1149834

[Difficulty]
HPDrainRate:2
CircleSize:2.5
OverallDifficulty:5.8
ApproachRate:5.8
SliderMultiplier:1.87999990463257
SliderTickRate:1

[Events]
//Background and Video events
0,0,"Kami-no-Tou-02-45.jpg",0,0
//Break Periods
//Storyboard Layer 0 (Background)
//Storyboard Layer 1 (Fail)
//Storyboard Layer 2 (Pass)
//Storyboard Layer 3 (Foreground)
//Storyboard Layer 4 (Overlay)
//Storyboard Sound Samples

[TimingPoints]
1312,612.244897959184,4,2,1,45,1,0
4067,-100,4,2,1,25,0,0
4373,-100,4,2,1,45,0,0
8965,-100,4,2,1,50,0,0
21056,-100,4,2,1,50,0,0
25801,-100,4,2,1,55,0,0
42485,-100,4,2,1,45,0,0
42944,-100,4,2,1,50,0,0
44169,-100,4,2,1,55,0,0
45393,-100,4,2,1,45,0,0
48148,-100,4,2,1,25,0,0
48454,-100,4,2,1,45,0,0
53046,-100,4,2,1,50,0,0
55188,-100,4,2,1,55,0,0
64985,-100,4,2,1,50,0,0
66822,-100,4,2,1,55,0,0
67434,-100,4,2,1,60,0,1
87026,-100,4,2,1,55,0,0
87485,-100,4,2,1,40,0,0
87944,-100,4,2,1,35,0,0
88250,-100,4,2,1,30,0,0
88556,-100,4,2,1,25,0,0
88863,-100,4,2,1,20,0,0
89169,-100,4,2,1,15,0,0
89475,-100,4,2,1,10,0,0

[Colours]
Combo1 : 188,213,216
Combo2 : 39,89,127
Combo3 : 124,96,91
Combo4 : 131,45,41

[HitObjects]
376,288,597,6,0,L|384:192,1,93.9999952316285,2|2,0:0|0:0,0:0:0:0:
192,192,1312,6,0,P|128:160|192:96,1,187.999990463257,6|2,0:0|0:0,0:0:0:0:
416,96,2536,2,0,P|480:128|416:192,1,187.999990463257,2|2,0:0|0:0,0:0:0:0:
288,192,3454,5,2,0:0:0:0:
64,192,4067,1,2,0:0:0:0:
288,192,4679,6,0,L|384:192,1,93.9999952316285,2|2,0:0|0:0,0:0:0:0:
272,192,5291,2,0,L|176:192,2,93.9999952316285,2|2|2,0:0|0:0|0:0,0:0:0:0:
400,192,6209,6,0,P|464:160|400:96,1,187.999990463257,2|2,0:0|0:0,0:0:0:0:
288,96,7128,1,2,0:0:0:0:
400,96,7434,6,0,L|208:96,1,187.999990463257,2|2,0:0|0:0,0:0:0:0:
440,96,8582,6,0,L|312:96,1,117.499994039536,2|0,0:0|1:2,0:0:0:0:
216,96,9271,1,0,1:2:0:0:
208,152,9424,1,2,1:2:0:0:
320,152,9730,1,2,1:2:0:0:
328,208,9883,5,2,1:2:0:0:
208,208,10189,1,2,1:2:0:0:
328,208,10495,2,0,L|432:208,1,93.9999952316285,2|2,1:2|1:2,0:0:0:0:
280,208,11107,6,0,P|192:208|168:120,1,187.999990463257,6|2,1:2|1:2,0:0:0:0:
280,120,12026,1,2,0:2:0:0:
164,119,12332,6,0,L|68:119,1,93.9999952316285,2|2,1:2|0:2,0:0:0:0:
200,120,12944,2,0,L|344:120,2,140.999992847443,2|2|10,1:2|0:2|0:0,0:0:0:0:
88,120,14169,6,0,L|232:120,2,140.999992847443,2|10|2,1:2|0:0|0:0,0:0:0:0:
200,120,15393,2,0,L|208:216,1,93.9999952316285,2|10,1:2|0:0,0:0:0:0:
64,216,16005,6,0,L|56:312,1,93.9999952316285,2|10,1:2|0:0,0:0:0:0:
112,312,16465,1,2,0:0:0:0:
168,312,16618,1,2,1:2:0:0:
296,312,16924,6,0,L|304:216,1,93.9999952316285,2|2,0:0|1:2,0:0:0:0:
248,216,17383,1,2,0:0:0:0:
192,216,17536,1,2,0:0:0:0:
64,216,17842,2,0,L|56:120,1,93.9999952316285,0|0,1:0|1:0,0:0:0:0:
200,120,18454,6,0,L|392:120,1,187.999990463257,2|2,1:2|1:2,0:0:0:0:
272,120,19373,1,2,0:0:0:0:
160,120,19679,6,0,L|152:216,1,93.9999952316285,2|2,1:2|1:2,0:0:0:0:
296,216,20291,1,10,0:0:0:0:
352,216,20444,1,8,0:0:0:0:
296,216,20597,1,10,0:0:0:0:
152,216,20903,5,4,1:2:0:0:
256,192,21209,12,2,24271,0:0:0:0:
296,288,24577,6,0,L|304:192,1,93.9999952316285,2|2,0:0|0:0,0:0:0:0:
176,192,25189,1,10,0:0:0:0:
120,192,25342,1,10,0:0:0:0:
176,192,25495,1,10,0:0:0:0:
320,192,25801,6,0,P|400:192|440:96,1,187.999990463257,6|2,1:2|1:2,0:0:0:0:
328,104,26720,1,10,0:0:0:0:
211,103,27026,6,0,P|147:135|211:199,1,187.999990463257,2|10,1:2|0:2,0:0:0:0:
320,200,27944,1,2,0:0:0:0:
192,200,28250,6,0,L|40:200,2,140.999992847443,2|10|10,1:2|0:0|0:0,0:0:0:0:
304,200,29475,6,0,P|368:168|304:104,1,187.999990463257,2|10,1:2|0:0,0:0:0:0:
192,104,30393,1,2,0:0:0:0:
336,104,30699,6,0,L|344:200,1,93.9999952316285,2|2,1:2|0:0,0:0:0:0:
232,200,31312,2,0,L|224:296,1,93.9999952316285,2|8,1:2|0:0,0:0:0:0:
344,296,31924,6,0,P|408:264|344:200,1,187.999990463257,2|10,1:2|0:0,0:0:0:0:
232,200,32842,1,0,0:0:0:0:
360,200,33148,6,0,L|368:104,1,93.9999952316285,2|2,1:2|0:0,0:0:0:0:
256,104,33760,2,0,L|160:104,1,93.9999952316285,2|8,1:2|0:0,0:0:0:0:
273,106,34373,6,0,L|409:106,1,93.9999952316285,2|2,1:2|0:0,0:0:0:0:
256,104,34985,1,10,0:0:0:0:
168,104,35215,1,10,0:0:0:0:
256,104,35444,1,10,0:0:0:0:
320,104,35597,6,0,P|416:104|440:184,1,187.999990463257,6|10,1:2|0:0,0:0:0:0:
336,184,36516,1,10,0:0:0:0:
224,184,36822,6,0,L|216:280,1,93.9999952316285,2|2,1:2|0:0,0:0:0:0:
328,280,37434,2,0,L|440:280,1,93.9999952316285,10|2,0:0|0:0,0:0:0:0:
288,280,38046,6,0,L|184:280,1,93.9999952316285,0|2,1:2|0:0,0:0:0:0:
304,280,38658,2,0,P|392:280|416:192,1,187.999990463257,10|2,0:0|1:2,0:0:0:0:
304,192,39577,5,2,0:0:0:0:
192,192,39883,2,0,L|184:96,1,93.9999952316285,10|2,0:0|0:0,0:0:0:0:
336,96,40495,6,0,P|400:128|336:192,1,187.999990463257,2|10,1:2|0:0,0:0:0:0:
224,192,41414,1,8,0:0:0:0:
339,192,41720,6,0,L|443:192,1,93.9999952316285,0|2,1:2|0:0,0:0:0:0:
312,192,42332,1,8,0:0:0:0:
256,192,42485,1,0,1:0:0:0:
312,192,42638,1,0,1:0:0:0:
440,192,42944,6,0,P|416:272|320:272,1,187.999990463257,0|2,1:2|0:0,0:0:0:0:
208,272,43863,1,2,0:0:0:0:
352,272,44169,6,0,L|456:272,1,93.9999952316285,2|2,1:2|1:2,0:0:0:0:
312,272,44781,1,2,1:2:0:0:
256,272,44934,1,2,1:2:0:0:
200,272,45087,1,2,1:2:0:0:
344,272,45393,6,0,P|408:208|344:176,1,187.999990463257,6|2,0:0|0:0,0:0:0:0:
120,176,46618,2,0,P|56:208|120:272,1,187.999990463257,2|2,0:0|0:0,0:0:0:0:
248,272,47536,5,2,0:0:0:0:
472,272,48148,1,2,0:0:0:0:
248,272,48760,6,0,L|240:176,1,93.9999952316285,2|2,0:0|0:0,0:0:0:0:
352,176,49373,1,2,0:0:0:0:
240,178,49679,2,0,L|136:178,1,93.9999952316285,2|2,0:0|0:0,0:0:0:0:
280,176,50291,6,0,L|480:176,1,187.999990463257,2|2,0:0|0:0,0:0:0:0:
352,176,51209,1,2,0:0:0:0:
240,176,51516,6,0,P|176:208|240:272,1,187.999990463257,2|2,0:0|0:0,0:0:0:0:
472,272,52664,6,0,L|336:272,1,117.499994039536,2|0,0:0|1:2,0:0:0:0:
240,272,53352,1,0,1:2:0:0:
232,216,53505,1,2,1:2:0:0:
344,216,53812,1,2,1:2:0:0:
352,160,53965,5,2,1:2:0:0:
240,160,54271,1,2,1:2:0:0:
352,160,54577,2,0,L|456:160,1,93.9999952316285,2|2,1:2|1:2,0:0:0:0:
304,160,55189,6,0,P|216:160|192:248,1,187.999990463257,6|2,1:2|1:2,0:0:0:0:
304,248,56107,1,2,0:2:0:0:
188,248,56414,2,0,L|180:152,1,93.9999952316285,2|2,1:2|0:2,0:0:0:0:
312,152,57026,6,0,L|464:152,2,140.999992847443,2|2|10,1:2|0:2|0:0,0:0:0:0:
184,152,58250,6,0,P|144:168|184:232,1,140.999992847443,2|8,1:2|0:0,0:0:0:0:
352,232,59169,1,2,0:0:0:0:
464,232,59475,1,2,1:2:0:0:
352,232,59781,1,10,0:0:0:0:
208,232,60087,6,0,L|200:136,1,93.9999952316285,2|10,1:2|0:0,0:0:0:0:
256,136,60546,1,2,0:0:0:0:
312,136,60699,1,2,1:2:0:0:
440,136,61005,6,0,L|448:232,1,93.9999952316285,2|2,0:0|1:2,0:0:0:0:
392,232,61465,1,2,0:0:0:0:
336,232,61618,1,2,0:0:0:0:
208,232,61924,2,0,L|200:328,1,93.9999952316285,0|0,1:0|1:0,0:0:0:0:
336,328,62536,6,0,P|400:296|336:232,1,187.999990463257,2|2,1:2|1:2,0:0:0:0:
232,232,63454,1,2,0:0:0:0:
347,231,63760,6,0,L|451:231,1,93.9999952316285,2|2,1:2|1:2,0:0:0:0:
296,232,64373,1,10,0:0:0:0:
272,184,64526,1,8,0:0:0:0:
264,136,64679,1,10,0:0:0:0:
409,223,64985,6,0,P|473:191|409:127,1,187.999990463257,6|2,1:2|1:2,0:0:0:0:
296,128,65903,1,8,0:0:0:0:
424,128,66209,6,0,L|232:128,1,187.999990463257,10|10,0:0|0:0,0:0:0:0:
352,128,67128,1,10,0:0:0:0:
208,128,67434,6,0,L|200:224,1,93.9999952316285,6|2,1:2|0:2,0:0:0:0:
328,224,68046,2,0,P|416:224|440:312,1,187.999990463257,8|2,0:0|1:2,0:0:0:0:
328,312,68965,5,2,0:0:0:0:
200,312,69271,2,0,L|192:216,1,93.9999952316285,10|2,0:0|0:0,0:0:0:0:
336,216,69883,6,0,P|400:184|336:120,1,187.999990463257,2|8,1:2|0:0,0:0:0:0:
224,120,70801,1,0,1:0:0:0:
352,120,71107,6,0,P|440:120|464:208,1,187.999990463257,2|8,1:2|0:0,0:0:0:0:
352,208,72026,1,2,0:0:0:0:
208,208,72332,6,0,P|144:240|208:304,1,187.999990463257,4|10,1:2|0:0,0:0:0:0:
320,304,73250,1,2,0:0:0:0:
448,304,73556,6,0,L|256:304,1,187.999990463257,2|10,1:2|0:0,0:0:0:0:
144,304,74475,1,2,0:0:0:0:
288,304,74781,6,0,P|376:304|400:216,1,187.999990463257,2|10,1:2|0:0,0:0:0:0:
288,216,75699,1,2,1:2:0:0:
160,216,76005,5,2,1:2:0:0:
424,216,76618,2,0,L|432:120,1,93.9999952316285,10|2,0:0|1:2,0:0:0:0:
288,120,77230,6,0,L|184:120,1,93.9999952316285,6|2,1:2|0:0,0:0:0:0:
328,120,77842,2,0,P|392:152|328:216,1,187.999990463257,10|2,0:0|1:2,0:0:0:0:
216,216,78760,5,2,0:0:0:0:
344,216,79067,2,0,L|448:216,1,93.9999952316285,10|2,0:0|0:0,0:0:0:0:
296,216,79679,6,0,P|208:216|184:304,1,187.999990463257,2|8,1:2|0:0,0:0:0:0:
296,304,80597,1,0,1:0:0:0:
424,304,80903,6,0,L|432:208,1,93.9999952316285,2|2,1:2|0:0,0:0:0:0:
320,208,81516,2,0,L|208:208,1,93.9999952316285,10|2,0:0|0:0,0:0:0:0:
368,208,82128,6,0,L|376:112,1,93.9999952316285,6|2,1:2|0:0,0:0:0:0:
320,112,82587,1,2,0:0:0:0:
264,112,82740,1,10,0:0:0:0:
136,112,83046,6,0,L|128:208,1,93.9999952316285,2|2,0:0|1:2,0:0:0:0:
184,208,83505,1,2,0:0:0:0:
240,208,83658,1,2,0:0:0:0:
368,208,83965,2,0,L|464:208,1,93.9999952316285,10|2,0:0|0:0,0:0:0:0:
320,208,84577,6,0,P|256:240|320:304,1,187.999990463257,2|10,1:2|0:0,0:0:0:0:
432,304,85495,1,2,1:2:0:0:
304,304,85801,5,2,1:2:0:0:
200,304,86107,1,2,0:0:0:0:
320,304,86414,1,10,0:0:0:0:
200,304,86720,1,10,0:0:0:0:
352,304,87026,5,6,1:2:0:0:
256,192,87485,12,0,89475,0:0:0:0:
