osu file format v14

[General]
AudioFilename: audio.mp3
AudioLeadIn: 0
PreviewTime: 462
Countdown: 0
SampleSet: Soft
StackLeniency: 0.4
Mode: 0
LetterboxInBreaks: 0
WidescreenStoryboard: 1

[Editor]
Bookmarks: 11099,25793,35589,67426
DistanceSpacing: 1
BeatDivisor: 4
GridSize: 16
TimelineZoom: 2.5

[Metadata]
Title:TOP -Japanese ver.- (TV Size)
TitleUnicode:TOP -Japanese ver.- (TV Size)
Artist:Stray Kids
ArtistUnicode:스트레이 키즈
Creator:AirinCat
Version:Normal
Source:神之塔 -Tower of God-
Tags:tog kami no tou tō naver webtoon anime animation SIU Sin-ui Tap crunchyroll 신의 탑 pop jpop j-pop opening skz ストレイキッズ k-pop kpop LINE マンガ online web manga 방찬 리노 창빈 현진 한 필릭스 승민 아이엔 bang chan hyunjin lee know minho changbin han felix seungmin i.n korean japanese Twenty-Fifth Bam baam Khun Aguero Agnes Wraithraiser Rak rachel jahad endorsi Telecom Film Talse Uzer
BeatmapID:2401872
BeatmapSetID:1150628

[Difficulty]
HPDrainRate:3
CircleSize:3.4
OverallDifficulty:4
ApproachRate:5.4
SliderMultiplier:1.6
SliderTickRate:1

[Events]
//Background and Video events
0,0,"tog.jpg",0,0
Video,229,"cute boi.mp4"
//Break Periods
2,21108,23137
//Storyboard Layer 0 (Background)
//Storyboard Layer 1 (Fail)
//Storyboard Layer 2 (Pass)
//Storyboard Layer 3 (Foreground)
//Storyboard Layer 4 (Overlay)
//Storyboard Sound Samples

[TimingPoints]
1317,612.244897959184,4,2,1,40,1,0
1317,-100,4,2,1,40,0,0
8587,-90.9090909090909,4,2,1,48,0,0
11112,-86.9565217391304,4,2,1,58,0,0
11572,-86.9565217391304,4,2,1,58,0,0
19531,-86.9565217391304,4,2,1,60,0,0
20296,-86.9565217391304,4,2,1,62,0,0
20908,-125,4,2,4,40,0,0
20985,-125,4,2,1,5,0,0
24276,-100,4,2,1,40,0,0
25194,-100,4,2,1,50,0,0
25500,-100,4,2,1,60,0,0
25806,-86.9565217391304,4,2,2,60,0,0
33612,-86.9565217391304,4,2,2,60,0,0
33995,-86.9565217391304,4,2,2,5,0,0
34072,-86.9565217391304,4,2,2,70,0,0
34378,-86.9565217391304,4,2,2,60,0,0
35602,-86.9565217391304,4,2,2,60,0,0
42949,-111.111111111111,4,2,2,64,0,0
43561,-111.111111111111,4,2,2,50,0,0
44786,-111.111111111111,4,2,3,50,0,0
45398,-100,4,2,1,40,0,0
52669,-90.9090909090909,4,2,1,50,0,0
55194,-86.9565217391304,4,2,1,60,0,0
55500,-86.9565217391304,4,2,1,60,0,0
63612,-86.9565217391304,4,2,1,64,0,0
64990,-90.9090909090909,4,2,3,45,0,0
65602,-90.9090909090909,4,2,3,50,0,0
66061,-90.9090909090909,4,2,3,54,0,0
66521,-90.9090909090909,4,2,3,58,0,0
66827,-90.9090909090909,4,2,3,68,0,1
66980,-90.9090909090909,4,2,3,68,0,0
67439,-83.3333333333333,4,2,1,70,0,1
67975,-83.3333333333333,4,2,1,5,0,1
68051,-83.3333333333333,4,2,1,70,0,1
70424,-83.3333333333333,4,2,1,5,0,1
70500,-83.3333333333333,4,2,1,70,0,1
72873,-83.3333333333333,4,2,1,5,0,1
72949,-83.3333333333333,4,2,1,70,0,1
75704,-83.3333333333333,4,2,1,70,0,1
75934,-83.3333333333333,4,2,1,5,0,1
76010,-83.3333333333333,4,2,1,70,0,1
77771,-83.3333333333333,4,2,1,5,0,1
77847,-83.3333333333333,4,2,1,70,0,1
80220,-83.3333333333333,4,2,1,5,0,1
80296,-83.3333333333333,4,2,1,70,0,1
87031,-83.3333333333333,4,2,1,60,0,0

[Colours]
Combo1 : 164,187,249
Combo2 : 226,176,146
Combo3 : 222,131,131
Combo4 : 192,154,154
Combo5 : 158,150,205

[HitObjects]
7,172,1317,6,0,L|94:182,1,80,4|0,0:1|0:0,0:0:0:0:
143,239,1929,2,0,L|133:322,1,80,2|0,0:0|0:0,0:0:0:0:
198,364,2541,1,2,0:0:0:0:
330,294,3153,2,0,L|425:308,1,80,0|2,0:0|0:0,0:0:0:0:
435,336,3612,1,2,0:0:0:0:
435,336,4990,2,0,L|445:255,1,80,2|0,0:0|0:0,0:0:0:0:
498,197,5602,2,0,L|508:116,1,80,2|0,0:0|0:0,0:0:0:0:
462,51,6214,6,0,P|412:20|356:37,1,120,2|0,0:0|0:0,0:0:0:0:
319,50,6827,2,0,L|332:137,1,80,2|0,0:0|0:0,0:0:0:0:
382,191,7439,1,2,0:0:0:0:
288,320,8051,2,0,L|205:330,1,80,2|2,0:0|0:0,0:0:0:0:
142,327,8587,6,0,P|116:281|135:223,1,110.000003356934,2|8,0:0|0:3,0:0:0:0:
152,192,9123,1,4,0:3:0:0:
152,192,9276,1,4,3:3:0:0:
81,139,9582,2,0,L|89:84,1,44.0000013427735,2|2,3:2|3:2,0:0:0:0:
74,53,9888,2,0,L|177:64,1,88.000002685547,2|2,1:2|0:0,0:0:0:0:
228,5,10500,1,2,1:2:0:0:
315,23,10806,1,8,0:3:0:0:
323,114,11112,6,0,B|314:177|314:177|309:185|309:185|302:255,1,138.000002632141,4|2,1:1|0:2,0:0:0:0:
330,286,11725,2,0,L|426:298,1,92.0000017547608,0|0,1:0|0:0,0:0:0:0:
498,246,12337,1,0,1:0:0:0:
452,67,12949,2,0,L|349:55,1,92.0000017547608,2|0,1:2|3:0,0:0:0:0:
318,58,13408,1,2,0:0:0:0:
318,58,13561,5,0,1:0:0:0:
253,123,13868,1,8,0:3:0:0:
300,201,14174,2,0,L|285:304,1,92.0000017547608,2|2,1:2|0:0,0:0:0:0:
222,358,14786,2,0,P|177:364|136:341,1,92.0000017547608,2|0,1:2|0:0,0:0:0:0:
68,281,15398,1,2,1:2:0:0:
120,205,15704,1,4,0:3:0:0:
65,131,16010,6,0,L|76:67,1,46.0000008773804,4|2,1:1|0:0,0:0:0:0:
79,39,16317,2,0,L|143:50,1,46.0000008773804,2|2,3:2|0:0,0:0:0:0:
168,58,16623,1,2,1:2:0:0:
257,80,16929,2,0,L|246:144,1,46.0000008773804,2|2,0:0|0:0,0:0:0:0:
243,172,17235,2,0,L|179:161,1,46.0000008773804,2|2,1:2|0:0,0:0:0:0:
152,158,17541,2,0,L|136:263,1,92.0000017547608,2|0,0:0|1:2,0:0:0:0:
79,319,18153,1,8,0:3:0:0:
155,370,18459,6,0,P|207:357|306:344,1,138.000002632141,2|0,1:2|1:0,0:0:0:0:
336,350,19072,2,0,P|379:358|415:331,1,92.0000017547608,2|0,1:2|0:0,0:0:0:0:
437,292,19531,1,0,1:0:0:0:
437,292,19684,1,2,1:2:0:0:
381,218,19990,1,0,1:0:0:0:
438,146,20296,2,0,L|432:99,1,46.0000008773804,0|0,1:0|1:0,0:0:0:0:
421,55,20602,2,0,L|374:61,1,46.0000008773804,0|0,1:0|1:0,0:0:0:0:
329,68,20908,5,4,1:1:0:0:
0,325,24276,6,0,L|78:309,1,80,2|2,0:0|0:0,0:0:0:0:
145,351,24888,1,2,0:0:0:0:
202,294,25194,2,0,L|242:288,1,40,2|2,0:0|0:0,0:0:0:0:
278,303,25500,2,0,L|325:293,1,40,2|2,0:0|0:0,0:0:0:0:
357,311,25806,6,0,P|405:324|444:301,1,92.0000017547608,0|0,1:0|0:0,0:0:0:0:
485,295,26265,2,0,P|477:251|474:204,1,92.0000017547608,8|0,0:0|0:0,0:0:0:0:
502,167,26725,1,8,0:0:0:0:
435,103,27031,2,0,B|395:95|362:116|388:131|353:153|298:141,1,138.000002632141,2|0,0:0|0:0,0:0:0:0:
264,138,27643,1,8,0:0:0:0:
226,53,27949,1,0,0:0:0:0:
138,81,28255,6,0,L|118:191,1,92.0000017547608,0|0,1:0|0:0,0:0:0:0:
76,178,28714,2,0,B|39:209|39:209|50:251,1,92.0000017547608,8|0,0:0|0:0,0:0:0:0:
67,294,29174,1,8,0:0:0:0:
152,261,29480,2,0,P|215:278|298:296,1,138.000002632141,2|2,0:0|0:0,0:0:0:0:
317,326,30092,1,8,0:0:0:0:
399,367,30398,2,0,L|449:355,1,46.0000008773804,0|2,0:0|0:0,0:0:0:0:
468,317,30704,6,0,L|447:227,1,92.0000017547608,0|0,1:0|0:0,0:0:0:0:
402,218,31163,2,0,P|376:180|389:135,1,92.0000017547608,8|0,0:0|0:0,0:0:0:0:
418,104,31623,1,8,0:0:0:0:
350,41,31929,2,0,P|304:46|251:52,1,92.0000017547608,2|2,0:0|0:0,0:0:0:0:
193,115,32541,2,0,P|179:152|201:209,1,92.0000017547608,10|0,0:0|0:0,0:0:0:0:
273,245,33153,6,0,P|318:236|375:229,1,92.0000017547608,0|0,1:0|0:0,0:0:0:0:
409,234,33612,2,2,B|442:266|442:266|421:316,1,92.0000017547608,10|0,3:2|0:0,0:1:0:0:
399,347,34072,1,8,0:1:0:0:
307,344,34378,1,2,0:0:0:0:
226,178,34990,2,0,L|242:91,2,69.0000013160706,2|2|2,0:3|0:3|0:3,0:0:0:0:
186,200,35602,6,0,P|133:155|66:176,1,138.000002632141,4|2,1:2|0:0,0:0:0:0:
41,205,36214,1,8,0:0:0:0:
76,290,36521,1,8,0:0:0:0:
165,309,36827,2,0,P|213:301|260:294,1,92.0000017547608,2|2,0:0|0:0,0:0:0:0:
334,246,37439,2,0,B|342:209|342:209|308:175,2,69.0000013160706,10|2|2,0:2|0:3|0:3,0:0:0:0:
364,280,38051,6,0,P|422:307|473:266,1,138.000002632141,0|2,1:2|0:0,0:0:0:0:
502,229,38663,2,0,B|490:184|490:184|495:174|495:174|484:133,1,92.0000017547608,10|0,0:0|0:0,0:0:0:0:
423,73,39276,1,2,0:0:0:0:
339,110,39582,1,0,0:0:0:0:
254,74,39888,2,0,B|240:39|240:39|251:0,2,69.0000013160706,10|2|2,0:0|0:3|0:3,0:0:0:0:
220,105,40500,6,0,P|173:110|70:124,1,138.000002632141,0|2,1:2|0:0,0:0:0:0:
47,150,41112,1,10,0:0:0:0:
80,235,41419,1,8,0:0:0:0:
49,321,41725,2,0,L|147:329,1,92.0000017547608,2|0,0:0|0:0,0:0:0:0:
232,323,42337,2,0,P|260:288|249:237,1,92.0000017547608,10|0,0:0|0:0,0:0:0:0:
233,209,42796,1,2,0:0:0:0:
233,209,42949,1,0,1:1:0:0:
256,192,43102,12,0,44633,0:0:0:0:
194,88,45398,6,0,L|112:98,1,80,4|0,0:1|0:0,0:0:0:0:
58,155,46010,2,0,L|72:237,1,80,2|0,0:0|0:0,0:0:0:0:
36,305,46623,1,2,0:0:0:0:
183,368,47235,2,0,L|271:354,1,80,0|2,0:0|0:0,0:0:0:0:
279,319,47694,1,2,0:0:0:0:
279,319,49072,2,0,L|265:236,1,80,2|0,0:0|0:0,0:0:0:0:
205,187,49684,2,0,L|191:108,1,80,2|0,0:0|0:0,0:0:0:0:
245,48,50296,6,0,P|295:20|361:49,1,120,2|0,0:0|0:0,0:0:0:0:
361,77,50908,2,0,L|440:62,1,80,2|0,0:0|0:0,0:0:0:0:
492,122,51521,1,2,0:0:0:0:
349,194,52133,2,0,L|358:278,1,80,2|2,0:0|0:0,0:0:0:0:
335,335,52669,6,0,P|285:354|236:332,1,110.000003356934,2|8,0:0|0:3,0:0:0:0:
207,306,53204,1,4,0:3:0:0:
207,306,53357,1,4,3:3:0:0:
126,342,53663,2,0,L|80:333,1,44.0000013427735,2|2,3:2|3:2,0:0:0:0:
38,334,53970,2,0,L|54:234,1,88.000002685547,2|0,1:2|0:0,0:0:0:0:
14,167,54582,1,2,1:2:0:0:
45,84,54888,1,8,0:3:0:0:
134,63,55194,6,0,B|184:70|184:70|204:86|204:86|280:100,1,138.000002632141,4|2,1:1|0:0,0:0:0:0:
315,100,55806,2,0,L|289:200,1,92.0000017547608,0|0,1:2|0:0,0:0:0:0:
337,269,56419,1,2,1:2:0:0:
509,205,57031,2,0,L|489:103,1,92.0000017547608,2|0,1:2|3:0,0:0:0:0:
482,74,57490,1,2,0:0:0:0:
482,74,57643,5,0,1:0:0:0:
397,110,57949,1,8,0:3:0:0:
326,51,58255,2,0,L|230:68,1,92.0000017547608,2|2,1:2|0:0,0:0:0:0:
191,147,58868,2,0,L|96:131,1,92.0000017547608,2|0,1:2|0:0,0:0:0:0:
19,176,59480,1,2,1:2:0:0:
8,267,59786,1,4,0:3:0:0:
90,308,60092,6,0,L|148:300,1,46.0000008773804,4|2,1:1|0:0,0:0:0:0:
173,327,60398,2,0,L|231:319,1,46.0000008773804,2|2,3:2|0:0,0:0:0:0:
259,342,60704,1,2,1:2:0:0:
324,277,61010,2,0,L|316:219,1,46.0000008773804,2|2,0:0|3:2,0:0:0:0:
343,194,61317,2,0,L|335:136,1,46.0000008773804,2|2,1:2|0:0,0:0:0:0:
358,107,61623,2,0,L|449:93,1,92.0000017547608,2|0,0:0|1:0,0:0:0:0:
511,161,62235,1,8,0:3:0:0:
483,248,62541,6,0,P|418:254|393:316,1,138.000002632141,2|0,1:2|1:0,0:0:0:0:
353,339,63153,2,0,L|251:327,1,92.0000017547608,2|0,1:2|0:0,0:0:0:0:
220,325,63612,1,0,1:0:0:0:
220,325,63765,1,2,1:2:0:0:
134,359,64072,1,0,1:0:0:0:
65,298,64378,2,0,L|78:245,1,46.0000008773804,0|0,1:0|1:0,0:0:0:0:
52,213,64684,2,0,L|67:159,1,46.0000008773804,0|0,1:0|1:0,0:0:0:0:
81,128,64990,6,0,B|123:118|123:118|154:149,1,88.000002685547,2|8,0:0|0:1,0:0:0:0:
225,201,65602,2,0,B|267:211|267:211|298:179,1,88.000002685547,8|8,0:1|0:1,0:0:0:0:
371,129,66214,2,0,B|413:119|413:119|444:150,1,88.000002685547,8|8,0:1|0:1,0:0:0:0:
476,232,66827,2,0,L|460:285,1,44.0000013427735,10|8,0:0|0:0,0:0:0:0:
449,315,67133,2,0,L|396:299,1,44.0000013427735,10|8,0:0|0:0,0:0:0:0:
362,319,67439,6,0,P|317:304|271:325,1,95.9999970703126,4|2,1:0|0:0,0:0:0:0:
195,376,68051,1,8,0:0:0:0:
24,288,68663,2,0,L|34:225,1,47.9999985351563,0|0,1:0|0:0,0:0:0:0:
39,192,68970,1,2,0:0:0:0:
103,121,69276,1,10,0:0:0:0:
103,121,69429,2,0,L|214:135,1,95.9999970703126,2|2,0:0|0:0,0:0:0:0:
246,134,69888,6,0,P|235:185|232:236,1,95.9999970703126,0|2,1:0|0:0,0:0:0:0:
169,301,70500,1,10,0:0:0:0:
233,372,70806,1,0,1:0:0:0:
317,326,71112,2,0,L|431:338,1,95.9999970703126,2|0,1:2|0:0,0:0:0:0:
464,341,71572,1,0,1:0:0:0:
464,341,71725,2,0,B|491:299|491:299|471:257,1,95.9999970703126,10|2,0:0|1:2,0:0:0:0:
434,236,72184,1,2,1:2:0:0:
434,236,72337,6,0,L|450:129,1,95.9999970703126,6|2,1:2|0:0,0:0:0:0:
464,46,72949,1,8,0:0:0:0:
273,25,73561,2,0,L|281:83,1,47.9999985351563,0|0,1:0|0:0,0:0:0:0:
286,120,73868,1,2,0:0:0:0:
208,176,74174,1,10,0:0:0:0:
129,120,74480,1,2,0:0:0:0:
44,165,74786,6,0,B|51:205|51:205|47:211|47:211|59:271,1,95.9999970703126,2|2,1:2|0:0,0:0:0:0:
74,308,75245,1,2,0:0:0:0:
74,308,75398,1,10,0:0:0:0:
154,359,75704,1,2,1:2:0:0:
224,294,76010,2,0,B|273:279|313:291|274:306|324:322|371:306,1,143.999995605469,2|0,1:2|1:0,0:0:0:0:
402,283,76623,1,10,0:0:0:0:
415,187,76929,1,2,1:2:0:0:
327,147,77235,6,0,P|314:101|344:54,1,95.9999970703126,4|2,1:1|0:0,0:0:0:0:
415,6,77847,1,8,0:0:0:0:
510,172,78459,2,0,L|502:230,1,47.9999985351563,0|0,1:0|0:0,0:0:0:0:
497,267,78765,1,2,0:0:0:0:
417,319,79072,1,10,0:0:0:0:
417,319,79225,2,0,L|309:301,1,95.9999970703126,2|2,0:0|0:0,0:0:0:0:
281,328,79684,6,0,P|235:340|191:324,1,95.9999970703126,0|2,1:0|0:0,0:0:0:0:
139,243,80296,1,10,0:0:0:0:
50,281,80602,1,0,1:0:0:0:
5,196,80908,2,0,L|39:87,1,95.9999970703126,0|2,1:0|0:0,0:0:0:0:
52,62,81368,1,0,1:0:0:0:
52,62,81521,2,0,L|5:49,2,47.9999985351563,10|2|2,0:0|1:2|1:2,0:0:0:0:
143,32,82133,6,0,L|199:46,1,47.9999985351563,6|2,1:2|0:0,0:0:0:0:
235,57,82439,2,0,L|221:113,1,47.9999985351563,2|2,0:0|0:0,0:0:0:0:
207,148,82745,1,10,0:0:0:0:
299,172,83051,2,0,L|313:116,1,47.9999985351563,2|2,0:0|0:0,0:0:0:0:
324,80,83357,2,0,L|380:94,1,47.9999985351563,2|2,1:2|0:0,0:0:0:0:
413,113,83663,2,0,L|388:209,2,95.9999970703126,2|8|0,0:0|0:0|0:0,0:0:0:0:
506,134,84582,6,0,L|484:229,1,95.9999970703126,2|2,1:2|0:0,0:0:0:0:
498,322,85194,1,10,0:0:0:0:
414,369,85500,1,2,1:2:0:0:
333,316,85806,2,0,L|238:342,1,95.9999970703126,2|0,1:2|0:0,0:0:0:0:
197,356,86265,1,2,1:2:0:0:
197,356,86419,1,10,0:0:0:0:
117,302,86725,2,0,L|106:246,1,47.9999985351563,10|8,0:0|0:0,0:0:0:0:
105,206,87031,6,0,B|144:190|175:207|175:207|200:177|248:187,1,143.999995605469,0|0,1:0|0:0,0:0:0:0:
