osu file format v14

[General]
AudioFilename: audio.mp3
AudioLeadIn: 0
PreviewTime: 462
Countdown: 0
SampleSet: Soft
StackLeniency: 0.6
Mode: 0
LetterboxInBreaks: 0
WidescreenStoryboard: 1

[Editor]
Bookmarks: 11099,25793,35589,67426
DistanceSpacing: 1
BeatDivisor: 8
GridSize: 8
TimelineZoom: 2.5

[Metadata]
Title:TOP -Japanese ver.- (TV Size)
TitleUnicode:TOP -Japanese ver.- (TV Size)
Artist:Stray Kids
ArtistUnicode:스트레이 키즈
Creator:AirinCat
Version:Light Insane
Source:神之塔 -Tower of God-
Tags:tog kami no tou tō naver webtoon anime animation SIU Sin-ui Tap crunchyroll 신의 탑 pop jpop j-pop opening skz ストレイキッズ k-pop kpop LINE マンガ online web manga 방찬 리노 창빈 현진 한 필릭스 승민 아이엔 bang chan hyunjin lee know minho changbin han felix seungmin i.n korean japanese Twenty-Fifth Bam baam Khun Aguero Agnes Wraithraiser Rak rachel jahad endorsi Telecom Film Talse Uzer
BeatmapID:2401871
BeatmapSetID:1150628

[Difficulty]
HPDrainRate:5
CircleSize:3.8
OverallDifficulty:7
ApproachRate:8.8
SliderMultiplier:1.8
SliderTickRate:1

[Events]
//Background and Video events
0,0,"tog.jpg",0,0
Video,229,"cute boi.mp4"
//Break Periods
//Storyboard Layer 0 (Background)
//Storyboard Layer 1 (Fail)
//Storyboard Layer 2 (Pass)
//Storyboard Layer 3 (Foreground)
//Storyboard Layer 4 (Overlay)
//Storyboard Sound Samples

[TimingPoints]
1317,612.244897959184,4,2,1,40,1,0
1317,-100,4,2,1,40,0,0
8587,-90.9090909090909,4,2,1,48,0,0
11112,-71.4285714285714,4,2,1,58,0,0
11572,-71.4285714285714,4,2,1,58,0,0
19531,-71.4285714285714,4,2,1,60,0,0
20296,-71.4285714285714,4,2,1,62,0,0
20908,-125,4,2,4,40,0,0
20985,-125,4,2,1,5,0,0
24276,-111.111111111111,4,2,1,40,0,0
25194,-111.111111111111,4,2,1,50,0,0
25500,-111.111111111111,4,2,1,60,0,0
25806,-76.9230769230769,4,2,2,60,0,0
33612,-58.8235294117647,4,2,2,60,0,0
33995,-58.8235294117647,4,2,2,5,0,0
34072,-45.4545454545455,4,2,2,70,0,0
34378,-83.3333333333333,4,2,2,60,0,0
35602,-68.9655172413793,4,2,2,60,0,0
42949,-111.111111111111,4,2,2,64,0,0
43561,-111.111111111111,4,2,2,50,0,0
44786,-111.111111111111,4,2,3,50,0,0
45398,-100,4,2,1,40,0,0
52669,-90.9090909090909,4,2,1,50,0,0
55194,-66.6666666666667,4,2,1,60,0,0
55500,-71.4285714285714,4,2,1,60,0,0
63612,-71.4285714285714,4,2,1,64,0,0
64990,-90.9090909090909,4,2,3,45,0,0
65602,-90.9090909090909,4,2,3,50,0,0
66061,-90.9090909090909,4,2,3,54,0,0
66521,-90.9090909090909,4,2,3,58,0,0
66827,-90.9090909090909,4,2,3,68,0,1
66980,-90.9090909090909,4,2,3,68,0,0
67439,-50,4,2,1,70,0,1
67975,-50,4,2,1,5,0,1
68051,-50,4,2,1,70,0,1
70424,-50,4,2,1,5,0,1
70500,-50,4,2,1,70,0,1
72873,-50,4,2,1,5,0,1
72949,-50,4,2,1,70,0,1
75704,-50,4,2,1,70,0,1
75934,-50,4,2,1,5,0,1
76010,-50,4,2,1,70,0,1
77771,-50,4,2,1,5,0,1
77847,-50,4,2,1,70,0,1
80220,-50,4,2,1,5,0,1
80296,-50,4,2,1,70,0,1
87031,-83.3333333333333,4,2,1,60,0,0

[Colours]
Combo1 : 164,187,249
Combo2 : 226,176,146
Combo3 : 222,131,131
Combo4 : 192,154,154
Combo5 : 158,150,205

[HitObjects]
100,347,602,5,2,0:0:0:0:
91,325,908,1,2,0:0:0:0:
2,249,1317,6,0,P|64:225|145:215,1,135,4|0,0:1|0:0,0:0:0:0:
204,247,1929,2,0,P|213:200|189:158,2,90,2|0|2,0:0|0:0|0:0,0:0:0:0:
270,292,2694,2,0,P|333:277|383:323,1,135,2|0,0:0|0:0,0:0:0:0:
381,320,3459,2,0,L|438:313,1,45,2|2,0:0|0:0,0:0:0:0:
425,314,4531,6,0,L|432:364,2,45,2|0|0,0:0|0:0|0:0,0:0:0:0:
488,255,4990,2,0,P|499:212|477:171,1,90,2|0,0:0|0:0,0:0:0:0:
323,186,5602,2,0,P|311:228|333:269,1,90,2|0,0:0|0:0,0:0:0:0:
406,91,6214,6,0,P|337:98|299:44,1,135,2|0,0:0|0:0,0:0:0:0:
224,24,6827,2,0,L|135:41,1,90,2|0,0:0|0:0,0:0:0:0:
0,148,7439,2,0,L|100:181,1,90,2|0,0:0|0:0,0:0:0:0:
139,325,8102,2,0,L|125:380,2,45,2|2|2,0:0|0:0|0:0,0:0:0:0:
201,269,8587,6,0,P|254:243|305:274,1,123.75000377655,2|8,0:0|0:3,0:0:0:0:
365,335,9123,1,4,0:3:0:0:
452,329,9276,1,4,3:3:0:0:
492,250,9429,2,0,L|482:201,2,49.5000015106202,2|2|2,3:2|3:2|3:2,0:0:0:0:
398,174,9888,6,0,P|443:160|460:115,1,99.0000030212403,2|2,1:2|0:0,0:0:0:0:
433,22,10347,1,0,3:2:0:0:
336,62,10500,1,2,1:2:0:0:
336,62,10806,1,8,0:3:0:0:
161,0,11112,6,0,P|169:66|176:125,1,125.999996154785,4|0,1:1|3:0,0:0:0:0:
135,236,11572,1,2,0:2:0:0:
17,220,11725,2,0,P|25:161|83:146,1,125.999996154785,0|0,1:0|0:0,0:0:0:0:
52,384,12337,5,0,1:0:0:0:
52,384,12643,2,0,L|41:302,1,62.9999980773926,2|0,0:0|3:0,0:0:0:0:
135,236,12949,2,0,P|198:250|278:264,1,125.999996154785,2|0,1:2|3:0,0:0:0:0:
337,178,13408,1,2,0:0:0:0:
411,267,13561,5,0,1:0:0:0:
411,267,13868,1,8,0:3:0:0:
411,267,14174,2,0,L|407:354,1,62.9999980773926,2|0,1:2|3:0,0:0:0:0:
512,327,14480,2,0,L|514:250,1,62.9999980773926,2|0,0:0|3:2,0:0:0:0:
474,145,14786,6,0,P|411:164|369:120,1,125.999996154785,2|0,1:2|0:0,0:0:0:0:
322,21,15245,1,0,3:0:0:0:
438,0,15398,1,2,1:2:0:0:
438,0,15704,1,4,0:3:0:0:
298,202,16010,6,0,L|235:192,1,62.9999980773926,4|2,1:1|0:0,0:0:0:0:
153,174,16317,2,0,L|90:164,1,62.9999980773926,2|2,3:2|0:0,0:0:0:0:
214,290,16623,1,2,1:2:0:0:
214,290,16929,6,0,L|276:299,1,62.9999980773926,2|2,0:0|0:0,0:0:0:0:
359,318,17235,2,0,L|421:327,1,62.9999980773926,2|2,1:2|0:0,0:0:0:0:
512,203,17541,2,0,L|502:265,1,62.9999980773926,2|0,0:0|3:0,0:0:0:0:
410,241,17847,1,0,1:2:0:0:
410,241,18153,2,0,L|419:178,1,62.9999980773926,8|0,0:3|0:0,0:0:0:0:
353,74,18459,6,0,P|296:50|244:80,1,125.999996154785,2|0,1:2|0:0,0:0:0:0:
175,200,18919,1,0,1:0:0:0:
44,123,19072,2,0,P|61:60|73:-2,1,125.999996154785,2|0,1:2|0:0,0:0:0:0:
142,116,19531,1,0,1:0:0:0:
23,228,19684,1,2,1:2:0:0:
23,228,19990,2,0,L|99:243,1,62.9999980773926,0|0,1:0|0:0,0:0:0:0:
267,286,20296,5,0,1:0:0:0:
207,383,20449,1,0,1:0:0:0:
171,230,20602,1,0,1:0:0:0:
112,323,20755,1,0,1:0:0:0:
267,286,20908,6,0,B|281:229|340:230|340:230|375:292|454:302|505:295|530:198|523:168|475:115|475:115|425:145|424:197|424:197|363:153|359:79|438:42,1,720,4|0,1:1|0:0,0:0:0:0:
428,46,24276,6,0,L|379:36,1,40.4999987640381,2|0,0:0|0:0,0:0:0:0:
309,23,24582,2,0,L|260:13,1,40.4999987640381,2|0,0:0|0:0,0:0:0:0:
195,134,24888,2,0,L|244:124,1,40.4999987640381,2|0,0:0|0:0,0:0:0:0:
323,107,25194,1,2,0:0:0:0:
323,107,25347,1,2,0:0:0:0:
389,171,25500,1,2,0:0:0:0:
350,256,25653,1,2,0:0:0:0:
220,287,25806,6,0,P|173:254|118:270,1,116.999994644165,0|0,1:0|0:0,0:0:0:0:
3,354,26265,2,0,P|14:288|27:227,1,116.999994644165,8|0,0:0|0:0,0:0:0:0:
8,136,26725,1,8,0:0:0:0:
8,136,27031,2,0,P|51:148|26:60,1,175.499991966248,2|0,0:0|0:0,0:0:0:0:
139,200,27643,2,0,P|188:189|268:177,1,116.999994644165,8|0,0:0|0:0,0:0:0:0:
326,85,28102,1,0,0:0:0:0:
471,171,28255,6,0,P|464:221|459:298,1,116.999994644165,0|0,1:0|0:0,0:0:0:0:
361,370,28714,2,0,B|311:348|311:348|293:356|293:356|239:336,1,116.999994644165,8|0,0:0|0:0,0:0:0:0:
105,376,29174,1,8,0:0:0:0:
105,376,29480,2,0,B|119:337|114:314|114:314|133:297|138:255,1,116.999994644165,2|0,0:0|0:0,0:0:0:0:
217,200,29939,1,2,0:0:0:0:
92,90,30092,2,0,P|45:108|48:178,1,116.999994644165,8|0,0:0|0:0,0:0:0:0:
129,173,30551,1,2,0:0:0:0:
205,38,30704,6,0,B|261:46|261:46|266:52|266:52|343:65,1,116.999994644165,0|0,1:0|0:0,0:0:0:0:
467,19,31163,2,0,P|415:39|417:94,1,116.999994644165,8|0,0:0|0:0,0:0:0:0:
484,171,31623,1,8,0:0:0:0:
484,171,31929,2,0,L|475:243,1,58.4999973220826,2|0,0:0|0:0,0:0:0:0:
461,309,32235,2,0,L|452:381,1,58.4999973220826,2|0,0:0|0:0,0:0:0:0:
274,276,32541,2,0,P|339:264|416:248,1,116.999994644165,10|0,0:0|0:0,0:0:0:0:
189,349,33153,6,0,B|153:302|153:302|177:244,1,116.999994644165,0|0,1:0|0:0,0:0:0:0:
236,169,33612,2,2,P|147:191|112:108,1,191.250003647804,10|0,3:2|0:0,0:1:0:0:
118,121,34072,5,8,0:1:0:0:
117,120,34378,2,0,P|106:164|88:227,1,107.999996704102,2|0,0:0|0:0,0:0:0:0:
80,359,34990,2,0,P|42:342|-16:332,2,80.9999975280763,2|2|2,0:3|0:3|0:3,0:0:0:0:
308,361,35602,6,0,P|341:308|316:250,1,130.500003982544,4|0,1:2|0:0,0:0:0:0:
232,183,36061,1,2,0:0:0:0:
137,278,36214,1,8,0:0:0:0:
137,278,36521,2,0,L|117:186,1,65.250001991272,8|0,0:0|0:0,0:0:0:0:
55,93,36827,2,0,L|42:157,2,65.250001991272,2|0|2,0:0|0:0|0:0,0:0:0:0:
48,74,37439,6,0,P|97:84|162:96,1,97.8750029869081,10|2,0:2|0:3,0:0:0:0:
274,6,37898,1,2,0:3:0:0:
357,68,38051,6,0,P|345:129|334:204,1,130.500003982544,0|0,1:2|0:0,0:0:0:0:
441,254,38510,1,2,0:0:0:0:
341,341,38663,2,0,B|293:327|293:327|272:359|272:359|225:376,1,130.500003982544,10|0,0:0|0:0,0:0:0:0:
149,342,39123,1,2,0:0:0:0:
189,221,39276,2,0,L|216:298,2,65.250001991272,2|0|0,0:0|0:0|0:0,0:0:0:0:
102,191,39735,1,0,0:0:0:0:
208,218,39888,6,0,P|267:197|323:177,1,97.8750029869081,10|2,0:0|0:3,0:0:0:0:
415,300,40347,1,2,0:3:0:0:
494,273,40500,6,0,B|520:213|520:213|469:165,1,130.500003982544,0|0,1:2|0:0,0:0:0:0:
372,95,40959,1,2,0:0:0:0:
482,7,41112,1,10,0:0:0:0:
482,7,41419,2,0,L|467:75,1,65.250001991272,8|0,0:0|0:0,0:0:0:0:
374,182,41725,2,0,B|331:191|300:158|324:155|303:132|247:138,1,130.500003982544,2|0,0:0|0:0,0:0:0:0:
161,163,42184,1,2,0:0:0:0:
241,266,42337,2,0,P|248:200|262:122,1,130.500003982544,10|0,0:0|0:0,0:0:0:0:
190,58,42796,1,2,0:0:0:0:
42,139,42949,6,0,P|23:214|84:259,1,161.999995056153,0|0,1:1|0:0,0:0:0:0:
84,259,44174,2,0,L|40:249,1,40.4999987640381,2|2,0:0|0:0,0:0:0:0:
27,325,44480,2,0,L|71:335,1,40.4999987640381,0|0,0:0|0:0,0:0:0:0:
143,374,44786,5,8,0:0:0:0:
223,358,44939,1,8,0:0:0:0:
230,276,45092,1,8,0:0:0:0:
163,235,45245,1,8,0:0:0:0:
301,323,45398,6,0,P|367:305|447:296,1,135,4|0,0:1|0:0,0:0:0:0:
499,248,46010,2,0,P|509:205|489:166,2,90,2|0|2,0:0|0:0|0:0,0:0:0:0:
432,296,46776,2,0,P|368:282|346:219,1,135,2|0,0:0|0:0,0:0:0:0:
346,222,47541,2,0,L|294:229,1,45,2|2,0:0|0:0,0:0:0:0:
301,228,48612,6,0,L|304:277,2,45,2|0|0,0:0|0:0|0:0,0:0:0:0:
241,173,49072,2,0,P|197:159|156:176,1,90,2|0,0:0|0:0,0:0:0:0:
24,318,49684,2,0,P|11:271|-2:226,1,90,2|0,0:0|0:0,0:0:0:0:
102,52,50296,6,0,P|90:116|76:193,1,135,2|0,0:0|0:0,0:0:0:0:
138,253,50908,2,0,P|178:271|221:262,1,90,2|0,0:0|0:0,0:0:0:0:
320,133,51521,2,0,L|224:114,1,90,2|0,0:0|0:0,0:0:0:0:
379,272,52184,2,0,L|388:216,2,45,2|2|2,0:0|0:0|0:0,0:0:0:0:
316,336,52669,6,0,P|252:358|210:315,1,123.75000377655,2|8,0:0|0:3,0:0:0:0:
171,246,53204,1,4,0:3:0:0:
85,302,53357,1,4,3:3:0:0:
12,235,53510,2,0,L|20:184,2,49.5000015106202,2|2|2,3:2|3:2|3:2,0:0:0:0:
93,147,53970,6,0,P|44:140|16:99,1,99.0000030212403,2|0,1:2|0:0,0:0:0:0:
33,6,54429,1,0,3:2:0:0:
135,17,54582,1,2,1:2:0:0:
135,17,54888,1,8,0:3:0:0:
267,195,55194,6,0,L|246:339,1,135.000005149842,4|0,1:1|3:0,0:0:0:0:
161,242,55653,1,2,0:0:0:0:
247,328,55806,2,0,P|300:358|356:335,1,125.999996154785,0|0,1:2|0:0,0:0:0:0:
478,131,56419,5,2,1:2:0:0:
478,131,56725,2,0,L|495:212,1,62.9999980773926,2|0,0:0|3:0,0:0:0:0:
433,268,57031,2,0,P|376:289|324:256,1,125.999996154785,2|0,1:2|3:0,0:0:0:0:
261,159,57490,1,2,0:0:0:0:
186,262,57643,5,0,1:0:0:0:
186,262,57949,1,8,0:3:0:0:
186,262,58255,2,0,L|192:337,1,62.9999980773926,2|0,1:2|3:0,0:0:0:0:
82,333,58561,2,0,L|76:258,1,62.9999980773926,2|0,0:0|3:0,0:0:0:0:
114,168,58868,6,0,P|53:171|23:115,1,125.999996154785,2|0,1:2|0:0,0:0:0:0:
115,49,59327,1,0,3:0:0:0:
211,130,59480,1,2,1:2:0:0:
211,130,59786,1,4,0:3:0:0:
407,0,60092,5,4,1:0:0:0:
407,0,60245,1,2,0:0:0:0:
470,63,60398,2,0,P|465:97|460:143,1,62.9999980773926,2|2,3:2|0:0,0:0:0:0:
429,289,60704,5,2,1:2:0:0:
429,289,61010,1,2,0:0:0:0:
429,289,61163,1,2,3:2:0:0:
366,226,61317,2,0,P|370:191|376:146,1,62.9999980773926,2|2,1:2|0:0,0:0:0:0:
297,55,61623,2,0,P|287:110|276:181,1,125.999996154785,2|0,0:0|1:0,0:0:0:0:
276,179,62235,1,8,0:3:0:0:
2,207,62541,6,0,P|45:161|104:180,1,125.999996154785,2|0,1:2|0:0,0:0:0:0:
80,290,63000,1,0,1:0:0:0:
202,221,63153,2,0,P|191:280|184:362,1,125.999996154785,2|0,1:2|0:0,0:0:0:0:
314,248,63612,1,0,1:0:0:0:
413,359,63765,1,2,1:2:0:0:
413,359,64072,2,0,L|423:290,1,62.9999980773926,0|0,1:0|0:0,0:0:0:0:
387,154,64378,5,0,1:0:0:0:
314,248,64531,1,0,1:0:0:0:
229,102,64684,1,0,1:0:0:0:
118,245,64837,1,0,1:0:0:0:
12,125,64990,6,0,L|111:142,1,99.0000030212403,2|8,0:0|0:1,0:0:0:0:
269,5,65602,2,0,L|168:19,1,99.0000030212403,8|8,0:1|0:1,0:0:0:0:
76,0,66061,1,8,0:1:0:0:
76,0,66138,1,8,0:1:0:0:
76,0,66214,2,0,L|83:54,1,49.5000015106202,8|8,0:1|0:1,0:0:0:0:
210,102,66521,2,0,L|203:156,1,49.5000015106202,8|8,0:1|0:1,0:0:0:0:
128,302,66827,5,10,0:0:0:0:
87,147,66980,1,8,0:0:0:0:
252,299,67133,1,10,0:0:0:0:
316,141,67286,1,8,0:0:0:0:
128,302,67439,6,0,P|85:297|47:263,1,90,4|2,1:0|0:0,0:0:0:0:
218,373,67745,2,0,P|264:327|330:331,1,135,2|0,0:0|0:0,0:0:0:0:
404,364,68051,1,8,0:0:0:0:
404,364,68663,2,0,P|409:317|418:262,1,90,0|0,1:0|0:0,0:0:0:0:
500,121,68970,2,0,P|522:159|511:205,1,90,2|0,0:0|0:0,0:0:0:0:
318,77,69276,1,10,0:0:0:0:
318,77,69429,2,0,P|362:71|406:62,1,90,2|0,0:0|0:0,0:0:0:0:
391,187,69735,1,2,0:0:0:0:
233,119,69888,6,0,P|232:213|222:301,1,180,0|2,1:0|0:0,0:0:0:0:
222,298,70500,2,0,P|171:257|113:284,1,135,10|2,0:0|0:0,0:0:0:0:
114,297,70806,2,0,P|141:262|137:218,1,90,0|2,1:0|0:0,0:0:0:0:
40,105,71112,6,0,B|-6:66|-6:66|3:187,1,180,2|0,1:2|0:0,0:0:0:0:
14,287,71572,1,0,1:0:0:0:
137,218,71725,2,0,B|181:200|181:200|227:243,1,90,10|2,0:0|1:2,0:0:0:0:
285,350,72031,1,2,1:2:0:0:
370,238,72184,1,2,1:2:0:0:
496,362,72337,6,0,P|503:320|514:265,1,90,6|2,1:2|0:0,0:0:0:0:
420,147,72643,2,0,P|363:176|371:239,1,135,2|0,0:0|0:0,0:0:0:0:
413,307,72949,1,8,0:0:0:0:
413,307,73561,2,0,P|370:311|306:319,1,90,0|0,1:0|0:0,0:0:0:0:
168,347,73868,2,0,P|149:307|161:264,1,90,2|0,0:0|0:0,0:0:0:0:
236,157,74174,1,10,0:0:0:0:
236,157,74327,1,2,0:0:0:0:
113,84,74480,2,0,L|134:183,1,90,2|0,0:0|0:0,0:0:0:0:
323,192,74786,6,0,B|343:90|343:90|312:58|274:66,1,180,2|2,1:2|0:0,0:0:0:0:
236,157,75245,1,2,0:0:0:0:
442,124,75398,1,10,0:0:0:0:
442,124,75704,2,0,B|423:212|423:212|480:253,1,135,2|0,1:2|0:0,0:0:0:0:
478,243,76010,6,0,P|408:195|343:249,1,180,2|0,1:2|0:0,0:0:0:0:
290,359,76470,1,0,1:0:0:0:
119,271,76623,2,0,L|223:247,1,90,10|0,0:0|1:0,0:0:0:0:
90,110,76929,2,0,P|52:133|43:176,1,90,2|0,1:2|0:0,0:0:0:0:
203,48,77235,5,4,1:1:0:0:
258,171,77388,1,2,0:0:0:0:
356,75,77541,2,0,P|431:57|474:121,1,135,2|0,0:0|0:0,0:0:0:0:
499,166,77847,1,8,0:0:0:0:
499,166,78459,2,0,L|480:275,1,90,0|0,1:0|0:0,0:0:0:0:
388,374,78765,2,0,P|354:344|348:298,1,90,2|0,0:0|0:0,0:0:0:0:
189,224,79072,1,10,0:0:0:0:
189,224,79225,2,0,L|297:205,1,90,2|0,0:0|0:0,0:0:0:0:
224,348,79531,1,2,0:0:0:0:
68,257,79684,6,0,P|88:170|102:53,1,180,0|2,1:0|0:0,0:0:0:0:
100,80,80296,2,0,P|161:96|204:49,1,135,10|2,0:0|0:0,0:0:0:0:
198,48,80602,2,0,P|171:82|178:125,1,90,0|2,1:0|0:0,0:0:0:0:
323,173,80908,6,0,B|381:162|411:198|390:205|432:253|489:227,2,180,0|2|10,1:0|0:0|0:0,0:0:0:0:
331,272,81674,1,2,1:2:0:0:
465,147,81827,2,0,P|456:98|450:48,1,90,2|8,1:2|0:0,0:0:0:0:
274,17,82133,5,6,1:2:0:0:
206,89,82286,1,2,0:0:0:0:
286,162,82439,1,2,0:0:0:0:
218,234,82592,1,2,0:0:0:0:
355,88,82745,5,10,0:0:0:0:
355,88,83051,2,0,P|398:85|451:82,1,90,2|2,0:0|0:0,0:0:0:0:
458,228,83357,2,0,P|414:230|362:234,1,90,2|2,1:2|0:0,0:0:0:0:
243,156,83663,2,0,P|215:190|223:243,1,90,2|0,0:0|0:0,0:0:0:0:
294,339,83970,1,8,0:0:0:0:
218,234,84123,2,0,P|134:250|142:348,1,180,2|0,0:0|0:0,0:0:0:0:
369,237,84582,6,0,B|361:173|361:173|382:147|382:147|371:56,1,180,2|2,1:2|0:0,0:0:0:0:
250,2,85041,1,2,0:0:0:0:
188,136,85194,2,0,P|230:146|269:126,1,90,10|2,0:0|0:0,0:0:0:0:
250,2,85500,2,0,P|207:-8|168:11,1,90,2|0,1:2|0:0,0:0:0:0:
36,91,85806,6,0,P|47:166|62:285,1,180,2|0,1:2|0:0,0:0:0:0:
168,359,86265,1,2,1:2:0:0:
245,208,86419,1,10,0:0:0:0:
245,208,86725,1,10,0:0:0:0:
357,360,86878,1,8,0:0:0:0:
476,233,87031,6,0,B|427:230|398:260|398:260|373:218|320:214,1,161.999995056153,0|0,1:0|0:0,0:0:0:0:
