osu file format v14

[General]
AudioFilename: audio.mp3
AudioLeadIn: 0
PreviewTime: 462
Countdown: 0
SampleSet: Soft
StackLeniency: 0.5
Mode: 0
LetterboxInBreaks: 0
WidescreenStoryboard: 0

[Editor]
Bookmarks: 11099,25793,35589,67426
DistanceSpacing: 2.3
BeatDivisor: 8
GridSize: 8
TimelineZoom: 2.5

[Metadata]
Title:TOP -Japanese ver.- (TV Size)
TitleUnicode:TOP -Japanese ver.- (TV Size)
Artist:Stray Kids
ArtistUnicode:스트레이 키즈
Creator:AirinCat
Version:Extra
Source:神之塔 -Tower of God-
Tags:tog kami no tou tō naver webtoon anime animation SIU Sin-ui Tap crunchyroll 신의 탑 pop jpop j-pop opening skz ストレイキッズ k-pop kpop LINE マンガ online web manga 방찬 리노 창빈 현진 한 필릭스 승민 아이엔 bang chan hyunjin lee know minho changbin han felix seungmin i.n korean japanese Twenty-Fifth Bam baam Khun Aguero Agnes Wraithraiser Rak rachel jahad endorsi Telecom Film Talse Uzer
BeatmapID:2401868
BeatmapSetID:1150628

[Difficulty]
HPDrainRate:6
CircleSize:4
OverallDifficulty:8.4
ApproachRate:9.2
SliderMultiplier:1.8
SliderTickRate:1

[Events]
//Background and Video events
0,0,"tog.jpg",0,0
Video,229,"cute boi.mp4"
//Break Periods
//Storyboard Layer 0 (Background)
//Storyboard Layer 1 (Fail)
//Storyboard Layer 2 (Pass)
//Storyboard Layer 3 (Foreground)
//Storyboard Layer 4 (Overlay)
//Storyboard Sound Samples

[TimingPoints]
1317,612.244897959184,4,2,1,40,1,0
1317,-100,4,2,1,40,0,0
8587,-90.9090909090909,4,2,1,48,0,0
11112,-66.6666666666667,4,2,1,58,0,0
11572,-71.4285714285714,4,2,1,58,0,0
19531,-71.4285714285714,4,2,1,60,0,0
20296,-71.4285714285714,4,2,1,62,0,0
20908,-111.111111111111,4,2,4,40,0,0
20985,-111.111111111111,4,2,1,5,0,0
24276,-111.111111111111,4,2,1,40,0,0
25194,-111.111111111111,4,2,1,50,0,0
25500,-111.111111111111,4,2,1,60,0,0
25806,-76.9230769230769,4,2,2,60,0,0
33612,-55.5555555555556,4,2,2,60,0,0
33995,-55.5555555555556,4,2,2,5,0,0
34072,-38.4615384615385,4,2,2,70,0,0
34378,-83.3333333333333,4,2,2,60,0,0
35602,-68.9655172413793,4,2,2,60,0,0
42949,-111.111111111111,4,2,2,64,0,0
43561,-111.111111111111,4,2,2,50,0,0
44786,-111.111111111111,4,2,3,50,0,0
45398,-100,4,2,1,40,0,0
52669,-90.9090909090909,4,2,1,50,0,0
55194,-66.6666666666667,4,2,1,60,0,0
55500,-71.4285714285714,4,2,1,60,0,0
63612,-71.4285714285714,4,2,1,64,0,0
64990,-90.9090909090909,4,2,3,45,0,0
65602,-90.9090909090909,4,2,3,50,0,0
66061,-90.9090909090909,4,2,3,54,0,0
66521,-90.9090909090909,4,2,3,58,0,0
66827,-90.9090909090909,4,2,3,68,0,1
66980,-90.9090909090909,4,2,3,68,0,0
67439,-47.6190476190476,4,2,1,70,0,1
67975,-47.6190476190476,4,2,1,5,0,1
68051,-47.6190476190476,4,2,1,70,0,1
70424,-47.6190476190476,4,2,1,5,0,1
70500,-47.6190476190476,4,2,1,70,0,1
72873,-47.6190476190476,4,2,1,5,0,1
72949,-47.6190476190476,4,2,1,70,0,1
75704,-45.4545454545455,4,2,1,70,0,1
75934,-47.6190476190476,4,2,1,5,0,1
76010,-47.6190476190476,4,2,1,70,0,1
77771,-47.6190476190476,4,2,1,5,0,1
77847,-47.6190476190476,4,2,1,70,0,1
80220,-47.6190476190476,4,2,1,5,0,1
80296,-47.6190476190476,4,2,1,70,0,1
87031,-83.3333333333333,4,2,1,60,0,0

[Colours]
Combo1 : 164,187,249
Combo2 : 226,176,146
Combo3 : 222,131,131
Combo4 : 192,154,154
Combo5 : 158,150,205

[HitObjects]
101,319,602,5,2,0:0:0:0:
95,339,908,1,2,0:0:0:0:
11,227,1317,6,0,P|75:208|152:196,1,135,4|0,0:1|0:0,0:0:0:0:
251,325,1929,2,0,P|220:294|220:250,1,90,2|0,0:0|0:0,0:0:0:0:
403,185,2541,1,0,0:0:0:0:
403,185,2694,2,0,P|387:240|377:329,1,135,2|0,0:0|0:0,0:0:0:0:
377,316,3459,2,0,L|430:326,1,45,2|2,0:0|0:0,0:0:0:0:
421,324,4531,6,0,L|431:386,2,45,2|0|0,0:0|0:0|0:0,0:0:0:0:
491,261,4990,2,0,P|506:219|492:178,1,90,2|0,0:0|0:0,0:0:0:0:
400,57,5602,2,0,P|450:46|494:30,1,90,2|0,0:0|0:0,0:0:0:0:
411,224,6214,6,0,P|345:202|281:189,1,135,2|0,0:0|0:0,0:0:0:0:
130,282,6827,2,0,P|172:268|194:230,1,90,2|0,0:0|0:0,0:0:0:0:
61,60,7439,2,0,P|72:103|83:147,1,90,2|0,0:0|0:0,0:0:0:0:
30,351,8102,2,0,L|13:300,2,45,2|2|2,0:0|0:0|0:0,0:0:0:0:
132,346,8587,6,0,P|181:311|243:324,1,123.75000377655,2|8,0:0|0:3,0:0:0:0:
337,377,9123,1,4,0:3:0:0:
415,303,9276,1,4,3:3:0:0:
316,205,9429,2,0,L|324:268,1,49.5000015106202,2|2,3:2|3:2,0:0:0:0:
216,236,9735,1,2,3:2:0:0:
382,83,9888,6,0,P|432:77|488:68,1,99.0000030212403,2|2,1:2|0:0,0:0:0:0:
421,196,10347,1,0,3:2:0:0:
274,86,10500,1,2,1:2:0:0:
285,57,10806,1,8,0:3:0:0:
126,300,11112,6,0,P|61:303|23:251,1,135.000005149842,4|0,1:1|3:0,0:0:0:0:
112,186,11572,1,2,0:2:0:0:
222,317,11725,1,0,1:0:0:0:
222,317,11878,2,0,L|244:192,1,125.999996154785,0|0,3:0|0:0,0:0:0:0:
62,81,12337,5,0,1:0:0:0:
77,68,12643,2,0,L|60:140,1,62.9999980773926,2|0,0:0|3:0,0:0:0:0:
261,44,12949,2,0,P|202:56|170:4,1,125.999996154785,2|0,1:2|3:0,0:0:0:0:
245,139,13408,1,2,0:0:0:0:
376,22,13561,5,0,1:0:0:0:
395,15,13868,1,8,0:3:0:0:
414,9,14174,2,0,L|395:73,1,62.9999980773926,2|0,1:2|3:0,0:0:0:0:
512,181,14480,2,0,L|499:120,1,62.9999980773926,2|0,0:0|3:2,0:0:0:0:
326,205,14786,6,0,P|386:198|426:244,1,125.999996154785,2|0,1:2|0:0,0:0:0:0:
308,321,15245,1,0,3:0:0:0:
212,171,15398,1,2,1:2:0:0:
228,145,15704,1,4,0:3:0:0:
11,376,16010,6,0,L|-3:299,1,62.9999980773926,4|2,1:1|0:0,0:0:0:0:
36,216,16317,2,0,L|25:151,1,62.9999980773926,2|2,3:2|0:0,0:0:0:0:
124,294,16623,1,2,1:2:0:0:
114,307,16929,6,0,L|191:293,1,62.9999980773926,2|2,0:0|0:0,0:0:0:0:
250,218,17235,2,0,L|327:204,1,62.9999980773926,2|2,1:2|0:0,0:0:0:0:
345,340,17541,2,0,L|283:352,1,62.9999980773926,2|0,0:0|3:0,0:0:0:0:
425,258,17847,1,0,1:2:0:0:
437,243,18153,2,0,L|427:320,1,62.9999980773926,8|0,0:3|0:0,0:0:0:0:
512,122,18459,6,0,P|467:82|404:115,1,125.999996154785,2|0,1:2|0:0,0:0:0:0:
320,242,18919,1,0,1:0:0:0:
184,154,19072,2,0,P|243:136|314:120,1,125.999996154785,2|0,1:2|0:0,0:0:0:0:
156,4,19531,1,0,1:0:0:0:
54,158,19684,1,2,1:2:0:0:
44,174,19990,2,0,L|23:96,1,62.9999980773926,0|0,1:0|0:0,0:0:0:0:
188,163,20296,5,0,1:0:0:0:
178,295,20449,1,0,1:0:0:0:
0,256,20602,1,0,1:0:0:0:
61,384,20755,1,0,1:0:0:0:
188,163,20908,6,0,B|223:142|257:116|257:116|289:164|301:232|299:303|299:303|259:271|246:230|246:230|282:204|298:192|337:153|371:93|470:108|505:150|536:231|505:296|465:320|398:330|370:295|359:250|373:233|399:229,1,870.74997342682,4|0,1:1|0:0,0:0:0:0:
398,229,24276,6,0,L|390:276,1,40.4999987640381,2|0,0:0|0:0,0:0:0:0:
472,203,24582,2,0,L|478:163,1,40.4999987640381,2|0,0:0|0:0,0:0:0:0:
430,59,24888,2,0,L|424:99,1,40.4999987640381,2|0,0:0|0:0,0:0:0:0:
345,0,25194,1,2,0:0:0:0:
252,32,25347,1,2,0:0:0:0:
251,139,25500,1,2,0:0:0:0:
351,172,25653,1,2,0:0:0:0:
160,83,25806,6,0,P|166:134|178:215,1,116.999994644165,0|0,1:0|0:0,0:0:0:0:
8,346,26265,2,0,P|-21:295|10:243,1,116.999994644165,8|0,0:0|0:0,0:0:0:0:
145,374,26725,1,8,0:0:0:0:
156,384,27031,2,0,B|155:324|213:313|213:313|240:345|240:345|279:352,1,175.499991966248,2|0,0:0|0:0,0:0:0:0:
328,218,27643,2,0,B|297:226|297:226|288:262,2,58.4999973220826,8|0|0,0:0|0:0|0:0,0:0:0:0:
379,325,28102,1,0,0:0:0:0:
512,168,28255,6,0,L|489:41,1,116.999994644165,0|0,1:0|0:0,0:0:0:0:
270,57,28714,2,0,B|310:43|310:43|325:10|325:10|371:-3,1,116.999994644165,8|0,0:0|0:0,0:0:0:0:
284,188,29174,1,8,0:0:0:0:
273,204,29480,2,0,P|226:168|168:186,1,116.999994644165,2|0,0:0|0:0,0:0:0:0:
86,244,29939,1,2,0:0:0:0:
15,111,30092,2,0,P|6:145|-3:182,2,58.4999973220826,8|0|0,0:0|0:0|0:0,0:0:0:0:
42,20,30551,1,2,0:0:0:0:
246,95,30704,6,0,B|286:52|286:52|362:77,1,116.999994644165,0|0,1:0|0:0,0:0:0:0:
492,227,31163,2,0,P|499:169|509:111,1,116.999994644165,8|0,0:0|0:0,0:0:0:0:
330,227,31623,1,8,0:0:0:0:
312,235,31929,2,0,L|370:243,1,58.4999973220826,2|0,0:0|0:0,0:0:0:0:
360,345,32235,2,0,L|302:337,1,58.4999973220826,2|0,0:0|0:0,0:0:0:0:
85,359,32541,2,0,P|136:355|158:291,1,116.999994644165,10|0,0:0|0:0,0:0:0:0:
302,337,33000,1,2,0:0:0:0:
160,300,33153,6,0,P|122:258|139:198,1,116.999994644165,0|0,1:0|0:0,0:0:0:0:
111,17,33612,2,2,P|94:108|0:110,1,202.499993820191,10|0,3:2|0:0,0:1:0:0:
0,110,34072,6,0,B|46:72|46:72|96:102,1,116.999994644165,8|0,0:1|0:0,0:0:0:0:
69,305,34378,2,0,L|56:178,1,107.999996704102,2|0,0:0|0:0,0:0:0:0:
58,197,34990,5,2,0:3:0:0:
133,243,35220,1,2,0:3:0:0:
69,305,35449,1,2,0:3:0:0:
169,133,35602,6,0,P|234:128|306:114,1,130.500003982544,4|0,1:2|0:0,0:0:0:0:
403,181,36061,1,2,0:0:0:0:
512,35,36214,1,8,0:0:0:0:
494,20,36521,2,0,L|503:104,1,65.250001991272,8|0,0:0|0:0,0:0:0:0:
379,101,36827,2,0,L|369:33,1,65.250001991272,2|0,0:0|0:0,0:0:0:0:
459,170,37133,1,2,0:0:0:0:
464,197,37439,5,10,0:2:0:0:
365,293,37669,1,2,0:3:0:0:
450,351,37898,1,2,0:3:0:0:
290,384,38051,6,0,L|262:237,1,130.500003982544,0|0,1:2|0:0,0:0:0:0:
330,155,38510,1,2,0:0:0:0:
128,167,38663,2,0,B|168:150|168:150|182:109|182:109|234:92,1,130.500003982544,10|0,0:0|0:0,0:0:0:0:
223,95,39123,1,2,0:0:0:0:
91,79,39276,2,0,L|75:14,2,65.250001991272,2|0|0,0:0|0:0|0:0,0:0:0:0:
25,142,39735,1,0,0:0:0:0:
114,86,39888,5,10,0:0:0:0:
204,219,40118,1,2,0:3:0:0:
102,255,40347,1,2,0:3:0:0:
219,87,40500,6,0,B|266:42|266:42|329:75,1,130.500003982544,0|0,1:2|0:0,0:0:0:0:
418,138,40959,1,2,0:0:0:0:
279,261,41112,1,10,0:0:0:0:
293,274,41419,2,0,L|284:199,1,65.250001991272,8|0,0:0|0:0,0:0:0:0:
468,267,41725,2,0,P|409:278|394:341,1,130.500003982544,2|0,0:0|0:0,0:0:0:0:
393,339,42184,1,2,0:0:0:0:
512,186,42337,2,0,L|502:122,2,65.250001991272,10|0|0,0:0|0:0|0:0,0:0:0:0:
480,30,42796,1,2,0:0:0:0:
356,206,42949,6,0,B|307:221|265:189|298:180|250:150|206:167,1,161.999995056153,0|0,1:1|0:0,0:0:0:0:
208,165,43868,2,0,L|215:215,1,40.4999987640381,2|0,0:0|0:0,0:0:0:0:
131,307,44174,1,2,0:0:0:0:
131,307,44327,2,0,L|123:252,2,40.4999987640381,2|0|0,0:0|0:0|0:0,0:0:0:0:
230,373,44786,5,8,0:0:0:0:
353,346,44939,1,8,0:0:0:0:
334,208,45092,1,8,0:0:0:0:
266,288,45245,1,8,0:0:0:0:
453,305,45398,6,0,P|458:229|464:160,1,135,4|0,0:1|0:0,0:0:0:0:
432,68,46010,2,0,P|474:55|512:76,1,90,2|0,0:0|0:0,0:0:0:0:
366,213,46623,1,2,0:0:0:0:
366,213,46776,2,0,P|316:168|252:176,1,135,2|0,0:0|0:0,0:0:0:0:
252,176,47541,2,0,L|250:126,1,45,2|2,0:0|0:0,0:0:0:0:
250,131,48612,6,0,L|294:127,2,45,2|0|0,0:0|0:0|0:0,0:0:0:0:
193,71,49072,2,0,P|151:56|110:72,1,90,2|0,0:0|0:0,0:0:0:0:
17,254,49684,2,0,P|10:205|-4:154,1,90,2|0,0:0|0:0,0:0:0:0:
243,384,50296,6,0,P|253:310|273:249,1,135,2|0,0:0|0:0,0:0:0:0:
333,166,50908,2,0,P|295:142|252:149,1,90,2|0,0:0|0:0,0:0:0:0:
370,284,51521,2,0,L|463:264,1,90,2|0,0:0|0:0,0:0:0:0:
499,90,52184,2,0,L|509:138,2,45,2|2|2,0:0|0:0|0:0,0:0:0:0:
437,32,52669,6,0,P|381:10|331:43,1,123.75000377655,2|8,0:0|0:3,0:0:0:0:
261,137,53204,1,4,0:3:0:0:
160,77,53357,1,4,3:3:0:0:
61,184,53510,2,0,L|47:131,1,49.5000015106202,2|2,3:2|3:2,0:0:0:0:
71,34,53817,1,2,3:2:0:0:
191,239,53970,6,0,B|233:225|233:225|241:227|241:227|297:211,1,99.0000030212403,2|0,1:2|0:0,0:0:0:0:
224,357,54429,1,0,3:2:0:0:
91,263,54582,1,2,1:2:0:0:
82,284,54888,1,8,0:3:0:0:
321,294,55194,6,0,P|369:250|361:185,1,135.000005149842,4|0,1:1|3:0,0:0:0:0:
303,93,55653,1,2,0:0:0:0:
503,86,55806,1,0,1:2:0:0:
466,8,55959,2,0,P|453:63|439:138,1,125.999996154785,0|0,3:0|0:0,0:0:0:0:
432,375,56419,5,2,1:2:0:0:
420,359,56725,2,0,L|494:370,1,62.9999980773926,2|0,0:0|3:0,0:0:0:0:
333,268,57031,2,0,P|307:322|247:325,1,125.999996154785,2|0,1:2|3:0,0:0:0:0:
234,208,57490,1,2,0:0:0:0:
72,341,57643,5,0,1:0:0:0:
93,355,57949,1,8,0:3:0:0:
113,371,58255,2,0,L|100:299,1,62.9999980773926,2|0,1:2|3:0,0:0:0:0:
12,204,58561,2,0,L|-1:276,1,62.9999980773926,2|0,0:0|3:0,0:0:0:0:
175,198,58868,6,0,P|110:183|94:125,1,125.999996154785,2|0,1:2|0:0,0:0:0:0:
211,76,59327,1,0,3:0:0:0:
286,237,59480,1,2,1:2:0:0:
274,254,59786,1,4,0:3:0:0:
512,0,60092,5,4,1:1:0:0:
416,28,60245,1,2,0:0:0:0:
473,155,60398,2,0,L|487:88,1,62.9999980773926,2|2,3:2|0:0,0:0:0:0:
375,220,60704,1,2,1:2:0:0:
375,220,61010,5,2,0:0:0:0:
441,287,61163,1,2,3:2:0:0:
362,330,61317,2,0,L|284:312,1,62.9999980773926,2|2,1:2|0:0,0:0:0:0:
137,384,61623,2,0,L|228:364,1,62.9999980773926,2|0,0:0|3:0,0:0:0:0:
62,291,61929,1,0,1:0:0:0:
54,310,62235,2,0,L|43:247,1,62.9999980773926,8|0,0:3|0:0,0:0:0:0:
227,14,62541,6,0,L|201:156,1,125.999996154785,2|0,1:2|0:0,0:0:0:0:
367,304,63000,1,0,1:0:0:0:
461,206,63153,2,0,P|418:162|358:171,1,125.999996154785,2|0,1:2|0:0,0:0:0:0:
196,333,63612,1,0,1:0:0:0:
77,173,63765,1,2,1:2:0:0:
95,160,64072,2,0,L|84:222,1,62.9999980773926,0|0,1:0|0:0,0:0:0:0:
258,384,64378,5,0,1:0:0:0:
354,282,64531,1,0,1:0:0:0:
182,160,64684,1,0,1:0:0:0:
415,20,64837,1,0,1:0:0:0:
249,0,64990,6,0,L|266:117,1,99.0000030212403,2|8,0:0|0:1,0:0:0:0:
469,313,65602,2,0,L|486:215,1,99.0000030212403,8|8,0:1|0:1,0:0:0:0:
417,152,66061,1,8,0:1:0:0:
417,152,66138,1,8,0:1:0:0:
417,152,66214,1,8,0:1:0:0:
317,209,66368,1,8,0:1:0:0:
230,123,66521,1,8,0:1:0:0:
335,26,66674,1,8,0:1:0:0:
222,336,66827,5,10,0:0:0:0:
168,55,66980,1,8,0:0:0:0:
392,265,67133,1,10,0:0:0:0:
84,226,67286,1,8,0:0:0:0:
335,26,67439,6,0,B|328:65|328:65|323:73|323:73|316:129,1,94.499997116089,4|2,1:0|0:0,0:0:0:0:
416,368,67745,2,0,P|475:333|482:265,1,141.749995674133,2|0,0:0|0:0,0:0:0:0:
438,168,68051,1,8,0:0:0:0:
420,160,68663,1,0,1:0:0:0:
309,317,68817,1,0,0:0:0:0:
157,154,68970,2,0,L|255:133,1,94.499997116089,2|0,0:0|0:0,0:0:0:0:
186,347,69276,5,10,0:0:0:0:
11,233,69429,2,0,B|-12:274|-12:274|10:314,1,94.499997116089,2|0,0:0|0:0,0:0:0:0:
166,174,69735,1,2,0:0:0:0:
13,32,69888,5,0,1:0:0:0:
1,54,70194,2,0,P|68:36|144:27,1,141.749995674133,2|0,0:0|0:0,0:0:0:0:
215,99,70500,2,0,P|287:106|304:34,1,141.749995674133,10|2,0:0|0:0,0:0:0:0:
224,0,70806,1,0,1:0:0:0:
114,136,70959,1,2,0:0:0:0:
272,239,71112,6,0,B|332:231|362:209|362:209|412:219|412:219|472:206,1,188.999994232178,2|0,1:2|0:0,0:0:0:0:
404,118,71572,1,0,1:0:0:0:
250,347,71725,1,10,0:0:0:0:
193,84,71878,1,2,1:2:0:0:
394,297,72031,1,2,1:2:0:0:
129,255,72184,1,2,1:2:0:0:
308,13,72337,6,0,L|298:112,1,94.499997116089,6|2,1:2|0:0,0:0:0:0:
43,292,72643,2,0,P|-4:242|12:176,1,141.749995674133,2|0,0:0|0:0,0:0:0:0:
69,101,72949,1,8,0:0:0:0:
81,82,73561,1,0,1:0:0:0:
222,226,73714,1,0,0:0:0:0:
346,68,73868,2,0,L|248:44,1,94.499997116089,2|0,0:0|0:0,0:0:0:0:
409,315,74174,5,10,0:0:0:0:
512,147,74327,1,2,0:0:0:0:
396,329,74480,2,0,B|364:296|364:296|382:235,1,94.499997116089,2|0,0:0|0:0,0:0:0:0:
474,34,74786,6,0,P|492:5|484:39,1,94.499997116089,2|0,1:2|0:0,0:0:0:0:
354,133,75092,1,2,0:0:0:0:
216,35,75245,1,2,0:0:0:0:
65,123,75398,1,10,0:0:0:0:
50,119,75704,2,0,B|89:81|89:81|82:182,1,148.50000453186,2|0,1:2|0:0,0:0:0:0:
14,262,76010,6,0,P|81:201|161:242,1,188.999994232178,2|0,1:2|0:0,0:0:0:0:
243,350,76470,1,0,1:0:0:0:
473,126,76623,1,10,0:0:0:0:
265,190,76776,1,0,1:0:0:0:
431,369,76929,2,0,P|419:319|405:261,1,94.499997116089,2|0,1:2|0:0,0:0:0:0:
280,10,77235,5,4,1:1:0:0:
159,239,77388,1,2,0:0:0:0:
6,82,77541,2,0,P|66:49|136:110,1,141.749995674133,2|0,0:0|0:0,0:0:0:0:
67,153,77847,1,8,0:0:0:0:
69,172,78459,1,0,1:0:0:0:
222,61,78612,1,0,0:0:0:0:
333,211,78765,2,0,P|325:256|318:313,1,94.499997116089,2|0,0:0|0:0,0:0:0:0:
512,178,79072,5,10,0:0:0:0:
368,24,79225,2,0,B|406:-2|406:-2|450:18,1,94.499997116089,2|0,0:0|0:0,0:0:0:0:
335,190,79531,1,2,0:0:0:0:
181,32,79684,5,0,1:0:0:0:
165,17,79990,2,0,P|181:94|194:168,1,141.749995674133,2|0,0:0|0:0,0:0:0:0:
115,241,80296,2,0,P|39:244|27:172,1,141.749995674133,10|2,0:0|0:0,0:0:0:0:
98,144,80602,1,0,1:0:0:0:
178,329,80755,1,2,0:0:0:0:
345,192,80908,6,0,B|395:174|446:213|400:228|462:271|513:249,1,188.999994232178,0|2,1:0|0:0,0:0:0:0:
500,153,81368,1,0,1:0:0:0:
346,354,81521,1,10,0:0:0:0:
192,156,81674,1,2,1:2:0:0:
349,370,81827,2,0,P|353:317|359:274,1,94.499997116089,2|8,1:2|0:0,0:0:0:0:
280,72,82133,5,6,1:2:0:0:
219,254,82286,1,2,0:0:0:0:
32,193,82439,1,2,0:0:0:0:
91,10,82592,1,2,0:0:0:0:
84,321,82745,5,10,0:0:0:0:
84,321,83051,1,2,0:0:0:0:
209,362,83204,1,2,0:0:0:0:
250,241,83357,1,2,1:2:0:0:
123,199,83510,1,2,0:0:0:0:
297,328,83663,6,0,P|355:308|457:309,1,141.749995674133,2|0,0:0|0:0,0:0:0:0:
512,317,83970,1,8,0:0:0:0:
383,141,84123,2,0,B|348:175|348:175|375:213,1,94.499997116089,2|0,0:0|0:0,0:0:0:0:
512,188,84429,1,0,0:0:0:0:
317,30,84582,6,0,B|223:3|223:3|164:10|162:77,1,188.999994232178,2|2,1:2|0:0,0:0:0:0:
221,185,85041,1,2,0:0:0:0:
151,72,85194,1,10,0:0:0:0:
209,200,85347,1,2,0:0:0:0:
51,261,85500,2,0,P|30:219|47:176,1,94.499997116089,2|0,1:2|0:0,0:0:0:0:
137,384,85806,5,2,1:2:0:0:
284,312,85959,2,0,L|167:283,1,94.499997116089,2|0,0:0|0:0,0:0:0:0:
349,157,86265,1,2,1:2:0:0:
439,349,86419,1,10,0:0:0:0:
422,358,86725,1,10,0:0:0:0:
177,283,86878,1,8,0:0:0:0:
355,71,87031,6,0,B|402:69|425:113|425:113|458:93|497:109,1,161.999995056153,0|0,1:0|0:0,2:2:0:0:
