osu file format v14

[General]
AudioFilename: audio.mp3
AudioLeadIn: 0
PreviewTime: 123631
Countdown: 0
SampleSet: Soft
StackLeniency: 0.7
Mode: 0
LetterboxInBreaks: 0
WidescreenStoryboard: 0

[Editor]
Bookmarks: 12526,34852,57177,79503,80201,80898,81596,82294,82991,83689,84387,85084,85782,86480,87177,87875,101829,146480,147177,147875,148573,149270,149968,150666,151364,152061,152759,153457,154154,154852,155550,156247,156945,157643,191131
DistanceSpacing: 1.1
BeatDivisor: 4
GridSize: 16
TimelineZoom: 2

[Metadata]
Title:Social Path (feat. LiSA)
TitleUnicode:Social Path (feat. LiSA)
Artist:Stray Kids
ArtistUnicode:스트레이 키즈
Creator:LeomineXD
Version:Normal feat. FreezingAnimenz
Source:
Tags:nevir nevlr freezinganimenz amats seuteulei kijeu japanese ver version pop jpop j-pop jp english featuring SKZ JYPE JYP entertainment 방찬 Bang Chan Bahng 리노 Lee Know 창빈 Changbin 현진 Hyunjin Hyun Jin 한 Han 필릭스 Felix 승민 Seungmin Seung Min 아이엔 I.N
BeatmapID:4343027
BeatmapSetID:2074782

[Difficulty]
HPDrainRate:3
CircleSize:3.4
OverallDifficulty:4
ApproachRate:5.5
SliderMultiplier:1
SliderTickRate:1

[Events]
//Background and Video events
0,0,"101805095_p0.png",0,0
//Break Periods
2,79703,86750
2,146680,156247
2,169005,170471
//Storyboard Layer 0 (Background)
//Storyboard Layer 1 (Fail)
//Storyboard Layer 2 (Pass)
//Storyboard Layer 3 (Foreground)
//Storyboard Layer 4 (Overlay)
//Storyboard Sound Samples

[TimingPoints]
1364,348.837209302326,4,2,1,40,1,0
6945,-100,4,2,1,50,0,0
9736,-100,4,2,1,78,0,0
11829,-100,4,2,1,60,0,0
12526,-125,4,2,1,70,0,0
23689,-125,4,2,1,75,0,0
34852,-142.857142857143,4,2,1,50,0,0
46015,-125,4,2,1,65,0,0
55782,-125,4,2,1,70,0,0
57177,-100,4,2,1,85,0,1
67991,-100,4,2,1,85,0,0
68340,-100,4,2,1,85,0,1
79503,-125,4,2,1,55,0,0
87875,-125,4,2,1,70,0,0
90666,-125,4,2,1,75,0,0
101829,-142.857142857143,4,2,1,50,0,0
112991,-125,4,2,1,65,0,0
122759,-125,4,2,1,70,0,0
124154,-100,4,2,1,85,0,1
134968,-100,4,2,1,85,0,0
135317,-100,4,2,1,85,0,1
146480,-125,4,2,1,45,0,0
147177,-125,4,2,2,45,0,0
147265,-125,4,2,1,45,0,0
148573,-125,4,2,2,45,0,0
148660,-125,4,2,1,45,0,0
149968,-125,4,2,2,45,0,0
150055,-125,4,2,1,45,0,0
151364,-125,4,2,2,45,0,0
151451,-125,4,2,1,45,0,0
152759,-125,4,2,2,45,0,0
152846,-125,4,2,1,45,0,0
154154,-125,4,2,2,45,0,0
154241,-125,4,2,1,45,0,0
155550,-125,4,2,2,45,0,0
155637,-125,4,2,1,45,0,0
156247,-125,4,2,1,60,0,0
157643,-111.111111111111,4,2,1,65,0,0
163224,-111.111111111111,4,2,1,67,0,0
166015,-111.111111111111,4,2,1,70,0,0
168805,-111.111111111111,4,2,1,45,0,0
171596,-100,4,2,1,85,0,1
177177,-100,4,2,1,85,0,0
179968,-100,4,2,1,85,0,1
188340,-100,4,2,1,75,0,0
191131,-100,4,2,1,60,0,0

[Colours]
Combo1 : 255,128,43
Combo2 : 0,117,234
Combo3 : 169,66,253
Combo4 : 234,0,47

[HitObjects]
256,192,6945,12,4,11131,1:2:0:0:
59,250,12526,6,0,L|36:173,1,80,4|10,1:2|2:2,0:0:0:0:
94,106,13224,2,0,L|172:123,1,80,2|10,2:2|2:2,0:0:0:0:
236,184,13922,2,0,B|213:217|213:217|213:256,2,80,2|8|2,1:2|2:2|2:2,0:0:0:0:
307,132,14968,1,10,2:2:0:0:
374,187,15317,6,0,P|412:176|451:167,1,80,2|10,1:2|2:2,0:0:0:0:
476,251,16015,2,0,P|437:259|398:270,1,80,2|10,2:2|2:2,0:0:0:0:
336,333,16712,2,0,P|259:311|181:293,1,160,2|2,1:2|2:2,0:0:0:0:
99,325,17759,1,10,2:2:0:0:
45,255,18108,6,0,P|28:180|86:129,1,160,2|2,1:2|2:2,0:0:0:0:
168,97,19154,1,10,2:2:0:0:
226,162,19503,2,0,P|282:213|354:189,1,160,2|2,1:2|2:2,0:0:0:0:
417,127,20550,1,10,2:2:0:0:
376,49,20898,6,0,P|337:40|298:29,1,80,4|0,1:2|0:0,0:0:0:0:
226,80,21596,2,0,P|187:71|148:60,1,80,4|0,1:2|0:0,0:0:0:0:
67,26,22294,2,0,P|34:47|22:85,1,80,4|0,1:2|0:0,0:0:0:0:
66,161,22991,2,0,L|56:199,2,40,2|0|2,2:2|1:1|0:0,0:0:0:0:
140,113,23689,6,0,P|179:113|214:131,1,80,4|8,1:2|2:2,0:0:0:0:
277,194,24387,2,0,L|257:271,1,80,2|8,2:2|2:2,0:0:0:0:
186,324,25084,2,0,L|200:382,2,60,2|2|2,1:2|2:2|2:2,0:0:0:0:
92,230,26131,1,10,2:2:0:0:
148,162,26480,6,0,B|147:122|147:122|123:90,1,80,2|8,1:2|2:2,0:0:0:0:
195,40,27177,2,0,B|219:71|219:71|257:82,1,80,2|10,2:2|2:2,0:0:0:0:
342,57,27875,2,0,L|327:-1,2,60,2|2|2,1:2|2:2|2:2,0:0:0:0:
425,159,28922,1,10,2:2:0:0:
362,221,29270,5,2,1:2:0:0:
362,221,29445,2,0,L|323:210,1,40,2|10,2:2|2:2,0:0:0:0:
290,180,29794,2,0,L|173:210,1,120,2|10,2:2|2:2,0:0:0:0:
96,168,30666,1,2,1:2:0:0:
96,168,30840,2,0,L|57:178,1,40,2|10,2:2|2:2,0:0:0:0:
24,207,31189,2,0,P|11:263|46:310,1,120,2|10,2:2|2:2,0:0:0:0:
119,359,32061,6,0,P|152:337|191:337,1,80,4|0,1:2|0:0,0:0:0:0:
272,374,32759,2,0,P|311:374|344:352,1,80,4|0,1:2|0:0,0:0:0:0:
406,289,33457,2,0,B|441:300|441:300|447:306|447:306|480:316,2,80,4|0|2,1:2|0:0|2:2,0:0:0:0:
350,220,34503,2,0,P|351:200|361:182,1,40,8|0,2:3|0:0,0:0:0:0:
394,163,34852,5,2,2:2:0:0:
362,92,35201,1,2,2:2:0:0:
285,101,35550,2,0,L|217:83,1,69.9999978637696,8|2,2:1|2:2,0:0:0:0:
147,116,36247,2,0,L|79:96,2,69.9999978637696,2|2|8,2:2|2:2|2:1,0:0:0:0:
193,177,37294,1,2,2:2:0:0:
165,248,37643,5,2,2:2:0:0:
316,220,38340,1,8,2:1:0:0:
374,169,38689,1,2,2:2:0:0:
355,94,39038,2,0,L|286:79,1,69.9999978637696,2|2,2:2|2:2,0:0:0:0:
221,38,39736,2,0,P|186:32|155:46,1,69.9999978637696,8|2,2:1|2:2,0:0:0:0:
93,93,40433,5,2,2:2:0:0:
125,243,41131,2,0,P|90:238|60:255,2,69.9999978637696,8|2|2,2:1|2:2|2:2,0:0:0:0:
177,299,42177,1,2,2:2:0:0:
249,272,42526,2,0,L|316:288,1,69.9999978637696,8|2,2:1|2:2,0:0:0:0:
391,268,43224,6,0,P|430:212|416:146,1,139.999995727539,2|8,2:2|2:1,0:0:0:0:
361,93,44270,1,2,2:2:0:0:
284,104,44619,2,0,L|270:35,2,69.9999978637696,2|2|8,2:2|2:2|2:1,0:0:0:0:
230,160,45666,1,2,2:2:0:0:
271,238,46015,6,0,P|308:216|347:214,1,80,2|0,1:2|1:1,0:0:0:0:
417,263,46712,1,8,1:3:0:0:
403,351,47061,1,2,1:2:0:0:
321,382,47410,2,0,L|230:369,1,80,0|0,1:1|1:1,0:0:0:0:
153,371,48108,2,0,L|132:284,1,80,8|2,1:3|1:2,0:0:0:0:
105,210,48805,6,0,L|19:206,2,80,2|2|8,1:2|1:2|1:3,0:0:0:0:
182,166,49852,1,2,1:2:0:0:
182,166,50026,2,0,L|261:176,1,80,2|2,2:2|2:2,0:0:0:0:
349,179,50724,2,0,P|378:153|381:114,1,80,2|2,2:2|2:2,0:0:0:0:
328,43,51422,1,2,2:2:0:0:
328,43,51596,6,0,L|250:22,1,80,2|2,1:2|1:2,0:0:0:0:
161,22,52294,1,8,1:3:0:0:
97,83,52643,1,2,1:2:0:0:
97,83,52817,2,0,L|119:178,1,80,2|2,2:2|2:2,0:0:0:0:
101,203,53340,1,2,1:2:0:0:
142,281,53689,1,8,1:3:0:0:
142,281,53864,2,0,L|130:327,2,40,2|2|2,2:2|1:2|2:2,0:0:0:0:
177,254,54387,6,0,P|208:276|248:276,1,80,2|2,1:2|1:2,0:0:0:0:
305,208,55084,1,8,1:3:0:0:
305,208,55259,2,0,L|290:153,1,40,2|2,2:2|1:2,0:0:0:0:
310,127,55608,1,2,2:2:0:0:
310,127,55782,2,0,L|348:137,2,40,0|0|0,1:1|1:1|1:1,0:0:0:0:
228,92,56480,2,0,L|188:83,1,40,0|2,1:1|1:2,0:0:0:0:
157,52,56829,1,10,2:2:0:0:
257,7,57177,6,0,B|314:-4|295:27|355:15,1,100,4|10,1:1|2:2,0:0:0:0:
408,0,57701,1,2,0:0:0:0:
408,0,57875,1,2,2:2:0:0:
492,71,58224,1,10,2:2:0:0:
492,71,58398,2,0,L|484:122,1,50,2|0,2:2|1:1,0:0:0:0:
445,159,58747,2,0,L|454:209,1,50,2|8,2:2|2:2,0:0:0:0:
504,231,59096,2,0,B|494:273|494:273|500:287|500:287|491:332,1,100,2|2,2:2|1:2,0:0:0:0:
452,366,59619,1,10,2:2:0:0:
367,295,59968,6,0,P|325:268|276:272,1,100,2|10,1:2|2:2,0:0:0:0:
230,302,60491,1,2,0:0:0:0:
230,302,60666,1,2,2:2:0:0:
150,226,61015,1,10,2:2:0:0:
150,226,61189,2,0,L|52:248,1,100,2|2,2:2|1:2,0:0:0:0:
11,211,61712,1,8,2:2:0:0:
11,211,61887,2,0,P|-9:166|7:120,1,100,2|2,2:2|1:2,0:0:0:0:
45,81,62410,1,10,2:2:0:0:
148,119,62759,6,0,B|204:103|181:92|238:78,1,100,2|10,1:2|2:2,0:0:0:0:
290,96,63282,2,0,P|309:141|296:188,1,100,2|0,2:2|1:1,0:0:0:0:
256,227,63805,1,10,2:2:0:0:
190,315,64154,2,0,L|287:336,1,100,2|10,1:2|2:2,0:0:0:0:
326,375,64677,2,0,L|423:352,1,100,2|0,2:2|1:1,0:0:0:0:
473,328,65201,1,10,2:2:0:0:
417,233,65550,6,0,L|438:135,1,100,4|2,1:2|2:2,0:0:0:0:
379,42,66247,2,0,P|330:48|289:20,1,100,4|2,1:2|2:2,0:0:0:0:
189,67,66945,2,0,P|148:39|101:46,1,100,4|2,1:2|2:2,0:0:0:0:
20,122,67643,2,0,L|28:170,1,50,2|2,2:2|1:2,0:0:0:0:
61,214,67991,1,10,2:2:0:0:
160,167,68340,6,0,B|198:175|198:175|208:193|208:193|251:201,1,100,4|10,1:1|2:2,0:0:0:0:
339,262,69038,2,0,L|388:252,1,50,2|0,2:2|1:1,0:0:0:0:
435,224,69387,1,10,2:2:0:0:
435,224,69561,2,0,P|447:176|425:133,1,100,2|2,2:2|2:2,0:0:0:0:
355,48,70259,2,0,P|306:58|257:70,1,100,2|2,2:2|1:2,0:0:0:0:
214,104,70782,1,8,2:2:0:0:
122,42,71131,6,0,P|78:62|63:109,1,100,0|8,1:1|2:2,0:0:0:0:
96,153,71654,2,0,P|84:201|73:250,1,100,2|2,2:2|1:2,0:0:0:0:
105,294,72177,1,8,2:2:0:0:
193,228,72526,5,0,1:1:0:0:
193,228,72701,2,0,B|242:221|242:221|281:251,1,100,2|2,1:2|2:2,0:0:0:0:
317,295,73224,2,0,P|312:319|306:343,2,50,2|2|10,0:0|1:2|2:2,0:0:0:0:
398,220,73922,6,0,P|404:171|374:132,1,100,2|10,1:2|2:2,0:0:0:0:
327,103,74445,2,0,L|229:126,1,100,2|0,2:2|1:1,0:0:0:0:
190,165,74968,1,10,2:2:0:0:
88,124,75317,2,0,P|59:84|65:36,1,100,2|10,1:2|2:2,0:0:0:0:
107,0,75840,2,0,L|203:25,1,100,2|0,2:2|1:1,0:0:0:0:
257,11,76364,1,10,2:2:0:0:
360,49,76712,6,0,B|341:77|341:77|364:190,1,150,4|2,1:2|2:2,0:0:0:0:
409,222,77410,2,0,P|443:285|407:347,1,150,4|0,1:2|0:0,0:0:0:0:
354,364,78108,2,0,B|313:377|289:341|289:341|264:305|223:319,1,150,4|2,1:2|2:2,0:0:0:0:
171,337,78805,2,0,P|147:329|122:325,1,50,2|0,2:2|1:1,0:0:0:0:
71,345,79154,1,8,2:3:0:0:
12,279,79503,5,2,2:2:0:0:
55,55,87875,6,0,L|143:41,1,80,4|0,1:2|0:0,0:0:0:0:
221,52,88573,2,0,P|246:81|240:119,1,80,4|0,1:2|0:0,0:0:0:0:
183,185,89270,2,0,B|147:167|147:167|107:170,1,80,4|0,1:2|0:0,0:0:0:0:
44,233,89968,2,0,L|5:222,2,40,0|0|0,1:1|3:3|3:3,0:0:0:0:
109,293,90666,6,0,P|146:275|187:284,1,80,4|10,1:2|2:2,0:0:0:0:
251,337,91364,2,0,L|341:318,1,80,2|10,2:2|2:2,0:0:0:0:
367,297,91887,1,2,2:2:0:0:
367,297,92061,2,0,L|383:210,1,80,2|10,1:2|2:2,0:0:0:0:
347,136,92759,2,0,L|305:146,1,40,2|2,2:2|1:2,0:0:0:0:
264,154,93108,1,10,2:2:0:0:
227,235,93457,6,0,P|191:256|144:242,1,80,0|8,1:1|2:2,0:0:0:0:
95,184,94154,2,0,L|88:132,1,40,2|2,2:2|1:2,0:0:0:0:
72,103,94503,1,10,2:2:0:0:
141,49,94852,2,0,L|234:40,1,80,0|8,1:1|2:2,0:0:0:0:
303,70,95550,2,0,L|354:58,1,40,2|2,2:2|1:2,0:0:0:0:
378,36,95899,1,10,2:2:0:0:
445,92,96247,6,0,P|461:129|440:168,1,80,0|10,1:1|2:2,0:0:0:0:
415,195,96770,1,2,2:2:0:0:
415,195,96945,2,0,L|324:180,1,80,2|10,2:2|2:2,0:0:0:0:
247,179,97643,2,0,P|211:215|218:248,1,80,2|10,1:2|2:2,0:0:0:0:
241,275,98166,1,2,2:2:0:0:
241,275,98340,2,0,L|326:264,1,80,2|10,2:2|2:2,0:0:0:0:
407,246,99038,6,0,P|429:277|423:316,1,80,4|0,1:2|0:0,0:0:0:0:
367,384,99736,2,0,L|281:368,1,80,4|2,1:2|2:2,0:0:0:0:
230,304,100433,2,0,P|201:313|172:318,2,60,4|0|2,1:2|1:1|1:2,0:0:0:0:
249,264,101131,2,0,L|239:225,1,40,2|2,2:2|1:2,0:0:0:0:
255,184,101480,2,0,L|245:145,1,40,8|0,2:3|0:0,0:0:0:0:
225,111,101829,5,2,2:2:0:0:
158,73,102177,1,2,2:2:0:0:
87,105,102526,2,0,P|61:128|56:162,1,69.9999978637696,8|2,2:1|2:2,0:0:0:0:
81,235,103224,2,0,B|68:263|68:263|69:271|69:271|58:299,2,69.9999978637696,2|2|8,2:2|2:2|2:1,0:0:0:0:
152,207,104270,1,2,2:2:0:0:
196,269,104619,5,2,2:2:0:0:
348,250,105317,1,8,2:1:0:0:
407,201,105666,1,2,2:2:0:0:
385,127,106015,2,0,P|393:93|405:60,1,69.9999978637696,2|2,2:2|2:2,0:0:0:0:
344,12,106712,2,0,P|315:31|280:33,1,69.9999978637696,8|2,2:1|2:2,0:0:0:0:
210,3,107410,5,2,2:2:0:0:
104,115,108108,2,0,P|74:96|40:98,2,69.9999978637696,8|2|2,2:1|2:2|2:2,0:0:0:0:
136,184,109154,1,2,2:2:0:0:
88,244,109503,2,0,L|105:311,1,69.9999978637696,8|2,2:1|2:2,0:0:0:0:
168,357,110201,6,0,B|222:340|222:340|237:316|237:316|294:301,1,139.999995727539,2|8,2:2|2:1,0:0:0:0:
340,243,111247,1,2,2:2:0:0:
274,202,111596,2,0,P|244:220|209:223,2,69.9999978637696,2|2|8,2:2|2:2|2:1,0:0:0:0:
292,126,112643,1,2,2:2:0:0:
372,89,112991,6,0,P|404:66|444:62,1,80,2|0,1:2|1:1,0:0:0:0:
512,118,113689,1,8,1:3:0:0:
479,199,114038,1,2,1:2:0:0:
504,283,114387,2,0,B|461:292|475:309|430:320,1,80,0|0,1:1|1:1,0:0:0:0:
358,274,115084,2,0,P|317:272|286:295,1,80,8|2,1:3|1:2,0:0:0:0:
198,306,115782,6,0,P|208:344|217:383,2,80,2|2|8,1:2|1:2|1:3,0:0:0:0:
121,261,116829,1,2,1:2:0:0:
121,260,117003,2,0,P|142:228|142:188,1,80,2|2,2:2|2:2,0:0:0:0:
105,108,117701,2,0,P|104:68|126:35,1,80,2|2,2:2|2:2,0:0:0:0:
207,0,118398,1,0,0:0:0:0:
207,0,118573,6,0,P|245:9|284:19,1,80,2|2,1:2|1:2,0:0:0:0:
357,70,119270,1,8,1:3:0:0:
313,147,119619,1,2,1:2:0:0:
313,147,119794,2,0,P|323:185|332:224,1,80,2|2,2:2|2:2,0:0:0:0:
351,264,120317,1,2,1:2:0:0:
398,338,120666,1,8,1:3:0:0:
398,338,120840,2,0,P|417:332|436:328,2,40,2|2|2,2:2|1:2|2:2,0:0:0:0:
368,371,121364,6,0,P|329:360|290:351,1,80,2|2,1:2|1:2,0:0:0:0:
220,298,122061,1,8,1:3:0:0:
220,298,122236,2,0,P|200:302|181:307,1,40,2|2,2:2|1:2,0:0:0:0:
145,333,122584,1,2,2:2:0:0:
145,333,122759,2,0,P|156:349|160:368,2,40,0|0|0,1:1|1:1|1:1,0:0:0:0:
67,290,123457,2,0,P|61:270|55:251,1,40,0|2,1:1|1:2,0:0:0:0:
24,220,123805,1,10,2:2:0:0:
124,174,124154,6,0,P|173:183|221:196,1,100,4|10,1:1|2:2,0:0:0:0:
262,233,124677,1,2,0:0:0:0:
262,233,124852,1,2,2:2:0:0:
366,196,125201,1,10,2:2:0:0:
366,196,125375,2,0,L|414:208,1,50,2|0,2:2|1:1,0:0:0:0:
462,180,125724,2,0,L|474:131,1,50,2|8,2:2|2:2,0:0:0:0:
463,77,126073,2,0,P|426:44|378:45,1,100,2|2,2:2|1:2,0:0:0:0:
329,71,126596,1,10,2:2:0:0:
240,7,126945,6,0,P|191:17|143:31,1,100,2|10,1:2|2:2,0:0:0:0:
96,60,127468,1,2,0:0:0:0:
96,60,127643,1,2,2:2:0:0:
19,138,127991,1,10,2:2:0:0:
19,138,128166,2,0,P|52:174|48:223,1,100,2|2,2:2|1:2,0:0:0:0:
16,267,128689,1,8,2:2:0:0:
16,267,128864,2,0,B|58:276|58:276|66:285|66:285|114:295,1,100,2|2,2:2|1:2,0:0:0:0:
154,326,129387,1,10,2:2:0:0:
239,256,129736,6,0,P|225:207|206:161,1,100,2|10,1:2|2:2,0:0:0:0:
167,122,130259,2,0,P|175:74|219:54,1,100,2|0,2:2|1:1,0:0:0:0:
272,71,130782,1,10,2:2:0:0:
365,12,131131,2,0,B|413:3|413:3|453:33,1,100,2|10,1:2|2:2,0:0:0:0:
493,72,131654,2,0,L|465:167,1,100,2|0,2:2|1:1,0:0:0:0:
426,207,132177,1,10,2:2:0:0:
329,154,132526,6,0,B|273:168|293:179|236:192,1,100,4|2,1:2|2:2,0:0:0:0:
142,134,133224,2,0,P|93:130|56:161,1,100,4|2,1:2|2:2,0:0:0:0:
0,257,133922,2,0,L|24:353,1,100,4|2,1:2|2:2,0:0:0:0:
118,295,134619,2,0,P|141:285|166:283,1,50,2|2,2:2|1:2,0:0:0:0:
221,287,134968,1,10,2:2:0:0:
320,334,135317,6,0,L|416:310,1,100,4|10,1:1|2:2,0:0:0:0:
486,224,136015,2,0,P|473:202|469:177,1,50,2|0,2:2|1:1,0:0:0:0:
490,126,136364,1,10,2:2:0:0:
490,126,136538,2,0,P|466:84|420:68,1,100,2|2,2:2|2:2,0:0:0:0:
321,119,137236,2,0,L|225:95,1,100,2|2,2:2|1:2,0:0:0:0:
185,55,137759,1,8,2:2:0:0:
75,49,138108,6,0,P|105:86|98:134,1,100,0|8,1:1|2:2,0:0:0:0:
55,169,138631,2,0,P|48:217|79:255,1,100,2|2,2:2|1:2,0:0:0:0:
131,271,139154,1,8,2:2:0:0:
216,201,139503,5,0,1:1:0:0:
216,201,139677,2,0,P|264:210|313:224,1,100,2|2,1:2|2:2,0:0:0:0:
364,201,140201,2,0,P|388:206|412:213,2,50,2|2|10,0:0|1:2|2:2,0:0:0:0:
284,125,140898,6,0,B|272:76|272:76|305:40,1,100,2|10,1:2|2:2,0:0:0:0:
356,14,141422,2,0,P|404:25|452:38,1,100,2|0,2:2|1:1,0:0:0:0:
500,66,141945,1,10,2:2:0:0:
431,152,142294,2,0,B|444:189|444:189|438:211|438:211|452:245,1,100,2|10,1:2|2:2,0:0:0:0:
492,285,142817,2,0,P|498:333|467:370,1,100,2|0,2:2|1:1,0:0:0:0:
412,370,143340,1,10,2:2:0:0:
314,319,143689,6,0,B|273:305|245:337|245:337|217:369|177:355,1,150,4|2,1:2|2:2,0:0:0:0:
134,322,144387,2,0,P|114:253|167:205,1,150,4|0,1:2|0:0,0:0:0:0:
203,165,145084,2,0,P|276:181|348:200,1,150,4|2,1:2|2:2,0:0:0:0:
397,226,145782,2,0,P|420:219|445:212,1,50,2|0,2:2|1:1,0:0:0:0:
484,173,146131,1,8,2:3:0:0:
435,99,146480,5,2,2:2:0:0:
9,43,157643,6,0,L|33:130,1,89.9999972534181,4|2,1:2|1:2,0:0:0:0:
109,192,158340,2,0,L|96:235,1,44.999998626709,8|2,1:3|2:2,0:0:0:0:
56,264,158689,2,0,L|67:307,1,44.999998626709,2|2,1:2|2:2,0:0:0:0:
106,337,159038,2,0,L|93:379,2,44.999998626709,2|2|2,1:2|2:2|1:2,0:0:0:0:
184,275,159736,1,8,1:3:0:0:
249,349,160084,1,2,1:2:0:0:
332,296,160433,6,0,L|309:208,1,89.9999972534181,2|2,1:2|1:2,0:0:0:0:
264,187,160957,1,2,2:2:0:0:
264,187,161131,2,0,P|240:149|250:106,1,89.9999972534181,8|2,1:3|1:2,0:0:0:0:
313,30,161829,1,2,1:2:0:0:
410,12,162177,1,2,1:2:0:0:
498,58,162526,2,0,P|521:95|512:138,1,89.9999972534181,8|2,1:3|1:2,0:0:0:0:
436,202,163224,6,0,P|412:238|422:281,1,89.9999972534181,2|0,1:2|1:1,0:0:0:0:
459,314,163747,1,2,3:2:0:0:
459,314,163922,2,0,L|503:303,2,44.999998626709,8|2|0,1:3|3:2|1:1,0:0:0:0:
377,370,164619,2,0,L|332:359,1,44.999998626709,2|2,1:2|3:2,0:0:0:0:
297,324,164968,2,0,L|252:332,1,44.999998626709,2|2,1:2|3:2,0:0:0:0:
209,357,165317,2,0,B|154:342|179:333|128:319,1,89.9999972534181,8|2,1:3|1:2,0:0:0:0:
256,192,166015,12,2,168805,2:2:0:0:
297,139,171596,6,0,L|308:90,1,50,4|0,1:1|0:0,0:0:0:0:
289,38,171945,2,0,P|248:11|200:20,1,100,10|2,2:2|2:2,0:0:0:0:
152,47,172468,1,2,1:2:0:0:
152,47,172643,1,10,2:2:0:0:
54,98,172991,2,0,L|5:86,2,50,2|0|10,1:2|1:1|2:2,0:0:0:0:
123,183,173689,2,0,L|111:232,1,50,2|2,2:2|1:2,0:0:0:0:
72,270,174038,1,10,2:2:0:0:
114,371,174387,6,0,L|162:359,1,50,2|0,1:2|0:0,0:0:0:0:
200,319,174736,2,0,B|260:330|226:357|285:368,1,100,10|2,2:2|2:2,0:0:0:0:
336,352,175259,1,2,1:2:0:0:
336,352,175433,1,10,2:2:0:0:
386,253,175782,2,0,P|434:263|483:275,1,100,2|10,1:2|2:2,0:0:0:0:
512,228,176305,1,2,2:2:0:0:
512,228,176480,2,0,P|507:203|501:179,1,50,2|2,2:2|1:2,0:0:0:0:
483,126,176829,1,10,2:2:0:0:
378,171,177177,6,0,B|344:164|344:164|329:137|329:137|292:129,1,100,4|0,1:2|0:0,0:0:0:0:
212,56,177875,2,0,L|115:82,1,100,4|0,1:2|0:0,0:0:0:0:
37,160,178573,2,0,P|28:207|57:246,1,100,4|0,1:2|0:0,0:0:0:0:
148,309,179270,2,0,L|196:295,1,50,2|2,0:0|1:2,0:0:0:0:
250,305,179619,1,10,2:2:0:0:
284,200,179968,6,0,P|250:164|251:115,1,100,4|10,1:1|2:2,0:0:0:0:
328,37,180666,2,0,L|376:50,1,50,2|0,2:2|1:1,0:0:0:0:
427,71,181015,1,10,2:2:0:0:
427,71,181189,2,0,P|400:111|413:158,1,100,2|2,2:2|2:2,0:0:0:0:
483,243,181887,2,0,B|427:242|445:266|386:267,1,100,2|2,2:2|1:2,0:0:0:0:
338,241,182410,1,8,2:2:0:0:
262,321,182759,6,0,P|223:290|175:296,1,100,0|8,1:1|2:2,0:0:0:0:
135,334,183282,2,0,P|86:334|51:300,1,100,2|2,2:2|1:2,0:0:0:0:
38,247,183805,1,8,2:2:0:0:
117,171,184154,5,0,1:1:0:0:
117,170,184329,2,0,P|125:123|95:84,1,100,2|2,1:2|2:2,0:0:0:0:
53,50,184852,2,0,L|4:58,2,50,2|2|10,2:2|1:2|2:2,0:0:0:0:
153,5,185550,6,0,L|250:25,1,100,2|10,1:2|2:2,0:0:0:0:
291,63,186073,2,0,L|388:42,1,100,2|0,2:2|1:1,0:0:0:0:
439,19,186596,1,10,2:2:0:0:
505,107,186945,2,0,B|497:138|477:149|477:149|489:169|481:200,1,100,2|10,1:2|2:2,0:0:0:0:
443,235,187468,2,0,P|404:205|357:215,1,100,2|0,2:2|1:1,0:0:0:0:
318,254,187991,1,10,2:2:0:0:
239,176,188340,6,0,B|299:144|266:84|266:84|225:73,1,150,4|2,1:2|2:2,0:0:0:0:
189,34,189038,2,0,B|127:49|127:49|114:61|114:61|49:79,1,150,4|2,1:2|2:2,0:0:0:0:
9,118,189736,2,0,P|-7:188|42:240,1,150,4|2,1:2|2:2,0:0:0:0:
89,267,190433,1,2,2:2:0:0:
89,267,190608,2,0,L|137:255,1,50,0|10,1:1|2:2,0:0:0:0:
215,177,191131,6,0,P|204:154|203:129,2,50,2|2|2,2:2|2:2|2:2,0:0:0:0:
