osu file format v14

[General]
AudioFilename: audio.mp3
AudioLeadIn: 0
PreviewTime: 123631
Countdown: 0
SampleSet: Soft
StackLeniency: 0.2
Mode: 0
LetterboxInBreaks: 0
WidescreenStoryboard: 1

[Editor]
Bookmarks: 1364,12526,23689,34852,46015,57177,79503,90666,101829,112991,124154,146480,157643,168805,171596,191480
DistanceSpacing: 0.3
BeatDivisor: 4
GridSize: 32
TimelineZoom: 1.8

[Metadata]
Title:Social Path (feat. LiSA)
TitleUnicode:Social Path (feat. LiSA)
Artist:Stray Kids
ArtistUnicode:스트레이 키즈
Creator:LeomineXD
Version:NEVlR's Loneliness
Source:
Tags:nevir nevlr freezinganimenz amats seuteulei kijeu japanese ver version pop jpop j-pop jp english featuring SKZ JYPE JYP entertainment 방찬 Bang Chan Bahng 리노 Lee Know 창빈 Changbin 현진 Hyunjin Hyun Jin 한 Han 필릭스 Felix 승민 Seungmin Seung Min 아이엔 I.N
BeatmapID:4351485
BeatmapSetID:2074782

[Difficulty]
HPDrainRate:5.5
CircleSize:4
OverallDifficulty:8.5
ApproachRate:9.2
SliderMultiplier:1.7
SliderTickRate:1

[Events]
//Background and Video events
0,0,"101805095_p0.png",0,0
//Break Periods
//Storyboard Layer 0 (Background)
//Storyboard Layer 1 (Fail)
//Storyboard Layer 2 (Pass)
//Storyboard Layer 3 (Foreground)
//Storyboard Layer 4 (Overlay)
//Storyboard Sound Samples

[TimingPoints]
1364,348.837209302326,4,2,1,40,1,0
1364,-76.9230769230769,4,2,1,40,0,0
2061,-166.666666666667,4,2,1,40,0,0
2759,-76.9230769230769,4,2,1,40,0,0
3457,-166.666666666667,4,2,1,40,0,0
4154,-76.9230769230769,4,2,1,40,0,0
4852,-166.666666666667,4,2,1,40,0,0
5550,-76.9230769230769,4,2,1,40,0,0
6247,-166.666666666667,4,2,1,40,0,0
6945,-142.857142857143,4,2,1,50,0,0
9736,-90.9090909090909,4,2,1,78,0,0
10433,-80,4,2,1,78,0,0
11131,-71.4285714285714,4,2,1,78,0,0
11829,-166.666666666667,4,2,1,60,0,0
12526,-133.333333333333,4,2,1,70,0,0
20898,-76.9230769230769,4,2,1,70,0,0
23166,-166.666666666667,4,2,1,70,0,0
23689,-111.111111111111,4,2,1,75,0,0
28573,-90.9090909090909,4,2,1,75,0,0
29445,-111.111111111111,4,2,1,75,0,0
34852,-166.666666666667,4,2,1,50,0,0
46015,-117.647058823529,4,2,1,65,0,0
51596,-111.111111111111,4,2,1,65,0,0
55782,-111.111111111111,4,2,1,70,0,0
57177,-95.2380952380952,4,2,1,85,0,1
62410,-76.9230769230769,4,2,1,85,0,1
62759,-95.2380952380952,4,2,1,85,0,1
64503,-76.9230769230769,4,2,1,85,0,1
64677,-95.2380952380952,4,2,1,85,0,1
65550,-74.0740740740741,4,2,1,85,0,0
67643,-117.647058823529,4,2,1,85,0,0
68340,-95.2380952380952,4,2,1,85,0,1
76712,-95.2380952380952,4,2,1,85,0,0
79503,-142.857142857143,4,2,1,55,0,0
87875,-76.9230769230769,4,2,1,70,0,0
90666,-111.111111111111,4,2,1,75,0,0
100433,-83.3333333333333,4,2,1,75,0,0
101829,-166.666666666667,4,2,1,50,0,0
112991,-117.647058823529,4,2,1,65,0,0
118573,-111.111111111111,4,2,1,65,0,0
122759,-111.111111111111,4,2,1,70,0,0
124154,-95.2380952380952,4,2,1,85,0,1
129387,-76.9230769230769,4,2,1,85,0,1
129736,-95.2380952380952,4,2,1,85,0,1
131480,-76.9230769230769,4,2,1,85,0,1
132526,-74.0740740740741,4,2,1,85,0,0
134619,-117.647058823529,4,2,1,85,0,0
135317,-95.2380952380952,4,2,1,85,0,1
143689,-95.2380952380952,4,2,1,85,0,0
146480,-142.857142857143,4,2,1,45,0,0
147177,-142.857142857143,4,2,2,45,0,0
147265,-142.857142857143,4,2,1,45,0,0
148573,-142.857142857143,4,2,2,45,0,0
148660,-142.857142857143,4,2,1,45,0,0
149968,-142.857142857143,4,2,2,45,0,0
150055,-142.857142857143,4,2,1,45,0,0
151364,-142.857142857143,4,2,2,45,0,0
151451,-142.857142857143,4,2,1,45,0,0
152759,-142.857142857143,4,2,2,45,0,0
152846,-142.857142857143,4,2,1,45,0,0
154154,-142.857142857143,4,2,2,45,0,0
154241,-142.857142857143,4,2,1,45,0,0
155550,-142.857142857143,4,2,2,45,0,0
155637,-142.857142857143,4,2,1,45,0,0
156247,-142.857142857143,4,2,1,60,0,0
157643,-117.647058823529,4,2,1,65,0,0
163224,-111.111111111111,4,2,1,67,0,0
166015,-111.111111111111,4,2,1,70,0,0
167410,-90.9090909090909,4,2,1,70,0,0
168457,-76.9230769230769,4,2,1,70,0,0
168805,-133.333333333333,4,2,1,45,0,0
171596,-86.9565217391304,4,2,1,85,0,1
177177,-74.0740740740741,4,2,1,85,0,0
179270,-117.647058823529,4,2,1,85,0,0
179968,-86.9565217391304,4,2,1,85,0,1
188340,-95.2380952380952,4,2,1,75,0,0
191131,-111.111111111111,4,2,1,60,0,0

[Colours]
Combo1 : 255,128,43
Combo2 : 0,117,234
Combo3 : 169,66,253
Combo4 : 234,0,47

[HitObjects]
455,224,1364,6,0,P|433:162|474:110,1,110.499994941712,2|0,2:2|0:0,0:0:0:0:
512,326,1712,2,0,P|461:345|413:322,1,110.499994941712,2|2,2:2|2:2,0:0:0:0:
387,333,1974,1,2,2:2:0:0:
380,329,2061,2,0,L|278:353,1,101.999996887207,2|2,2:2|2:2,0:0:0:0:
24,236,2759,6,0,P|68:201|126:212,1,110.499994941712,2|0,2:2|0:0,0:0:0:0:
182,131,3108,2,0,B|193:109|193:109|158:29,1,110.499994941712,2|2,2:2|2:2,0:0:0:0:
116,0,3369,1,2,2:2:0:0:
120,7,3457,2,0,L|96:109,1,101.999996887207,2|2,2:2|2:2,0:0:0:0:
278,224,4154,6,0,L|400:195,1,110.499994941712,2|0,2:2|0:0,0:0:0:0:
436,8,4503,2,0,L|407:130,1,110.499994941712,2|2,2:2|2:2,0:0:0:0:
500,221,4765,1,2,2:2:0:0:
504,214,4852,2,0,P|512:153|480:112,1,101.999996887207,2|2,2:2|2:2,0:0:0:0:
269,325,5550,6,0,P|215:369|146:353,1,110.499994941712,2|0,2:2|0:0,0:0:0:0:
0,279,5898,2,0,P|54:235|122:250,1,110.499994941712,2|2,2:2|2:2,0:0:0:0:
166,163,6247,1,2,2:2:0:0:
191,82,6422,1,2,2:2:0:0:
110,57,6596,1,2,2:2:0:0:
85,138,6770,1,2,2:2:0:0:
239,215,6945,6,0,L|301:208,1,59.4999981842042,2|0,2:2|0:0,0:0:0:0:
416,160,7294,1,8,2:1:0:0:
342,118,7468,1,2,2:2:0:0:
342,118,7555,1,2,2:2:0:0:
342,118,7643,2,0,L|328:-5,1,118.999996368408,2|8,2:2|2:1,0:0:0:0:
149,101,8166,1,0,0:0:0:0:
237,10,8340,6,0,L|230:72,1,59.4999981842042,2|0,2:2|0:0,0:0:0:0:
149,101,8689,2,0,L|89:107,1,59.4999981842042,8|2,2:1|2:2,0:0:0:0:
196,200,9038,2,0,P|246:166|319:186,1,118.999996368408,2|8,2:2|2:1,0:0:0:0:
230,69,9561,1,0,0:0:0:0:
272,275,9736,6,0,B|369:255|346:340|443:320,1,187.000005706787,4|0,1:2|0:0,0:0:0:0:
431,55,10259,5,2,2:2:0:0:
431,55,10346,1,2,2:2:0:0:
431,55,10433,2,0,B|423:129|423:129|426:133|426:133|417:211,1,159.375,4|0,1:2|0:0,0:0:0:0:
301,173,10782,1,0,0:0:0:0:
172,337,10957,5,2,2:2:0:0:
172,337,11044,1,2,2:2:0:0:
172,337,11131,2,0,L|184:218,1,118.999996368408,4|0,1:2|0:0,0:0:0:0:
93,193,11480,2,0,P|36:189|0:234,1,118.999996368408
85,284,11829,5,2,2:2:0:0:
184,218,12003,1,2,2:2:0:0:
74,106,12177,1,2,2:2:0:0:
93,193,12352,1,2,2:2:0:0:
36,373,12526,6,0,L|98:366,1,63.7500024318696,4|0,1:2|0:0,0:0:0:0:
263,299,12875,2,0,L|325:292,1,63.7500024318696,10|0,2:2|0:0,0:0:0:0:
184,218,13224,2,0,L|177:280,1,63.7500024318696,2|0,2:2|1:1,0:0:0:0:
403,381,13573,2,0,L|409:318,1,63.7500024318696,10|0,2:2|0:0,0:0:0:0:
320,204,13922,6,0,P|299:143|334:75,1,127.500004863739,2|8,1:2|2:2,0:0:0:0:
415,205,14445,1,2,2:2:0:0:
325,292,14619,2,0,L|263:299,1,63.7500024318696,2|2,2:2|1:2,0:0:0:0:
184,218,14968,5,10,2:2:0:0:
321,87,15143,1,2,2:2:0:0:
214,17,15317,2,0,L|220:79,1,63.7500024318696,2|0,1:2|0:0,0:0:0:0:
84,250,15666,2,0,L|77:187,1,63.7500024318696,10|0,2:2|0:0,0:0:0:0:
7,75,16015,2,0,L|69:81,1,63.7500024318696,2|0,2:2|1:1,0:0:0:0:
184,218,16364,2,0,L|246:224,1,63.7500024318696,10|0,2:2|0:0,0:0:0:0:
0,384,16712,6,0,P|49:340|125:370,1,127.500004863739,2|8,1:2|1:2,0:0:0:0:
207,321,17236,1,2,2:2:0:0:
203,352,17323,1,8,2:2:0:0:
200,384,17410,1,2,2:2:0:0:
84,250,17584,1,2,1:2:0:0:
319,361,17759,2,0,L|381:354,1,63.7500024318696,10|2,2:2|1:2,0:0:0:0:
512,250,18108,6,0,L|385:236,1,127.500004863739,2|8,1:2|2:2,0:0:0:0:
323,149,18631,1,2,2:2:0:0:
426,61,18805,2,0,L|419:123,1,63.7500024318696,2|2,2:2|1:2,0:0:0:0:
224,236,19154,2,0,L|230:173,1,63.7500024318696,10|2,2:2|2:2,0:0:0:0:
135,108,19503,6,0,L|8:121,1,127.500004863739,2|8,1:2|2:2,0:0:0:0:
8,121,20201,2,0,L|14:58,1,63.7500024318696,2|2,2:2|1:2,0:0:0:0:
141,44,20550,2,0,L|134:106,1,63.7500024318696,10|2,2:2|2:2,0:0:0:0:
0,272,20898,6,0,P|54:212|155:254,1,165.749992412568,4|0,1:2|0:0,0:0:0:0:
83,306,21247,1,0,0:0:0:0:
267,173,21422,5,2,0:0:0:0:
267,173,21509,1,2,0:0:0:0:
267,173,21596,2,0,B|261:120|261:120|259:118|259:118|253:64,1,110.499994941712,4|0,1:2|0:0,0:0:0:0:
432,317,21945,1,0,0:0:0:0:
252,279,22119,5,2,0:0:0:0:
252,279,22207,1,2,0:0:0:0:
252,279,22294,2,0,B|367:296|335:196|451:214,1,220.999989883423,4|0,1:2|0:0,0:0:0:0:
171,148,22817,2,0,L|108:154,2,55.2499974708558,2|2|2,0:0|0:0|2:2,0:0:0:0:
253,64,23166,5,0,1:1:0:0:
47,234,23515,1,0,0:0:0:0:
133,334,23689,6,0,L|228:322,1,76.4999976654053,4|2,1:2|2:2,0:0:0:0:
334,243,23951,1,2,2:2:0:0:
334,254,24038,2,0,L|322:349,1,76.4999976654053,8|2,2:2|2:2,0:0:0:0:
243,195,24387,1,2,2:2:0:0:
423,319,24561,1,2,1:2:0:0:
423,319,24648,1,2,2:2:0:0:
423,319,24736,1,8,2:2:0:0:
252,196,24910,1,2,2:2:0:0:
382,122,25084,6,0,L|477:133,1,76.4999976654053,2|0,1:2|0:0,0:0:0:0:
286,0,25433,2,0,L|297:95,1,76.4999976654053,8|2,2:2|2:2,0:0:0:0:
139,238,25695,1,2,2:2:0:0:
139,227,25782,2,0,L|150:131,1,76.4999976654053,2|2,2:2|1:2,0:0:0:0:
252,196,26131,1,10,2:2:0:0:
50,81,26305,1,2,2:2:0:0:
218,318,26480,6,0,L|313:306,1,76.4999976654053,2|2,1:2|2:2,0:0:0:0:
373,229,26741,1,2,2:2:0:0:
373,218,26829,2,0,L|384:122,1,76.4999976654053,8|2,2:2|2:2,0:0:0:0:
493,287,27177,2,0,L|481:382,1,76.4999976654053,2|2,2:2|1:2,0:0:0:0:
293,308,27526,1,10,2:2:0:0:
478,190,27701,1,2,2:2:0:0:
324,70,27875,6,0,L|228:81,1,76.4999976654053,2|2,1:2|2:2,0:0:0:0:
77,115,28224,2,0,P|63:81|68:38,1,76.4999976654053,8|2,2:2|2:2,0:0:0:0:
179,172,28486,1,2,2:2:0:0:
179,183,28573,6,0,L|173:231,1,46.7500014266968,0|0,1:1|0:0,0:0:0:0:
84,228,28747,2,0,L|78:276,1,46.7500014266968,2|0,1:2|0:0,0:0:0:0:
236,311,28922,1,10,2:2:0:0:
0,185,29096,1,2,2:2:0:0:
150,367,29270,5,2,1:2:0:0:
312,159,29445,2,0,L|301:255,1,76.4999976654053,2|10,2:2|2:2,0:0:0:0:
422,324,29794,1,2,2:2:0:0:
422,324,29881,1,2,0:0:0:0:
422,324,29968,2,0,P|428:288|413:247,1,76.4999976654053,2|2,0:0|1:2,0:0:0:0:
201,231,30317,2,0,L|105:242,1,76.4999976654053,10|2,2:2|2:2,0:0:0:0:
208,120,30666,5,2,1:2:0:0:
10,272,30840,1,2,2:2:0:0:
10,272,30927,1,2,2:2:0:0:
10,272,31015,2,0,B|0:236|0:236|18:195,1,76.4999976654053,10|2,2:2|2:2,0:0:0:0:
98,54,31364,2,0,L|109:150,1,76.4999976654053,0|0,0:0|1:1,0:0:0:0:
208,120,31712,1,10,2:2:0:0:
0,32,31887,1,2,2:2:0:0:
201,231,32061,6,0,B|238:204|285:222|285:222|308:254|347:253,1,152.999995330811,4|0,1:2|0:0,0:0:0:0:
480,175,32584,1,0,0:0:0:0:
480,175,32672,1,0,0:0:0:0:
480,175,32759,2,0,L|384:164,1,76.4999976654053,4|0,1:2|0:0,0:0:0:0:
328,26,33108,2,0,L|339:122,1,76.4999976654053,0|2,0:0|2:2,0:0:0:0:
471,305,33369,1,2,2:2:0:0:
465,294,33457,6,0,P|421:246|314:276,1,152.999995330811,4|0,1:2|0:0,0:0:0:0:
242,330,33980,1,0,0:0:0:0:
134,220,34154,1,2,2:2:0:0:
155,131,34329,1,0,1:1:0:0:
47,21,34503,1,8,2:3:0:0:
256,192,34677,5,0,0:0:0:0:
256,192,34852,6,0,P|318:208|395:148,1,152.999995330811,2|0,2:2|0:0,0:0:0:0:
472,120,35550,2,0,L|444:12,1,101.999996887207,8|2,2:1|2:2,0:0:0:0:
372,337,36247,2,0,P|422:375|480:365,1,101.999996887207,2|2,2:2|2:2,0:0:0:0:
506,258,36945,2,0,P|456:220|398:230,1,101.999996887207,8|2,2:1|2:2,0:0:0:0:
267,325,37643,6,0,P|188:353|98:281,1,203.999993774414,2|8,2:2|2:1,0:0:0:0:
99,285,38515,1,2,2:2:0:0:
15,209,38689,2,0,L|69:195,1,50.9999984436036,2|0,2:2|0:0,0:0:0:0:
152,125,39038,2,0,B|159:103|159:103|124:17,1,101.999996887207,2|2,2:2|2:2,0:0:0:0:
279,168,39736,1,8,2:1:0:0:
385,107,40084,1,2,2:2:0:0:
512,325,40433,6,0,L|361:285,1,152.999995330811,2|0,2:2|0:0,0:0:0:0:
385,107,41131,2,0,P|419:151|413:215,1,101.999996887207,8|2,2:1|2:2,0:0:0:0:
279,374,41829,2,0,P|245:330|251:266,1,101.999996887207,2|2,2:2|2:2,0:0:0:0:
123,240,42526,2,0,L|15:268,1,101.999996887207,8|2,2:1|2:2,0:0:0:0:
111,130,43224,5,2,2:2:0:0:
256,192,43311,12,8,45317,2:1:0:0:
69,341,46015,6,0,L|58:245,1,72.2500013780594,2|0,1:2|0:0,0:0:0:0:
161,149,46364,2,0,L|171:244,1,72.2500013780594,0|2,1:1|2:2,0:0:0:0:
266,277,46712,2,0,L|361:287,1,72.2500013780594,8|2,1:3|2:2,0:0:0:0:
313,187,47061,1,2,1:2:0:0:
412,361,47236,6,0,P|460:301|425:228,1,144.500002756119,2|0,2:2|0:0,0:0:0:0:
305,115,47759,2,0,L|315:210,1,72.2500013780594,0|2,1:1|2:2,0:0:0:0:
409,88,48108,1,8,1:3:0:0:
290,17,48282,1,2,2:2:0:0:
401,198,48457,2,0,L|496:188,1,72.2500013780594,2|2,1:2|2:2,0:0:0:0:
276,329,48805,6,0,P|249:291|134:314,1,144.500002756119,2|2,1:2|1:2,0:0:0:0:
63,103,49329,1,2,2:2:0:0:
1,214,49503,2,0,L|96:204,1,72.2500013780594,8|2,1:3|2:2,0:0:0:0:
63,103,49852,5,2,1:2:0:0:
156,19,50026,2,0,P|168:53|161:88,1,72.2500013780594,2|0,2:2|1:1,0:0:0:0:
250,133,50375,2,0,L|345:123,1,72.2500013780594,2|0,2:2|1:1,0:0:0:0:
405,71,50724,2,0,L|415:-24,1,72.2500013780594,2|8,2:2|1:3,0:0:0:0:
506,98,51073,2,0,L|496:193,1,72.2500013780594,2|0,2:2|1:1,0:0:0:0:
402,246,51422,1,2,2:2:0:0:
430,384,51596,5,2,1:2:0:0:
484,316,51770,1,2,2:2:0:0:
305,213,51945,2,0,L|315:308,1,76.4999976654053,2|2,1:2|2:2,0:0:0:0:
180,379,52294,2,0,L|190:284,1,76.4999976654053,8|0,1:3|0:0,0:0:0:0:
14,124,52643,1,2,1:2:0:0:
0,226,52817,6,0,B|72:261|72:189|144:225,1,152.999995330811,2|2,2:2|2:2,0:0:0:0:
90,132,53340,2,0,P|52:132|13:123,1,76.4999976654053,2|0,1:2|0:0,0:0:0:0:
90,320,53689,2,0,P|52:320|13:328,1,76.4999976654053,8|2,1:3|2:2,0:0:0:0:
296,254,54038,2,0,P|297:294|306:349,1,76.4999976654053,2|2,1:2|2:2,0:0:0:0:
194,216,54387,6,0,B|202:143|202:143|205:140|205:140|213:66,1,152.999995330811,2|2,1:2|1:2,0:0:0:0:
90,132,54910,1,2,2:2:0:0:
296,254,55084,2,0,P|330:264|372:245,1,76.4999976654053,8|2,1:3|2:2,0:0:0:0:
309,152,55433,1,2,1:2:0:0:
351,359,55608,1,2,2:2:0:0:
492,279,55782,5,0,1:1:0:0:
394,266,55957,1,0,1:1:0:0:
296,254,56131,1,0,1:1:0:0:
417,79,56305,5,0,1:1:0:0:
411,116,56392,1,0,3:3:0:0:
407,154,56479,1,0,1:1:0:0:
512,28,56654,1,2,1:2:0:0:
309,152,56829,1,10,2:2:0:0:
512,28,57003,1,2,2:2:0:0:
296,254,57177,6,0,B|265:231|226:246|226:246|207:273|175:272,1,133.874995914459,4|0,1:1|0:0,0:0:0:0:
155,265,57526,1,10,2:2:0:0:
55,185,57701,5,2,0:0:0:0:
19,214,57788,1,2,0:0:0:0:
0,257,57875,1,2,2:2:0:0:
5,303,57962,1,0,3:3:0:0:
32,342,58049,1,0,1:1:0:0:
228,211,58224,1,10,2:2:0:0:
21,32,58398,1,2,2:2:0:0:
155,265,58573,6,0,L|250:251,1,89.2499972763062,0|2,1:1|2:2,0:0:0:0:
481,154,58922,1,8,2:2:0:0:
349,384,59096,1,2,2:2:0:0:
349,384,59183,1,2,0:0:0:0:
349,384,59270,2,0,L|362:288,1,89.2499972763062,2|2,0:0|1:2,0:0:0:0:
215,366,59619,1,10,2:2:0:0:
500,277,59794,1,2,2:2:0:0:
357,119,59968,6,0,L|223:137,1,133.874995914459,2|0,1:2|0:0,0:0:0:0:
132,60,60317,2,0,P|173:33|227:46,1,89.2499972763062,10|2,2:2|0:0,0:0:0:0:
257,230,60578,1,2,0:0:0:0:
255,243,60666,2,0,L|241:338,1,89.2499972763062,2|0,2:2|1:1,0:0:0:0:
361,295,61015,1,10,2:2:0:0:
149,210,61189,6,0,L|54:224,1,89.2499972763062,2|0,2:2|1:1,0:0:0:0:
133,322,61538,1,2,1:2:0:0:
6,122,61712,1,8,2:2:0:0:
132,60,61887,5,2,2:2:0:0:
175,67,61974,1,2,2:2:0:0:
218,74,62061,1,2,2:2:0:0:
262,79,62148,1,2,2:2:0:0:
305,85,62235,1,2,1:2:0:0:
149,210,62410,6,0,L|163:306,1,55.2499974708558,10|0,2:2|0:0,0:0:0:0:
251,384,62584,2,0,L|265:288,1,55.2499974708558,2|0,2:2|0:0,0:0:0:0:
351,212,62759,6,0,B|443:198|417:278|511:264,1,178.499994552612,2|10,1:2|2:2,0:0:0:0:
268,13,63282,1,2,2:2:0:0:
268,13,63369,1,2,0:0:0:0:
268,13,63457,2,0,L|281:108,1,89.2499972763062,2|0,0:0|1:1,0:0:0:0:
166,0,63805,1,10,2:2:0:0:
393,98,63980,1,0,0:0:0:0:
193,255,64154,6,0,P|144:276|60:236,1,133.874995914459,2|0,1:2|0:0,0:0:0:0:
0,165,64503,2,0,L|95:151,1,55.2499974708558,10|0,2:2|0:0,0:0:0:0:
166,0,64677,5,2,2:2:0:0:
159,43,64764,1,2,0:0:0:0:
152,86,64851,1,2,0:0:0:0:
147,130,64938,1,2,2:2:0:0:
141,173,65025,1,0,1:1:0:0:
33,22,65201,1,10,2:2:0:0:
274,185,65375,1,0,0:0:0:0:
31,370,65550,6,0,P|82:285|221:319,1,229.500000875473,4|2,1:2|2:2,0:0:0:0:
466,204,66073,5,2,2:2:0:0:
466,204,66160,1,2,2:2:0:0:
466,204,66247,2,0,B|494:253|494:253|443:378,1,172.125000656605,4|0,1:2|0:0,0:0:0:0:
439,365,66596,1,2,2:2:0:0:
274,185,66770,5,2,2:2:0:0:
274,185,66858,1,2,2:2:0:0:
274,185,66945,2,0,B|237:102|319:106|282:22,1,172.125000656605,4|0,1:2|0:0,0:0:0:0:
195,60,67294,1,2,2:2:0:0:
366,163,67468,1,2,2:2:0:0:
257,286,67643,6,0,L|185:275,1,72.2500013780594,2|2,2:2|1:2,0:0:0:0:
19,197,67991,2,0,L|126:181,1,108.375002067089,10|2,2:2|0:0,0:0:0:0:
160,154,68340,6,0,P|170:111|148:73,1,89.2499972763062,4|0,1:1|0:0,0:0:0:0:
118,362,68689,2,0,P|156:383|198:373,1,89.2499972763062,10|2,2:2|0:0,0:0:0:0:
354,274,68951,1,2,0:0:0:0:
341,272,69038,2,0,L|252:258,1,89.2499972763062,2|0,2:2|1:1,0:0:0:0:
405,143,69387,1,10,2:2:0:0:
166,289,69561,1,2,2:2:0:0:
424,377,69736,1,0,1:1:0:0:
273,69,69910,6,0,L|289:176,1,89.2499972763062,2|8,2:2|2:2,0:0:0:0:
479,216,70259,1,2,2:2:0:0:
508,176,70346,1,2,0:0:0:0:
512,127,70433,1,2,0:0:0:0:
497,80,70520,1,2,2:2:0:0:
459,49,70607,1,2,1:2:0:0:
252,258,70782,1,8,2:2:0:0:
405,143,70957,1,2,2:2:0:0:
152,377,71131,6,0,L|168:270,1,89.2499972763062,0|2,1:1|2:2,0:0:0:0:
49,205,71480,1,8,2:2:0:0:
286,370,71654,1,2,2:2:0:0:
286,370,71741,1,2,0:0:0:0:
286,370,71829,2,0,L|393:354,1,89.2499972763062,2|2,0:0|1:2,0:0:0:0:
165,288,72177,1,8,2:2:0:0:
331,201,72352,1,2,2:2:0:0:
195,71,72526,6,0,L|211:178,1,89.2499972763062,0|2,1:1|1:2,0:0:0:0:
57,23,72875,1,8,2:2:0:0:
297,97,73050,5,2,2:2:0:0:
335,91,73137,1,2,0:0:0:0:
374,85,73224,1,2,0:0:0:0:
412,79,73311,1,2,2:2:0:0:
451,73,73398,1,2,1:2:0:0:
421,190,73573,1,10,2:2:0:0:
299,2,73747,1,2,2:2:0:0:
512,238,73922,6,0,P|475:182|362:215,1,178.499994552612,2|10,1:2|2:2,0:0:0:0:
318,335,74445,1,2,2:2:0:0:
318,335,74532,1,2,0:0:0:0:
318,335,74620,2,0,P|360:364|425:351,1,89.2499972763062,2|0,0:0|1:1,0:0:0:0:
147,251,74968,2,0,L|40:267,1,89.2499972763062,10|0,2:2|0:0,0:0:0:0:
258,165,75317,5,2,1:2:0:0:
208,338,75491,1,0,0:0:0:0:
110,72,75666,1,10,2:2:0:0:
329,269,75840,5,2,2:2:0:0:
374,261,75927,1,2,0:0:0:0:
420,254,76014,1,2,0:0:0:0:
465,247,76101,1,2,2:2:0:0:
512,240,76188,1,0,1:1:0:0:
416,39,76364,2,0,L|400:146,1,89.2499972763062,10|0,2:2|0:0,0:0:0:0:
512,384,76712,5,4,1:2:0:0:
329,269,77061,1,2,2:2:0:0:
506,126,77236,1,2,2:2:0:0:
372,370,77410,2,0,L|275:355,1,89.2499972763062,4|0,1:2|0:0,0:0:0:0:
104,238,77759,2,0,L|200:223,1,89.2499972763062,2|0,2:2|0:0,0:0:0:0:
276,121,78108,5,4,1:2:0:0:
205,0,78282,1,2,2:2:0:0:
363,117,78457,1,2,2:2:0:0:
192,224,78631,1,2,2:2:0:0:
282,362,78805,2,0,P|302:329|296:265,1,89.2499972763062,2|0,2:2|1:1,0:0:0:0:
84,105,79154,2,0,L|103:237,1,133.874995914459,8|0,2:3|0:0,0:0:0:0:
0,376,79503,6,0,P|19:339|114:338,1,118.999996368408,2|2,2:2|2:2,0:0:0:0:
192,224,80026,1,2,0:0:0:0:
192,224,80201,2,0,L|188:287,1,59.4999981842042,8|0,2:1|0:0,0:0:0:0:
288,377,80550,2,0,L|291:317,1,59.4999981842042,2|2,0:0|2:2,0:0:0:0:
381,293,80898,6,0,P|410:299|444:289,1,59.4999981842042,2|2,2:2|2:2,0:0:0:0:
505,218,81247,1,2,2:2:0:0:
425,154,81422,2,0,L|428:94,1,59.4999981842042,2|8,2:2|2:1,0:0:0:0:
308,17,81770,1,2,2:2:0:0:
308,17,81945,2,0,L|311:76,1,59.4999981842042,2|0,2:2|0:0,0:0:0:0:
214,131,82294,6,0,P|192:102|109:115,1,118.999996368408,2|0,2:2|0:0,0:0:0:0:
50,41,82817,1,2,0:0:0:0:
50,41,82991,2,0,P|21:63|34:146,1,118.999996368408,8|2,2:1|0:0,0:0:0:0:
100,202,83515,1,2,2:2:0:0:
29,255,83689,6,0,L|32:314,1,59.4999981842042,2|2,2:2|2:2,0:0:0:0:
181,204,84038,2,0,L|177:144,1,59.4999981842042,2|2,2:2|2:2,0:0:0:0:
262,259,84387,2,0,P|284:266|321:262,2,59.4999981842042,8|2|2,2:1|2:2|2:2,0:0:0:0:
292,44,85084,6,0,L|285:162,1,118.999996368408,2|0,2:2|0:0,0:0:0:0:
365,175,85608,1,2,0:0:0:0:
365,175,85782,2,0,L|424:171,1,59.4999981842042,8|0,2:1|0:0,0:0:0:0:
476,77,86131,2,0,L|416:80,1,59.4999981842042,2|2,0:0|2:2,0:0:0:0:
406,260,86480,6,0,P|468:290|524:266,1,118.999996368408,2|2,2:2|2:2,0:0:0:0:
269,332,87003,1,2,2:2:0:0:
347,384,87177,2,0,L|350:324,1,59.4999981842042,8|0,2:1|0:0,0:0:0:0:
169,211,87526,2,0,L|172:151,1,59.4999981842042,2|0,2:2|0:0,0:0:0:0:
276,229,87875,6,0,P|246:298|114:309,1,220.999989883423,4|0,1:2|0:0,0:0:0:0:
272,115,88398,5,2,0:0:0:0:
272,115,88486,1,2,0:0:0:0:
272,115,88573,2,0,B|387:97|355:198|471:180,1,220.999989883423,4|0,1:2|0:0,0:0:0:0:
148,47,89096,5,2,0:0:0:0:
148,47,89183,1,2,0:0:0:0:
148,47,89270,2,0,B|156:126|156:126|159:129|159:129|168:209,1,165.749992412568,4|0,1:2|0:0,0:0:0:0:
61,284,89619,2,0,B|44:231|44:231|72:174,1,110.499994941712,0|2,0:0|2:2,0:0:0:0:
206,326,89881,1,2,2:2:0:0:
198,334,89968,5,0,1:1:0:0:
350,239,90143,1,0,3:3:0:0:
512,270,90317,1,0,3:3:0:0:
360,365,90491,1,0,3:3:0:0:
227,203,90666,6,0,L|239:108,1,76.4999976654053,4|0,1:2|0:0,0:0:0:0:
117,28,91015,2,0,L|129:123,1,76.4999976654053,10|2,2:2|2:2,0:0:0:0:
330,156,91276,1,2,0:0:0:0:
338,148,91364,2,0,P|371:130|423:137,1,76.4999976654053,2|0,2:2|1:1,0:0:0:0:
350,239,91712,1,10,2:2:0:0:
288,41,91887,1,2,2:2:0:0:
501,108,92061,6,0,L|489:203,1,76.4999976654053,2|2,1:2|2:2,0:0:0:0:
350,239,92410,1,10,2:2:0:0:
493,360,92584,1,2,2:2:0:0:
493,360,92672,1,2,0:0:0:0:
493,360,92759,2,0,P|462:340|407:349,1,76.4999976654053,2|2,2:2|1:2,0:0:0:0:
254,384,93108,2,0,L|266:289,1,76.4999976654053,10|0,2:2|0:0,0:0:0:0:
115,153,93457,6,0,L|127:248,1,76.4999976654053,0|0,1:1|0:0,0:0:0:0:
29,302,93805,1,8,2:2:0:0:
214,191,93980,2,0,L|261:197,2,38.2499988327027,2|0|2,2:2|0:0|2:2,0:0:0:0:
48,57,94329,1,2,1:2:0:0:
204,291,94503,2,0,P|244:298|279:281,1,76.4999976654053,10|2,2:2|2:2,0:0:0:0:
356,199,94852,5,0,1:1:0:0:
344,104,95026,1,0,0:0:0:0:
332,9,95201,1,8,2:2:0:0:
468,176,95375,1,2,2:2:0:0:
468,176,95462,1,2,2:2:0:0:
468,176,95550,2,0,L|456:271,1,76.4999976654053,2|2,2:2|1:2,0:0:0:0:
356,199,95898,1,10,2:2:0:0:
472,63,96073,1,0,0:0:0:0:
472,376,96247,6,0,P|426:326|338:341,1,152.999995330811,0|10,1:1|2:2,0:0:0:0:
187,267,96770,1,2,2:2:0:0:
187,267,96858,1,2,2:2:0:0:
187,267,96945,2,0,L|282:255,1,76.4999976654053,2|0,2:2|1:1,0:0:0:0:
208,370,97294,1,10,2:2:0:0:
38,204,97468,1,2,2:2:0:0:
193,82,97643,6,0,L|181:177,1,76.4999976654053,2|2,1:2|2:2,0:0:0:0:
73,19,97991,1,10,2:2:0:0:
305,155,98166,1,2,2:2:0:0:
305,155,98253,1,2,0:0:0:0:
305,155,98340,2,0,L|380:145,1,76.4999976654053,2|2,2:2|1:2,0:0:0:0:
357,37,98689,1,10,2:2:0:0:
262,257,98864,1,0,0:0:0:0:
461,87,99038,6,0,P|493:123|450:212,1,152.999995330811,4|0,1:2|0:0,0:0:0:0:
401,368,99561,1,2,2:2:0:0:
401,368,99648,1,2,2:2:0:0:
401,368,99735,2,0,L|476:377,1,76.4999976654053,4|2,1:2|2:2,0:0:0:0:
334,249,100084,2,0,P|293:243|258:258,1,76.4999976654053,2|2,2:2|2:2,0:0:0:0:
124,367,100346,5,2,2:2:0:0:
132,360,100433,2,0,P|151:324|120:259,1,101.999996887207,4|0,1:2|0:0,0:0:0:0:
1,236,100695,2,0,P|-18:272|12:336,1,101.999996887207,0|0,1:1|0:0,0:0:0:0:
0,327,100957,6,0,L|95:315,1,50.9999984436036,2|0,1:2|0:0,0:0:0:0:
108,168,101131,5,2,2:2:0:0:
103,135,101218,1,2,0:0:0:0:
98,102,101305,1,2,1:2:0:0:
94,69,101392,1,2,0:0:0:0:
89,36,101479,1,8,2:3:0:0:
197,206,101654,5,0,0:0:0:0:
197,206,101829,6,0,P|259:190|336:250,1,152.999995330811,2|0,2:2|0:0,0:0:0:0:
413,278,102526,2,0,L|385:386,1,101.999996887207,8|2,2:1|2:2,0:0:0:0:
347,88,103224,2,0,P|384:55|442:63,1,101.999996887207,2|2,2:2|2:2,0:0:0:0:
296,229,103922,2,0,B|265:239|265:239|188:201,1,101.999996887207,8|2,2:1|2:2,0:0:0:0:
62,26,104619,6,0,L|105:192,1,152.999995330811,2|2,2:2|2:2,0:0:0:0:
100,174,105317,1,8,2:1:0:0:
0,243,105491,2,0,P|1:214|14:189,1,50.9999984436036,2|2,2:2|2:2,0:0:0:0:
195,104,106015,2,0,L|303:76,1,101.999996887207,2|2,2:2|2:2,0:0:0:0:
445,135,106712,1,8,2:1:0:0:
506,29,107060,1,2,2:2:0:0:
327,187,107410,6,0,P|311:267|360:316,1,152.999995330811,2|0,2:2|0:0,0:0:0:0:
379,332,108108,2,0,P|411:329|450:259,1,101.999996887207,8|2,2:1|2:2,0:0:0:0:
171,269,108805,2,0,L|63:297,1,101.999996887207,2|2,2:2|2:2,0:0:0:0:
279,171,109503,2,0,P|290:123|251:63,1,101.999996887207,8|2,2:1|2:2,0:0:0:0:
134,28,110201,5,2,2:2:0:0:
256,192,110288,12,8,112294,2:1:0:0:
454,359,112991,6,0,L|358:348,1,72.2500013780594,2|0,1:2|0:0,0:0:0:0:
299,267,113340,2,0,L|395:256,1,72.2500013780594,0|2,1:1|2:2,0:0:0:0:
437,196,113689,2,0,P|446:161|428:124,1,72.2500013780594,8|2,1:3|2:2,0:0:0:0:
240,76,114038,1,2,1:2:0:0:
353,2,114212,2,0,L|336:145,1,144.500002756119,2|0,2:2|0:0,0:0:0:0:
244,181,114736,2,0,L|172:189,1,72.2500013780594,0|2,1:1|2:2,0:0:0:0:
0,38,115084,2,0,L|71:29,1,72.2500013780594,8|2,1:3|2:2,0:0:0:0:
25,178,115433,1,2,1:2:0:0:
132,106,115608,1,2,2:2:0:0:
223,273,115782,6,0,L|213:351,1,72.2500013780594,2|0,1:2|0:0,0:0:0:0:
323,311,116131,1,2,1:2:0:0:
117,358,116305,1,2,2:2:0:0:
323,311,116480,2,0,L|395:319,1,72.2500013780594,8|2,1:3|2:2,0:0:0:0:
288,143,116829,1,2,1:2:0:0:
453,202,117003,6,0,L|377:210,1,72.2500013780594,2|0,2:2|1:1,0:0:0:0:
383,20,117352,2,0,L|374:95,1,72.2500013780594,2|0,2:2|1:1,0:0:0:0:
176,237,117701,2,0,L|184:161,1,72.2500013780594,2|8,2:2|1:3,0:0:0:0:
83,102,118050,2,0,L|7:110,1,72.2500013780594,2|0,2:2|1:1,0:0:0:0:
265,266,118398,1,0,0:0:0:0:
147,351,118573,5,2,1:2:0:0:
176,237,118747,1,2,2:2:0:0:
307,352,118922,2,0,P|343:364|382:343,1,76.4999976654053,2|2,1:2|2:2,0:0:0:0:
176,237,119270,2,0,L|100:245,1,76.4999976654053,8|0,1:3|0:0,0:0:0:0:
382,169,119619,1,2,1:2:0:0:
306,67,119794,6,0,B|298:140|298:140|295:143|295:143|287:217,1,152.999995330811,2|2,2:2|2:2,0:0:0:0:
401,341,120317,2,0,P|407:305|392:265,1,76.4999976654053,2|0,1:2|0:0,0:0:0:0:
176,237,120666,2,0,L|100:245,1,76.4999976654053,8|2,1:3|2:2,0:0:0:0:
0,179,121015,1,2,1:2:0:0:
165,70,121189,1,2,2:2:0:0:
56,0,121364,6,0,P|61:36|64:75,1,76.4999976654053,2|0,1:2|0:0,0:0:0:0:
277,261,121712,2,0,P|280:222|285:185,1,76.4999976654053,2|2,1:2|2:2,0:0:0:0:
427,154,122061,2,0,P|463:159|502:162,1,76.4999976654053,8|2,1:3|2:2,0:0:0:0:
285,185,122410,1,2,1:2:0:0:
433,368,122584,1,2,2:2:0:0:
352,102,122759,5,0,1:1:0:0:
395,13,122934,1,0,1:1:0:0:
492,0,123108,1,0,1:1:0:0:
285,185,123282,5,0,1:1:0:0:
248,179,123369,1,0,3:3:0:0:
210,175,123456,1,0,1:1:0:0:
264,73,123631,1,2,1:2:0:0:
211,282,123805,1,10,2:2:0:0:
264,73,123980,1,2,2:2:0:0:
60,332,124154,6,0,B|34:362|-5:359|-28:336|-28:336|6:338|28:316,1,133.874995914459,4|0,1:1|0:0,0:0:0:0:
134,384,124503,1,10,2:2:0:0:
46,246,124677,1,2,0:0:0:0:
17,206,124764,1,2,0:0:0:0:
13,157,124851,1,2,2:2:0:0:
28,110,124938,1,0,3:3:0:0:
66,79,125025,1,0,1:1:0:0:
203,270,125201,1,10,2:2:0:0:
0,384,125375,1,2,2:2:0:0:
120,168,125550,5,0,1:1:0:0:
304,353,125724,2,0,L|399:339,1,89.2499972763062,2|8,2:2|2:2,0:0:0:0:
365,170,126073,1,2,2:2:0:0:
365,170,126160,1,2,0:0:0:0:
365,170,126247,2,0,L|351:265,1,89.2499972763062,2|2,0:0|1:2,0:0:0:0:
203,270,126596,1,10,2:2:0:0:
503,157,126770,1,2,2:2:0:0:
301,63,126945,6,0,B|237:70|237:70|234:72|234:72|169:79,1,133.874995914459,2|0,1:2|0:0,0:0:0:0:
131,94,127294,2,0,P|107:61|117:-1,1,89.2499972763062,10|2,2:2|0:0,0:0:0:0:
218,168,127555,1,2,0:0:0:0:
216,181,127643,2,0,L|202:276,1,89.2499972763062,2|0,2:2|1:1,0:0:0:0:
65,258,127991,1,10,2:2:0:0:
174,378,128166,2,0,L|269:364,1,89.2499972763062,2|0,2:2|1:1,0:0:0:0:
326,74,128515,5,2,1:2:0:0:
413,257,128689,1,8,2:2:0:0:
496,207,128864,1,2,2:2:0:0:
468,172,128951,1,2,2:2:0:0:
428,154,129038,1,2,2:2:0:0:
384,158,129125,1,2,2:2:0:0:
347,183,129212,1,2,1:2:0:0:
300,291,129387,6,0,L|314:387,1,55.2499974708558,10|0,2:2|0:0,0:0:0:0:
171,102,129561,2,0,L|185:6,1,55.2499974708558,2|0,2:2|0:0,0:0:0:0:
23,198,129736,6,0,B|109:161|104:245|192:207,1,178.499994552612,2|10,1:2|2:2,0:0:0:0:
185,14,130259,1,2,2:2:0:0:
185,14,130346,1,2,0:0:0:0:
185,14,130433,2,0,L|171:109,1,89.2499972763062,2|0,0:0|1:1,0:0:0:0:
46,33,130782,1,10,2:2:0:0:
302,125,130957,1,0,0:0:0:0:
154,372,131131,6,0,P|89:385|36:340,1,133.874995914459,2|0,1:2|0:0,0:0:0:0:
245,282,131480,2,0,L|340:296,1,55.2499974708558,10|0,2:2|0:0,0:0:0:0:
177,171,131654,5,2,2:2:0:0:
134,178,131741,1,2,0:0:0:0:
91,185,131828,1,2,0:0:0:0:
47,190,131915,1,2,2:2:0:0:
4,196,132002,1,0,1:1:0:0:
174,74,132177,1,10,2:2:0:0:
127,284,132352,1,0,0:0:0:0:
77,93,132526,6,0,P|105:1|227:11,1,229.500000875473,4|2,1:2|2:2,0:0:0:0:
342,275,133050,5,2,2:2:0:0:
342,275,133137,1,2,2:2:0:0:
342,275,133224,2,0,P|370:367|492:357,1,229.500000875473,4|2,1:2|2:2,0:0:0:0:
207,201,133747,5,2,2:2:0:0:
207,201,133835,1,2,2:2:0:0:
207,201,133922,2,0,B|87:182|120:287|0:268,1,229.500000875473,4|2,1:2|2:2,0:0:0:0:
32,158,134445,1,2,2:2:0:0:
210,305,134619,6,0,L|199:377,1,72.2500013780594,2|2,2:2|1:2,0:0:0:0:
338,142,134967,2,0,P|373:115|445:126,1,108.375002067089,10|2,2:2|0:0,0:0:0:0:
463,131,135317,6,0,P|471:80|449:42,1,89.2499972763062,4|0,1:1|0:0,0:0:0:0:
386,238,135666,2,0,P|424:263|474:251,1,89.2499972763062,10|2,2:2|0:0,0:0:0:0:
338,142,135927,1,2,0:0:0:0:
325,138,136015,2,0,L|218:154,1,89.2499972763062,2|0,2:2|1:1,0:0:0:0:
0,53,136364,1,10,2:2:0:0:
182,238,136538,1,2,2:2:0:0:
0,352,136712,6,0,P|-8:304|13:263,1,89.2499972763062,0|2,1:1|2:2,0:0:0:0:
218,349,137061,5,8,2:2:0:0:
251,354,137148,1,0,0:0:0:0:
284,359,137235,1,2,2:2:0:0:
317,363,137322,1,2,0:0:0:0:
350,368,137409,1,2,0:0:0:0:
182,238,137584,1,2,1:2:0:0:
99,384,137759,1,8,2:2:0:0:
362,230,137933,1,2,2:2:0:0:
109,24,138108,6,0,L|125:131,1,89.2499972763062,0|2,1:1|2:2,0:0:0:0:
269,31,138457,1,8,2:2:0:0:
88,292,138631,1,2,2:2:0:0:
88,292,138718,1,2,0:0:0:0:
88,292,138805,2,0,L|-19:276,1,89.2499972763062,2|2,0:0|1:2,0:0:0:0:
197,189,139154,1,8,2:2:0:0:
284,359,139329,1,2,2:2:0:0:
443,262,139503,6,0,P|458:218|429:173,1,89.2499972763062,0|2,1:1|1:2,0:0:0:0:
202,7,139852,1,8,2:2:0:0:
357,79,140026,5,2,2:2:0:0:
390,74,140113,1,2,0:0:0:0:
423,69,140200,1,2,0:0:0:0:
456,65,140287,1,2,2:2:0:0:
489,60,140374,1,2,1:2:0:0:
285,202,140550,2,0,L|178:186,1,89.2499972763062,10|2,2:2|2:2,0:0:0:0:
0,125,140898,6,0,P|43:75|134:104,1,133.874995914459,2|0,1:2|0:0,0:0:0:0:
202,7,141247,1,10,2:2:0:0:
78,242,141422,1,2,2:2:0:0:
78,242,141509,1,2,0:0:0:0:
78,242,141596,2,0,L|94:349,1,89.2499972763062,2|0,0:0|1:1,0:0:0:0:
235,236,141945,1,10,2:2:0:0:
0,125,142119,1,0,0:0:0:0:
313,325,142294,6,0,B|353:295|405:315|405:315|431:350|474:349,1,178.499994552612,2|10,1:2|2:2,0:0:0:0:
284,229,142817,1,2,2:2:0:0:
235,236,142904,1,2,0:0:0:0:
199,270,142991,1,2,0:0:0:0:
189,318,143078,1,2,2:2:0:0:
209,364,143165,1,0,1:1:0:0:
375,189,143340,2,0,L|359:82,1,89.2499972763062,10|0,2:2|0:0,0:0:0:0:
487,227,143689,5,4,1:2:0:0:
6,365,144038,1,2,2:2:0:0:
152,156,144212,1,2,2:2:0:0:
0,244,144387,2,0,L|97:259,1,89.2499972763062,4|0,1:2|0:0,0:0:0:0:
264,69,144736,2,0,L|167:54,1,89.2499972763062,2|0,2:2|0:0,0:0:0:0:
313,325,145084,5,4,1:2:0:0:
487,227,145259,1,2,2:2:0:0:
361,100,145433,1,2,2:2:0:0:
391,232,145608,1,2,2:2:0:0:
190,377,145782,6,0,L|205:280,1,89.2499972763062,2|0,2:2|1:1,0:0:0:0:
34,23,146131,2,0,L|55:160,1,133.874995914459,8|0,2:3|0:0,0:0:0:0:
54,155,146480,5,2,2:2:0:0:
150,198,146654,1,2,2:2:0:0:
82,266,146829,1,2,2:2:0:0:
0,297,147004,1,2,2:2:0:0:
68,365,147178,1,8,0:3:0:0:
0,297,147526,5,2,2:2:0:0:
82,266,147701,1,2,2:2:0:0:
0,202,147875,5,2,2:2:0:0:
154,322,148050,1,2,2:2:0:0:
236,291,148224,1,2,2:2:0:0:
318,260,148398,1,2,2:2:0:0:
477,384,148573,1,8,0:3:0:0:
477,384,149096,1,2,2:2:0:0:
416,250,149270,5,2,2:2:0:0:
375,170,149445,1,2,2:2:0:0:
402,85,149619,1,2,2:2:0:0:
469,164,149794,1,2,2:2:0:0:
318,260,149968,1,8,2:3:0:0:
318,260,150317,5,2,2:2:0:0:
416,250,150491,1,2,2:2:0:0:
469,164,150666,1,2,2:2:0:0:
273,160,150840,5,2,2:2:0:0:
185,173,151015,1,2,2:2:0:0:
97,186,151189,1,2,2:2:0:0:
235,28,151364,1,8,2:3:0:0:
115,0,151712,5,2,2:2:0:0:
74,75,151887,1,2,2:2:0:0:
1,143,152061,5,2,2:2:0:0:
97,186,152235,1,2,2:2:0:0:
162,263,152410,1,2,2:2:0:0:
66,306,152584,1,2,2:2:0:0:
136,372,152759,1,8,0:3:0:0:
66,306,153108,5,2,2:2:0:0:
162,263,153282,1,2,2:2:0:0:
97,186,153457,5,2,2:2:0:0:
245,323,153631,1,2,2:2:0:0:
276,241,153805,1,2,2:2:0:0:
307,159,153979,1,2,2:2:0:0:
462,60,154154,1,8,0:3:0:0:
462,60,154677,1,2,2:2:0:0:
509,165,154852,5,2,2:2:0:0:
436,216,155026,1,2,2:2:0:0:
346,80,155201,5,2,2:2:0:0:
419,131,155375,1,2,2:2:0:0:
483,308,155550,5,8,2:3:0:0:
470,316,155724,1,2,2:2:0:0:
478,329,155898,1,2,2:2:0:0:
491,321,156073,1,2,2:2:0:0:
309,267,156247,5,0,3:3:0:0:
276,362,156422,1,0,3:3:0:0:
388,319,156596,1,0,0:0:0:0:
244,187,156770,1,0,3:3:0:0:
159,269,156945,5,0,0:0:0:0:
388,319,157119,1,0,3:3:0:0:
438,90,157294,1,2,1:2:0:0:
216,37,157468,1,2,1:2:0:0:
244,187,157643,6,0,L|339:177,1,72.2500013780594,4|0,1:2|0:0,0:0:0:0:
337,8,157991,2,0,L|329:79,1,72.2500013780594,2|0,1:2|0:0,0:0:0:0:
430,161,158340,2,0,L|437:89,1,72.2500013780594,8|2,1:3|2:2,0:0:0:0:
315,179,158689,1,2,1:2:0:0:
434,277,158864,1,2,2:2:0:0:
336,359,159038,6,0,P|306:345|264:351,1,72.2500013780594,2|2,1:2|2:2,0:0:0:0:
180,257,159387,2,0,P|215:261|247:247,1,72.2500013780594,2|2,1:2|2:2,0:0:0:0:
315,179,159736,2,0,L|307:107,1,72.2500013780594,8|2,1:3|2:2,0:0:0:0:
184,27,160084,2,0,L|176:98,1,72.2500013780594,2|2,1:2|2:2,0:0:0:0:
5,158,160433,5,2,1:2:0:0:
101,218,160608,1,2,2:2:0:0:
71,311,160782,2,0,L|0:303,1,72.2500013780594,2|2,1:2|2:2,0:0:0:0:
214,211,161131,5,8,1:3:0:0:
164,370,161306,1,0,0:0:0:0:
286,220,161480,2,0,L|215:212,1,72.2500013780594,2|2,1:2|2:2,0:0:0:0:
128,119,161829,6,0,P|135:66|115:8,1,108.375002067089,2|0,1:2|0:0,0:0:0:0:
46,77,162177,1,2,1:2:0:0:
210,13,162352,1,0,0:0:0:0:
101,218,162526,2,0,L|30:210,1,72.2500013780594,8|0,1:3|0:0,0:0:0:0:
193,376,162875,2,0,L|185:305,1,72.2500013780594,2|0,1:2|0:0,0:0:0:0:
318,100,163224,6,0,L|298:277,1,152.999995330811,2|0,1:2|1:1,0:0:0:0:
370,329,163747,2,0,P|404:313|448:320,1,76.4999976654053,2|8,3:2|1:3,0:0:0:0:
181,255,164096,2,0,P|146:311|194:376,1,152.999995330811,2|2,3:2|3:2,0:0:0:0:
300,252,164619,5,2,1:2:0:0:
104,152,164794,1,2,3:2:0:0:
241,91,164968,2,0,L|337:102,1,76.4999976654053,2|2,1:2|3:2,0:0:0:0:
467,97,165317,2,0,P|488:66|478:1,1,76.4999976654053,8|0,1:3|3:3,0:0:0:0:
388,180,165666,2,0,L|399:276,1,76.4999976654053,2|0,1:2|3:3,0:0:0:0:
116,362,166016,5,2,1:2:0:0:
108,360,166103,1,0,1:0:0:0:
101,359,166190,1,0,1:1:0:0:
93,358,166277,1,0,1:0:0:0:
86,358,166365,1,2,1:2:0:0:
78,357,166451,1,0,1:0:0:0:
71,356,166538,1,2,1:2:0:0:
63,355,166625,1,0,1:0:0:0:
56,354,166712,5,8,1:3:0:0:
87,348,166800,1,0,1:0:0:0:
119,345,166887,1,2,1:2:0:0:
150,341,166974,1,0,1:0:0:0:
182,338,167061,1,2,1:2:0:0:
213,334,167148,1,0,1:0:0:0:
245,331,167236,1,0,1:1:0:0:
276,327,167323,1,0,1:0:0:0:
308,324,167410,5,2,1:2:0:0:
298,321,167497,5,0,1:1:0:0:
284,317,167584,5,2,1:2:0:0:
266,308,167672,5,0,1:1:0:0:
247,293,167759,5,0,1:1:0:0:
227,266,167846,5,0,1:1:0:0:
220,229,167933,5,2,1:2:0:0:
230,188,168020,5,0,1:1:0:0:
260,152,168108,5,8,1:3:0:0:
307,133,168195,5,0,1:1:0:0:
361,144,168282,5,0,1:1:0:0:
403,186,168369,5,0,1:1:0:0:
405,251,168457,6,0,L|397:314,1,55.2499974708558,10|0,2:2|1:1,0:0:0:0:
260,152,168631,2,0,L|268:89,1,55.2499974708558,0|0,1:1|1:1,0:0:0:0:
126,214,168805,2,0,L|-1:230,1,127.500004863739,2|2,2:2|2:2,0:0:0:0:
0,229,170201,6,0,P|32:270|16:356,1,127.500004863739,2|2,2:2|2:2,0:0:0:0:
169,138,170898,2,0,B|161:83|161:83|155:75|155:75|150:15|150:15|140:53|112:73,1,191.250007295609,0|0,1:1|0:0,0:0:0:0:
330,223,171596,6,0,B|374:190|431:212|431:212|459:250|507:249,1,195.500003728867,4|10,1:1|2:2,0:0:0:0:
363,358,172119,1,2,2:2:0:0:
363,358,172206,1,2,2:2:0:0:
363,358,172294,2,0,L|266:343,1,97.7500018644333,2|2,2:2|1:2,0:0:0:0:
169,138,172643,2,0,P|195:177|182:225,1,97.7500018644333,10|0,2:2|0:0,0:0:0:0:
73,74,172991,5,2,1:2:0:0:
286,241,173166,1,0,1:1:0:0:
73,365,173340,2,0,B|49:347|49:347|40:310|40:310|59:277,1,97.7500018644333,10|2,2:2|2:2,0:0:0:0:
286,241,173602,1,2,2:2:0:0:
295,244,173689,2,0,L|391:258,1,97.7500018644333,2|2,2:2|1:2,0:0:0:0:
379,144,174038,1,10,2:2:0:0:
266,343,174212,1,2,2:2:0:0:
484,292,174387,6,0,B|495:241|495:241|470:196,1,97.7500018644333,2|0,1:2|0:0,0:0:0:0:
289,39,174736,2,0,B|301:89|301:89|278:133,1,97.7500018644333,10|2,2:2|2:2,0:0:0:0:
105,176,174997,1,2,2:2:0:0:
96,179,175084,2,0,L|0:193,1,97.7500018644333,2|2,2:2|1:2,0:0:0:0:
73,74,175433,1,10,2:2:0:0:
183,223,175608,1,0,0:0:0:0:
0,347,175782,6,0,B|18:323|18:323|55:314|55:314|88:333,1,97.7500018644333,2|0,1:2|0:0,0:0:0:0:
303,301,176131,2,0,B|327:283|327:283|336:246|336:246|317:213,1,97.7500018644333,10|2,2:2|2:2,0:0:0:0:
183,223,176393,1,2,2:2:0:0:
186,232,176480,2,0,L|200:328,1,97.7500018644333,2|2,2:2|1:2,0:0:0:0:
321,220,176829,1,10,2:2:0:0:
128,96,177003,1,0,0:0:0:0:
377,366,177177,6,0,B|438:328|438:328|446:251|446:251|406:181,1,229.500000875473,4|0,1:2|0:0,0:0:0:0:
239,11,177701,5,2,0:0:0:0:
239,11,177788,1,2,0:0:0:0:
239,11,177875,2,0,L|274:249,1,229.500000875473,4|0,1:2|0:0,0:0:0:0:
172,255,178398,5,2,0:0:0:0:
172,255,178486,1,2,0:0:0:0:
172,255,178573,2,0,B|103:247|103:247|57:262|57:262|4:255,1,172.125000656605,4|0,1:2|0:0,0:0:0:0:
47,176,178922,1,0,0:0:0:0:
136,336,179096,1,2,0:0:0:0:
273,238,179271,6,0,L|262:166,1,72.2500013780594,2|2,0:0|1:2,0:0:0:0:
377,55,179619,2,0,L|366:126,1,72.2500013780594,10|2,2:2|2:2,0:0:0:0:
400,233,179968,6,0,P|430:262|507:249,1,97.7500018644333,4|0,1:1|0:0,0:0:0:0:
262,166,180317,2,0,L|155:182,1,97.7500018644333,10|2,2:2|0:0,0:0:0:0:
382,15,180579,1,2,0:0:0:0:
380,29,180666,2,0,L|364:136,1,97.7500018644333,2|0,2:2|1:1,0:0:0:0:
256,0,181015,1,10,2:2:0:0:
474,152,181189,1,2,2:2:0:0:
298,311,181364,6,0,L|191:295,1,97.7500018644333,0|2,1:1|2:2,0:0:0:0:
29,272,181712,2,0,P|-3:315|13:379,1,97.7500018644333,8|2,2:2|2:2,0:0:0:0:
128,205,181974,1,2,0:0:0:0:
126,191,182061,2,0,L|110:84,1,97.7500018644333,2|2,0:0|1:2,0:0:0:0:
11,165,182410,1,8,2:2:0:0:
286,212,182584,5,2,2:2:0:0:
286,212,182672,1,2,2:2:0:0:
286,212,182759,2,0,B|398:197|398:197|442:224|421:272,1,195.500003728867,0|8,1:1|2:2,0:0:0:0:
306,95,183282,1,2,2:2:0:0:
313,46,183369,1,2,2:2:0:0:
347,10,183456,1,2,2:2:0:0:
395,0,183543,1,2,2:2:0:0:
441,20,183630,1,2,1:2:0:0:
298,311,183805,2,0,L|191:295,1,97.7500018644333,8|2,2:2|2:2,0:0:0:0:
166,109,184154,5,0,1:1:0:0:
1,229,184329,2,0,L|108:213,1,97.7500018644333,2|8,1:2|2:2,0:0:0:0:
236,153,184677,1,2,2:2:0:0:
256,107,184764,1,2,2:2:0:0:
246,59,184851,1,2,2:2:0:0:
210,25,184938,1,2,2:2:0:0:
161,18,185025,1,2,1:2:0:0:
54,335,185201,1,10,2:2:0:0:
166,109,185375,1,2,2:2:0:0:
351,223,185550,6,0,B|420:215|420:215|424:213|424:213|495:205,1,146.62500279665,2|0,1:2|0:0,0:0:0:0:
512,107,185898,2,0,P|461:104|405:91,1,97.7500018644333,10|2,2:2|2:2,0:0:0:0:
401,380,186160,1,2,2:2:0:0:
414,384,186247,2,0,P|445:349|430:277,1,97.7500018644333,2|0,2:2|1:1,0:0:0:0:
236,80,186596,2,0,L|258:228,1,146.62500279665,10|0,2:2|0:0,0:0:0:0:
273,245,186945,5,2,1:2:0:0:
324,0,187119,1,0,0:0:0:0:
135,140,187294,1,10,2:2:0:0:
507,306,187468,5,2,2:2:0:0:
507,306,187555,1,2,2:2:0:0:
507,306,187643,2,0,B|463:273|405:295|405:295|377:333|330:332,1,195.500003728867,2|10,2:2|2:2,0:0:0:0:
135,140,188166,1,0,0:0:0:0:
211,384,188340,6,0,L|224:295,1,89.2499972763062,4|0,1:2|0:0,0:0:0:0:
14,156,188689,1,2,2:2:0:0:
148,51,188864,2,0,L|134:139,1,89.2499972763062,2|4,2:2|1:2,0:0:0:0:
33,0,189212,1,0,0:0:0:0:
243,115,189387,2,0,L|331:101,1,89.2499972763062,2|2,2:2|2:2,0:0:0:0:
134,139,189736,5,4,1:2:0:0:
225,258,189910,2,0,L|211:346,1,89.2499972763062,2|2,2:2|2:2,0:0:0:0:
105,298,190259,1,2,2:2:0:0:
309,367,190433,1,2,2:2:0:0:
410,350,190608,1,0,1:1:0:0:
512,384,190782,1,10,2:2:0:0:
336,197,191131,5,2,2:2:0:0:
457,139,191305,2,0,L|469:63,1,76.4999976654053,2|2,2:2|2:2,0:0:0:0:
