osu file format v14

[General]
AudioFilename: audio.mp3
AudioLeadIn: 0
PreviewTime: 123631
Countdown: 0
SampleSet: Soft
StackLeniency: 0.5
Mode: 0
LetterboxInBreaks: 0
WidescreenStoryboard: 0

[Editor]
Bookmarks: 1364,79503,87875,191131
DistanceSpacing: 0.8
BeatDivisor: 4
GridSize: 16
TimelineZoom: 2

[Metadata]
Title:Social Path (feat. LiSA)
TitleUnicode:Social Path (feat. LiSA)
Artist:Stray Kids
ArtistUnicode:스트레이 키즈
Creator:LeomineXD
Version:Hard
Source:
Tags:nevir nevlr freezinganimenz amats seuteulei kijeu japanese ver version pop jpop j-pop jp english featuring SKZ JYPE JYP entertainment 방찬 Bang Chan Bahng 리노 Lee Know 창빈 Changbin 현진 Hyunjin Hyun Jin 한 Han 필릭스 Felix 승민 Seungmin Seung Min 아이엔 I.N
BeatmapID:4343025
BeatmapSetID:2074782

[Difficulty]
HPDrainRate:4
CircleSize:3.6
OverallDifficulty:5
ApproachRate:7.5
SliderMultiplier:1.2
SliderTickRate:1

[Events]
//Background and Video events
0,0,"101805095_p0.png",0,0
//Break Periods
2,80051,87050
2,169005,170771
//Storyboard Layer 0 (Background)
//Storyboard Layer 1 (Fail)
//Storyboard Layer 2 (Pass)
//Storyboard Layer 3 (Foreground)
//Storyboard Layer 4 (Overlay)
//Storyboard Sound Samples

[TimingPoints]
1364,348.837209302326,4,2,1,40,1,0
6945,-100,4,2,1,50,0,0
9736,-166.666666666667,4,2,1,78,0,0
11829,-166.666666666667,4,2,1,60,0,0
12526,-125,4,2,1,70,0,0
23689,-125,4,2,1,75,0,0
34852,-153.846153846153,4,2,1,50,0,0
46015,-133.333333333333,4,2,1,65,0,0
55782,-125,4,2,1,70,0,0
57177,-90.9090909090909,4,2,1,85,0,1
58137,-90.9090909090909,4,2,1,5,0,1
58224,-90.9090909090909,4,2,1,85,0,1
60927,-90.9090909090909,4,2,1,5,0,1
61014,-90.9090909090909,4,2,1,85,0,1
67991,-90.9090909090909,4,2,1,85,0,0
68340,-90.9090909090909,4,2,1,85,0,1
69300,-90.9090909090909,4,2,1,5,0,1
69387,-90.9090909090909,4,2,1,85,0,1
75230,-90.9090909090909,4,2,1,5,0,1
75317,-90.9090909090909,4,2,1,85,0,1
79416,-90.9090909090909,4,2,1,5,0,1
79503,-142.857142857143,4,2,1,55,0,0
87875,-142.857142857143,4,2,1,70,0,0
90666,-125,4,2,1,75,0,0
101829,-153.846153846153,4,2,1,50,0,0
112991,-133.333333333333,4,2,1,65,0,0
122759,-125,4,2,1,70,0,0
124154,-90.9090909090909,4,2,1,85,0,1
125114,-90.9090909090909,4,2,1,5,0,1
125201,-90.9090909090909,4,2,1,85,0,1
127904,-90.9090909090909,4,2,1,5,0,1
127991,-90.9090909090909,4,2,1,85,0,1
134968,-90.9090909090909,4,2,1,85,0,0
135317,-90.9090909090909,4,2,1,85,0,1
136276,-90.9090909090909,4,2,1,5,0,1
136363,-90.9090909090909,4,2,1,85,0,1
142207,-90.9090909090909,4,2,1,5,0,1
142294,-90.9090909090909,4,2,1,85,0,1
146393,-90.9090909090909,4,2,1,5,0,1
146480,-153.846153846153,4,2,1,45,0,0
147177,-153.846153846153,4,2,2,45,0,0
147265,-153.846153846153,4,2,1,45,0,0
148573,-153.846153846153,4,2,2,45,0,0
148660,-153.846153846153,4,2,1,45,0,0
149968,-153.846153846153,4,2,2,45,0,0
150055,-153.846153846153,4,2,1,45,0,0
151364,-153.846153846153,4,2,2,45,0,0
151451,-153.846153846153,4,2,1,45,0,0
152759,-153.846153846153,4,2,2,45,0,0
152846,-153.846153846153,4,2,1,45,0,0
154154,-153.846153846153,4,2,2,45,0,0
154241,-153.846153846153,4,2,1,45,0,0
155550,-153.846153846153,4,2,2,45,0,0
155637,-153.846153846153,4,2,1,45,0,0
156247,-153.846153846153,4,2,1,60,0,0
157643,-133.333333333333,4,2,1,65,0,0
163224,-133.333333333333,4,2,1,67,0,0
166015,-117.647058823529,4,2,1,70,0,0
168805,-181.818181818181,4,2,1,45,0,0
171596,-90.9090909090909,4,2,1,85,0,1
177177,-100,4,2,1,85,0,0
179968,-90.9090909090909,4,2,1,85,0,1
180927,-90.9090909090909,4,2,1,5,0,1
181014,-90.9090909090909,4,2,1,85,0,1
186858,-90.9090909090909,4,2,1,5,0,1
186945,-90.9090909090909,4,2,1,85,0,1
188340,-117.647058823529,4,2,1,75,0,0
191044,-117.647058823529,4,2,1,5,0,0
191131,-117.647058823529,4,2,1,60,0,0

[Colours]
Combo1 : 255,128,43
Combo2 : 0,117,234
Combo3 : 169,66,253
Combo4 : 234,0,47

[HitObjects]
256,192,6945,12,8,9387,2:1:0:0:
109,276,9736,5,4,1:2:0:0:
400,107,10433,1,4,1:2:0:0:
170,45,11131,1,4,1:2:0:0:
338,337,11829,2,0,L|330:372,2,35.9999989013672,2|2|2,2:2|2:2|2:2,0:0:0:0:
403,276,12352,1,2,2:2:0:0:
403,276,12526,6,0,L|393:228,1,48,4|0,1:2|0:0,0:0:0:0:
427,152,12875,2,0,L|386:125,1,48,10|0,2:2|0:0,0:0:0:0:
341,55,13224,2,0,L|293:64,1,48,2|0,2:2|1:1,0:0:0:0:
220,24,13573,2,0,L|193:64,1,48,10|0,2:2|0:0,0:0:0:0:
116,103,13922,2,0,L|135:197,1,96,2|8,1:2|2:2,0:0:0:0:
188,266,14445,1,2,2:2:0:0:
188,266,14619,2,0,P|187:289|177:311,1,48,2|2,2:2|1:2,0:0:0:0:
102,353,14968,1,10,2:2:0:0:
53,276,15143,1,2,2:2:0:0:
53,276,15317,6,0,P|53:252|63:230,1,48,2|0,1:2|0:0,0:0:0:0:
28,154,15666,2,0,P|45:137|67:128,1,48,10|0,2:2|0:0,0:0:0:0:
91,48,16015,2,0,P|114:48|136:58,1,48,2|0,2:2|1:1,0:0:0:0:
211,18,16364,2,0,P|227:35|236:57,1,48,10|0,2:2|0:0,0:0:0:0:
311,100,16712,2,0,B|298:146|298:146|299:150|299:150|288:196,1,96,2|8,1:2|1:2,0:0:0:0:
219,249,17236,1,2,2:2:0:0:
219,249,17323,1,8,2:2:0:0:
219,249,17410,2,0,P|198:236|175:231,2,48,2|2|10,2:2|1:2|2:2,0:0:0:0:
281,316,17933,1,2,1:2:0:0:
281,316,18108,6,0,P|327:302|373:292,1,96,2|8,1:2|2:2,0:0:0:0:
456,311,18631,1,2,2:2:0:0:
456,311,18805,2,0,P|471:293|477:269,1,48,2|2,2:2|1:2,0:0:0:0:
437,196,19154,1,10,2:2:0:0:
484,123,19329,1,2,2:2:0:0:
414,73,19503,2,0,P|367:83|321:96,1,96,2|8,1:2|2:2,0:0:0:0:
181,207,20201,2,0,P|194:226|200:249,2,48,2|2|10,2:2|1:2|2:2,0:0:0:0:
112,151,20724,1,2,2:2:0:0:
145,61,20898,6,0,P|214:41|284:24,1,144,4|2,1:2|0:0,0:0:0:0:
385,13,21596,2,0,P|349:73|366:141,1,144,4|2,1:2|0:0,0:0:0:0:
430,214,22294,2,0,P|447:282|411:342,1,144,4|2,1:2|0:0,0:0:0:0:
350,263,22991,1,2,2:2:0:0:
350,263,23166,2,0,P|303:273|256:286,1,96,0|0,1:1|0:0,0:0:0:0:
169,350,23689,5,4,1:2:0:0:
96,299,23864,1,2,2:2:0:0:
96,299,23951,1,2,2:2:0:0:
96,299,24038,2,0,P|101:275|108:252,1,48,8|2,2:2|2:2,0:0:0:0:
169,191,24387,2,0,P|164:167|157:144,1,48,2|2,2:2|1:2,0:0:0:0:
146,132,24648,1,2,2:2:0:0:
135,119,24736,1,8,2:2:0:0:
185,43,24910,1,2,2:2:0:0:
185,43,25084,6,0,P|215:61|250:57,2,72,2|2|2,1:2|2:2|2:2,0:0:0:0:
14,15,25957,1,2,1:2:0:0:
14,15,26131,2,0,L|25:61,1,48,10|2,2:2|2:2,0:0:0:0:
83,136,26480,5,2,1:2:0:0:
157,87,26654,1,2,2:2:0:0:
157,87,26741,1,2,2:2:0:0:
157,87,26829,2,0,L|203:98,1,48,8|2,2:2|2:2,0:0:0:0:
269,162,27177,1,2,2:2:0:0:
203,222,27352,1,2,1:2:0:0:
203,222,27526,2,0,L|156:210,1,48,10|2,2:2|2:2,0:0:0:0:
79,254,27875,6,0,P|44:244|9:236,2,72,2|2|2,1:2|2:2|2:2,0:0:0:0:
127,329,28573,1,0,1:1:0:0:
127,329,28747,1,2,1:2:0:0:
213,298,28922,2,0,P|236:298|257:309,1,48,10|2,2:2|2:2,0:0:0:0:
332,370,29270,6,0,B|339:330|339:330|346:321|346:321|354:272,1,96,2|10,1:2|2:2,0:0:0:0:
308,203,29794,2,0,P|342:171|347:124,1,96,2|2,2:2|1:2,0:0:0:0:
314,42,30317,1,10,2:2:0:0:
314,42,30491,1,2,2:2:0:0:
228,65,30666,2,0,P|193:96|188:143,1,96,2|10,1:2|2:2,0:0:0:0:
216,230,31189,2,0,P|261:214|307:202,1,96,2|0,2:2|1:1,0:0:0:0:
379,153,31712,1,10,2:2:0:0:
379,153,31887,1,2,2:2:0:0:
450,217,32061,6,0,B|433:297|387:250|374:334,1,144,4|0,1:2|0:0,0:0:0:0:
292,372,32759,2,0,P|243:321|174:326,1,144,4|2,1:2|2:2,0:0:0:0:
90,368,33457,2,0,B|72:345|72:345|81:292|93:232,1,144,4|0,1:2|0:0,0:0:0:0:
155,168,34154,1,2,2:2:0:0:
155,168,34329,1,0,1:1:0:0:
86,95,34503,2,0,B|24:108|69:126|3:140,1,96,8|2,2:3|2:2,0:0:0:0:
164,274,35201,5,2,2:2:0:0:
164,274,35550,2,0,P|201:264|240:258,1,77.9999964294435,8|2,2:1|2:2,0:0:0:0:
358,206,36247,2,0,P|363:244|373:282,2,77.9999964294435,2|2|8,2:2|2:2|2:1,0:0:0:0:
297,88,37294,1,2,2:2:0:0:
297,88,37643,6,0,P|328:109|367:111,1,77.9999964294435,2|0,2:2|0:0,0:0:0:0:
429,63,38166,1,2,2:2:0:0:
429,63,38340,2,0,L|420:24,2,38.9999982147218,8|2|2,2:1|2:2|2:2,0:0:0:0:
512,162,39038,2,0,L|498:238,1,77.9999964294435,2|2,2:2|2:2,0:0:0:0:
475,365,39736,1,8,2:1:0:0:
349,343,40084,1,2,2:2:0:0:
370,217,40433,6,0,L|383:140,1,77.9999964294435,2|0,2:2|0:0,0:0:0:0:
305,33,41131,2,0,P|277:59|239:63,1,77.9999964294435,8|2,2:1|2:2,0:0:0:0:
106,64,41829,2,0,B|72:56|72:56|67:53|67:53|29:45,2,77.9999964294435,2|2|8,2:2|2:2|2:1,0:0:0:0:
176,172,42875,1,2,2:2:0:0:
176,172,43224,6,0,P|149:199|145:237,1,77.9999964294435,2|0,2:2|0:0,0:0:0:0:
218,345,43922,2,0,L|206:382,2,38.9999982147218,8|2|2,2:1|2:2|2:2,0:0:0:0:
341,308,44619,2,0,P|367:280|371:242,1,77.9999964294435,2|2,2:2|2:2,0:0:0:0:
299,135,45317,1,8,2:1:0:0:
176,172,45666,1,2,2:2:0:0:
56,101,46015,6,0,L|82:15,1,90.0000034332277,2|0,1:2|1:1,0:0:0:0:
159,63,46538,1,2,2:2:0:0:
159,63,46712,2,0,P|178:73|201:75,1,45.0000017166138,8|2,1:3|2:2,0:0:0:0:
277,22,47061,1,2,1:2:0:0:
277,22,47236,2,0,B|326:33|311:50|357:60,1,90.0000034332277,2|0,2:2|0:0,0:0:0:0:
440,25,47759,1,0,1:1:0:0:
502,93,47933,1,2,2:2:0:0:
502,93,48108,2,0,L|492:137,1,45.0000017166138,8|2,1:3|2:2,0:0:0:0:
410,178,48457,2,0,L|419:222,1,45.0000017166138,2|2,1:2|2:2,0:0:0:0:
473,302,48805,6,0,P|453:341|411:351,1,90.0000034332277,2|2,1:2|1:2,0:0:0:0:
332,303,49329,1,2,2:2:0:0:
332,303,49503,2,0,L|287:312,2,45.0000017166138,8|2|2,1:3|2:2|1:2,0:0:0:0:
311,213,50026,2,0,L|222:231,1,90.0000034332277,2|2,2:2|2:2,0:0:0:0:
152,292,50550,1,0,1:1:0:0:
79,232,50724,2,0,P|53:196|62:154,1,90.0000034332277,2|2,2:2|2:2,0:0:0:0:
127,87,51247,1,0,1:1:0:0:
322,170,51596,6,0,P|312:190|310:212,2,45.0000017166138,2|2|2,1:2|2:2|1:2,0:0:0:0:
379,100,52119,1,2,2:2:0:0:
379,100,52294,2,0,B|415:108|415:108|427:119|427:119|464:127,1,90.0000034332277,8|2,1:3|1:2,0:0:0:0:
512,203,52817,2,0,P|485:238|485:282,1,90.0000034332277,2|2,2:2|2:2,0:0:0:0:
428,355,53340,1,2,1:2:0:0:
233,272,53689,2,0,L|243:228,1,45.0000017166138,8|2,1:3|2:2,0:0:0:0:
313,167,54038,1,2,1:2:0:0:
257,91,54212,1,2,2:2:0:0:
257,91,54387,6,0,P|212:99|169:112,1,90.0000034332277,2|2,1:2|1:2,0:0:0:0:
93,60,54910,1,2,2:2:0:0:
93,60,55084,2,0,P|99:38|103:16,2,45.0000017166138,8|2|2,1:3|2:2|1:2,0:0:0:0:
18,115,55608,1,2,2:2:0:0:
83,198,55782,5,0,1:1:0:0:
83,198,55957,1,0,1:1:0:0:
18,281,56131,1,0,1:1:0:0:
18,281,56305,1,0,1:1:0:0:
96,356,56480,2,0,L|119:350,3,24,0|0|2|0,1:1|3:3|1:2|3:3,0:0:0:0:
146,336,56829,2,0,L|192:346,1,48,10|2,2:2|2:2,0:0:0:0:
316,370,57177,6,0,P|295:344|292:312,1,66.0000020141602,4|0,1:1|0:0,0:0:0:0:
352,229,57526,2,0,P|350:196|331:169,1,66.0000020141602,10|2,2:2|0:0,0:0:0:0:
255,97,57875,2,0,P|207:109|159:124,1,99.0000030212403,2|0,2:2|0:0,0:0:0:0:
135,133,58224,1,10,2:2:0:0:
43,82,58398,6,0,P|33:50|43:19,1,66.0000020141602,2|0,2:2|1:1,0:0:0:0:
135,133,58747,2,0,P|144:164|134:195,1,66.0000020141602,2|8,2:2|2:2,0:0:0:0:
52,257,59096,2,0,B|65:310|65:310|57:336|57:336|70:387,1,132.00000402832,2|2,2:2|1:2,0:0:0:0:
151,328,59619,1,10,2:2:0:0:
248,350,59794,1,2,2:2:0:0:
248,350,59968,6,0,P|279:340|311:332,1,66.0000020141602,2|0,1:2|0:0,0:0:0:0:
279,235,60317,2,0,P|247:243|215:252,1,66.0000020141602,10|2,2:2|0:0,0:0:0:0:
151,328,60666,2,0,P|101:322|66:289,1,99.0000030212403,2|0,2:2|0:0,0:0:0:0:
55,265,61015,1,10,2:2:0:0:
109,183,61189,1,2,2:2:0:0:
54,101,61364,5,0,1:1:0:0:
54,101,61538,2,0,P|62:68|71:37,1,66.0000020141602,2|8,1:2|2:2,0:0:0:0:
160,90,61887,2,0,B|245:71|193:51|283:31,1,132.00000402832,2|2,2:2|1:2,0:0:0:0:
371,4,62410,1,10,2:2:0:0:
371,4,62584,1,2,2:2:0:0:
437,83,62759,6,0,B|418:165|398:113|379:199,1,132.00000402832,2|10,1:2|2:2,0:0:0:0:
419,293,63282,2,0,P|405:353|343:367,1,132.00000402832,2|0,2:2|1:1,0:0:0:0:
253,325,63805,1,10,2:2:0:0:
296,132,64154,6,0,P|282:67|262:4,1,132.00000402832,2|10,1:2|2:2,0:0:0:0:
169,38,64677,2,0,P|106:28|60:72,1,132.00000402832,2|0,2:2|1:1,0:0:0:0:
0,152,65201,1,10,2:2:0:0:
95,340,65550,6,0,B|150:324|150:324|169:248|169:248|231:230,1,198.000006042481,4|2,1:2|2:2,0:0:0:0:
320,269,66247,2,0,P|413:265|443:176,1,198.000006042481,4|2,1:2|2:2,0:0:0:0:
389,94,66945,2,0,B|330:83|301:124|301:124|272:164|213:154,1,198.000006042481,4|2,1:2|2:2,0:0:0:0:
133,90,67643,1,2,2:2:0:0:
133,90,67817,1,2,1:2:0:0:
46,149,67991,2,0,P|56:180|63:212,1,66.0000020141602,10|2,2:2|0:0,0:0:0:0:
76,236,68253,1,2,0:0:0:0:
87,260,68340,6,0,P|76:291|69:323,1,66.0000020141602,4|0,1:1|0:0,0:0:0:0:
152,384,68689,2,0,P|183:373|215:366,1,66.0000020141602,10|2,2:2|0:0,0:0:0:0:
280,282,69038,2,0,P|326:298|374:309,1,99.0000030212403,2|0,2:2|0:0,0:0:0:0:
401,314,69387,1,10,2:2:0:0:
362,216,69561,1,2,2:2:0:0:
362,216,69736,6,0,P|359:183|377:156,1,66.0000020141602,0|2,1:1|2:2,0:0:0:0:
451,86,70084,1,8,2:2:0:0:
377,10,70259,2,0,B|323:24|323:24|307:16|307:16|250:31,1,132.00000402832,2|2,2:2|1:2,0:0:0:0:
168,92,70782,1,8,2:2:0:0:
78,30,70957,1,2,2:2:0:0:
78,30,71044,1,2,2:2:0:0:
78,30,71131,6,0,L|13:45,1,66.0000020141602,0|2,1:1|2:2,0:0:0:0:
0,147,71480,1,8,2:2:0:0:
0,147,71654,2,0,P|39:197|26:259,1,132.00000402832,2|2,2:2|1:2,0:0:0:0:
0,359,72177,1,8,2:2:0:0:
99,333,72352,1,2,2:2:0:0:
99,333,72526,6,0,L|163:348,2,66.0000020141602,0|2|8,1:1|1:2|2:2,0:0:0:0:
26,259,73050,2,0,P|12:196|52:146,1,132.00000402832,2|2,2:2|1:2,0:0:0:0:
141,95,73573,1,10,2:2:0:0:
214,180,73747,1,2,2:2:0:0:
214,180,73834,1,2,2:2:0:0:
214,180,73922,6,0,L|278:164,1,66.0000020141602,2|0,1:2|0:0,0:0:0:0:
337,77,74270,1,10,2:2:0:0:
337,77,74445,2,0,L|465:107,1,132.00000402832,2|0,2:2|1:1,0:0:0:0:
512,199,74968,2,0,P|483:238|490:285,1,99.0000030212403,10|0,2:2|0:0,0:0:0:0:
502,310,75317,6,0,B|469:312|469:312|441:296,1,66.0000020141602,2|0,1:2|0:0,0:0:0:0:
368,219,75666,1,10,2:2:0:0:
368,219,75840,2,0,B|331:228|304:211|304:211|288:238|251:247,1,132.00000402832,2|0,2:2|1:1,0:0:0:0:
163,301,76364,1,10,2:2:0:0:
36,133,76712,6,0,B|79:157|131:128|135:75|135:75|161:84|197:78,1,198.000006042481,4|2,1:2|2:2,0:0:0:0:
277,17,77410,2,0,P|365:22|356:110,1,198.000006042481,4|0,1:2|0:0,0:0:0:0:
277,175,78108,2,0,B|243:193|205:166|205:166|245:222|233:290,1,198.000006042481,4|2,1:2|2:2,0:0:0:0:
175,364,78805,1,2,2:2:0:0:
175,364,78980,1,0,1:1:0:0:
81,324,79154,2,0,L|53:229,1,99.0000030212403,8|0,2:3|0:0,0:0:0:0:
45,205,79503,6,0,L|56:164,2,41.9999987182618,2|2|2,2:2|2:2|2:2,0:0:0:0:
68,111,87875,6,0,P|111:68|173:70,1,125.999996154785,4|2,1:2|0:0,0:0:0:0:
247,109,88573,2,0,P|289:152|287:214,1,125.999996154785,4|2,1:2|0:0,0:0:0:0:
240,283,89270,2,0,P|196:325|134:323,1,125.999996154785,4|2,1:2|2:2,0:0:0:0:
68,266,89968,2,0,L|27:276,2,41.9999987182618,0|0|0,1:1|3:3|3:3,0:0:0:0:
134,201,90491,1,0,3:3:0:0:
134,201,90666,6,0,P|180:212|226:225,1,96,4|10,1:2|2:2,0:0:0:0:
293,281,91189,1,2,2:2:0:0:
293,281,91364,2,0,P|316:274|339:268,1,48,2|0,2:2|1:1,0:0:0:0:
389,195,91712,2,0,P|383:171|376:148,1,48,10|2,2:2|2:2,0:0:0:0:
314,85,92061,6,0,P|319:61|326:38,2,48,2|2|10,1:2|2:2|2:2,0:0:0:0:
237,130,92584,1,2,2:2:0:0:
237,130,92759,2,0,P|214:120|191:117,1,48,2|2,2:2|1:2,0:0:0:0:
127,56,93108,1,10,2:2:0:0:
9,183,93457,6,0,B|19:220|19:220|14:239|14:239|25:278,1,96,0|8,1:1|2:2,0:0:0:0:
96,325,93980,1,2,2:2:0:0:
96,325,94154,2,0,P|117:315|141:314,1,48,2|2,2:2|1:2,0:0:0:0:
209,256,94503,1,10,2:2:0:0:
209,256,94677,1,2,2:2:0:0:
150,189,94852,6,0,P|142:142|172:107,1,96,0|8,1:1|2:2,0:0:0:0:
248,64,95375,1,2,2:2:0:0:
248,64,95550,2,0,L|294:53,1,48,2|2,2:2|1:2,0:0:0:0:
368,3,95898,1,10,2:2:0:0:
480,141,96247,6,0,L|458:234,1,96,0|10,1:1|2:2,0:0:0:0:
384,279,96770,1,2,2:2:0:0:
384,279,96945,2,0,P|348:247|301:247,1,96,2|10,2:2|2:2,0:0:0:0:
230,296,97468,1,2,2:2:0:0:
230,296,97643,6,0,L|183:285,1,48,2|2,1:2|2:2,0:0:0:0:
125,214,97991,1,10,2:2:0:0:
125,214,98166,1,2,2:2:0:0:
198,159,98340,2,0,L|208:112,1,48,2|2,2:2|1:2,0:0:0:0:
166,37,98689,1,10,2:2:0:0:
308,144,99038,6,0,P|377:141|414:83,1,144,4|2,1:2|2:2,0:0:0:0:
371,6,99736,2,0,B|289:24|336:52|243:72,1,144,4|2,1:2|2:2,0:0:0:0:
166,37,100433,2,0,B|130:35|130:35|99:52,2,72,4|0|2,1:2|1:1|1:2,0:0:0:0:
246,71,101131,2,0,L|235:117,1,48,2|2,2:2|1:2,0:0:0:0:
154,178,101480,2,0,L|175:271,1,96,8|2,2:3|2:2,0:0:0:0:
336,148,102177,5,2,2:2:0:0:
336,148,102526,2,0,P|374:156|412:165,1,77.9999964294435,8|2,2:1|2:2,0:0:0:0:
481,274,103224,2,0,P|506:245|512:207,2,77.9999964294435,2|2|8,2:2|2:2|2:1,0:0:0:0:
364,318,104270,1,2,2:2:0:0:
364,318,104619,6,0,P|326:309|287:300,1,77.9999964294435,2|0,2:2|0:0,0:0:0:0:
225,253,105143,1,2,2:2:0:0:
225,253,105317,2,0,P|205:257|186:261,2,38.9999982147218,8|2|2,2:1|2:2|2:2,0:0:0:0:
306,152,106015,2,0,P|310:113|283:83,1,77.9999964294435,2|2,2:2|2:2,0:0:0:0:
175,26,106712,1,8,2:1:0:0:
56,64,107061,1,2,2:2:0:0:
0,176,107410,6,0,P|-2:213|23:241,1,77.9999964294435,2|0,2:2|0:0,0:0:0:0:
147,204,108108,2,0,P|185:210|223:218,1,77.9999964294435,8|2,2:1|2:2,0:0:0:0:
317,301,108805,2,0,B|294:332|294:332|295:371,2,77.9999964294435,2|2|8,2:2|2:2|2:1,0:0:0:0:
424,229,109852,1,2,2:2:0:0:
424,229,110201,6,0,P|417:190|409:152,1,77.9999964294435,2|0,2:2|0:0,0:0:0:0:
341,39,110898,2,0,P|355:25|373:20,2,38.9999982147218,8|2|2,2:1|2:2|2:2,0:0:0:0:
254,129,111596,2,0,P|216:119|177:111,1,77.9999964294435,2|2,2:2|2:2,0:0:0:0:
97,16,112294,1,8,2:1:0:0:
0,95,112643,1,2,2:2:0:0:
82,189,112991,6,0,P|91:233|101:276,1,90.0000034332277,2|0,1:2|1:1,0:0:0:0:
174,331,113515,1,2,2:2:0:0:
174,331,113689,2,0,P|193:319|215:315,1,45.0000017166138,8|2,1:3|2:2,0:0:0:0:
268,242,114038,1,2,1:2:0:0:
268,242,114212,2,0,P|240:207|235:163,1,90.0000034332277,2|0,2:2|0:0,0:0:0:0:
279,81,114736,1,0,1:1:0:0:
365,116,114910,1,2,2:2:0:0:
365,116,115084,2,0,L|408:104,1,45.0000017166138,8|2,1:3|2:2,0:0:0:0:
488,148,115433,2,0,L|499:191,1,45.0000017166138,2|2,1:2|2:2,0:0:0:0:
463,279,115782,6,0,B|445:295|421:292|421:292|398:288|380:305,1,90.0000034332277,2|2,1:2|1:2,0:0:0:0:
295,341,116305,1,2,2:2:0:0:
295,341,116480,2,0,L|306:384,2,45.0000017166138,8|2|2,1:3|2:2|1:2,0:0:0:0:
225,284,117003,2,0,L|247:196,1,90.0000034332277,2|2,2:2|2:2,0:0:0:0:
315,137,117526,1,0,1:1:0:0:
267,58,117701,2,0,L|179:35,1,90.0000034332277,2|2,2:2|2:2,0:0:0:0:
92,65,118224,1,0,1:1:0:0:
247,196,118573,6,0,L|235:239,2,45.0000017166138,2|2|2,1:2|2:2|1:2,0:0:0:0:
315,137,119096,1,2,2:2:0:0:
315,137,119270,2,0,P|358:131|395:155,1,90.0000034332277,8|2,1:3|1:2,0:0:0:0:
460,220,119794,2,0,B|452:259|452:259|443:270|443:270|435:315,1,90.0000034332277,2|2,2:2|2:2,0:0:0:0:
371,367,120317,1,2,1:2:0:0:
205,243,120666,2,0,L|161:254,1,45.0000017166138,8|2,1:3|2:2,0:0:0:0:
88,307,121015,1,2,1:2:0:0:
33,236,121189,1,2,2:2:0:0:
33,236,121364,6,0,P|61:202|58:158,1,90.0000034332277,2|2,1:2|1:2,0:0:0:0:
5,83,121887,1,2,2:2:0:0:
5,83,122061,2,0,L|16:39,2,45.0000017166138,8|2|2,1:3|2:2|1:2,0:0:0:0:
58,158,122584,1,2,2:2:0:0:
153,111,122759,5,0,1:1:0:0:
153,111,122933,1,0,1:1:0:0:
221,192,123108,1,0,1:1:0:0:
221,192,123282,1,0,1:1:0:0:
306,125,123457,2,0,L|299:101,3,24,0|0|2|0,1:1|3:3|1:2|3:3,0:0:0:0:
287,75,123805,2,0,L|299:28,1,48,10|2,2:2|2:2,0:0:0:0:
414,81,124154,6,0,P|445:71|477:64,1,66.0000020141602,4|0,1:1|0:0,0:0:0:0:
506,163,124503,2,0,P|473:169|442:179,1,66.0000020141602,10|2,2:2|0:0,0:0:0:0:
363,249,124852,2,0,P|316:233|267:223,1,99.0000030212403,2|0,2:2|0:0,0:0:0:0:
240,220,125201,1,10,2:2:0:0:
152,272,125375,6,0,L|167:335,1,66.0000020141602,2|0,2:2|1:1,0:0:0:0:
240,220,125724,2,0,L|224:156,1,66.0000020141602,2|8,2:2|2:2,0:0:0:0:
153,82,126073,2,0,P|90:69|41:110,1,132.00000402832,2|2,2:2|1:2,0:0:0:0:
0,204,126596,1,10,2:2:0:0:
72,281,126770,1,2,2:2:0:0:
72,281,126945,6,0,P|101:265|133:262,1,66.0000020141602,2|0,1:2|0:0,0:0:0:0:
212,196,127294,2,0,P|241:211|273:214,1,66.0000020141602,10|2,2:2|0:0,0:0:0:0:
346,282,127643,2,0,P|394:282|431:251,1,99.0000030212403,2|0,2:2|0:0,0:0:0:0:
446,229,127991,1,10,2:2:0:0:
418,134,128166,1,2,2:2:0:0:
319,115,128340,5,0,1:1:0:0:
319,115,128515,2,0,B|289:110|289:110|283:107|283:107|254:103,1,66.0000020141602,2|8,1:2|2:2,0:0:0:0:
361,25,128864,2,0,B|417:36|417:36|429:42|429:42|489:54,1,132.00000402832,2|2,2:2|1:2,0:0:0:0:
512,158,129387,1,10,2:2:0:0:
512,158,129561,1,2,2:2:0:0:
449,243,129736,6,0,B|388:231|388:231|377:225|377:225|320:213,1,132.00000402832,2|10,1:2|2:2,0:0:0:0:
246,148,130259,2,0,P|184:156|170:216,1,132.00000402832,2|0,2:2|1:1,0:0:0:0:
228,298,130782,1,10,2:2:0:0:
57,198,131131,6,0,P|72:133|93:71,1,132.00000402832,2|10,1:2|2:2,0:0:0:0:
169,7,131654,2,0,P|212:53|277:52,1,132.00000402832,2|0,2:2|1:1,0:0:0:0:
361,0,132177,1,10,2:2:0:0:
512,138,132526,6,0,B|488:178|495:217|495:217|458:235|458:235|465:275|441:307,1,198.000006042481,4|2,1:2|2:2,0:0:0:0:
358,358,133224,2,0,P|294:287|200:303,1,198.000006042481,4|2,1:2|2:2,0:0:0:0:
121,363,133922,2,0,B|104:348|91:330|91:330|123:180,1,198.000006042481,4|2,1:2|2:2,0:0:0:0:
194,106,134619,1,2,2:2:0:0:
194,106,134794,1,2,1:2:0:0:
129,23,134968,2,0,L|65:39,1,66.0000020141602,10|2,2:2|0:0,0:0:0:0:
45,57,135230,1,2,0:0:0:0:
28,77,135317,6,0,P|17:107|29:138,1,66.0000020141602,4|0,1:1|0:0,0:0:0:0:
123,180,135666,2,0,L|186:163,1,66.0000020141602,10|2,2:2|0:0,0:0:0:0:
267,93,136015,2,0,P|304:124|353:124,1,99.0000030212403,2|0,2:2|0:0,0:0:0:0:
378,115,136364,1,10,2:2:0:0:
466,167,136538,1,2,2:2:0:0:
466,167,136712,6,0,L|449:231,1,66.0000020141602,0|2,1:1|2:2,0:0:0:0:
376,303,137061,1,8,2:2:0:0:
303,231,137236,2,0,B|228:243|277:282|185:300,1,132.00000402832,2|2,2:2|1:2,0:0:0:0:
105,348,137759,1,8,2:2:0:0:
24,276,137933,1,2,2:2:0:0:
24,276,138020,1,2,2:2:0:0:
24,276,138108,6,0,L|41:212,1,66.0000020141602,0|2,1:1|2:2,0:0:0:0:
120,152,138457,1,8,2:2:0:0:
53,75,138631,2,0,P|79:17|142:11,1,132.00000402832,2|2,2:2|1:2,0:0:0:0:
217,77,139154,1,8,2:2:0:0:
301,18,139329,1,2,2:2:0:0:
301,18,139503,6,0,L|365:35,2,66.0000020141602,0|2|8,1:1|1:2|2:2,0:0:0:0:
217,77,140026,2,0,P|235:140|250:204,1,132.00000402832,2|2,2:2|1:2,0:0:0:0:
334,252,140550,1,10,2:2:0:0:
289,347,140724,1,2,2:2:0:0:
289,347,140811,1,2,2:2:0:0:
289,347,140898,6,0,P|257:337|225:330,1,66.0000020141602,2|0,1:2|0:0,0:0:0:0:
160,255,141247,1,10,2:2:0:0:
160,255,141422,2,0,P|95:270|32:288,1,132.00000402832,2|0,2:2|1:1,0:0:0:0:
1,191,141945,2,0,P|48:177|96:165,1,99.0000030212403,10|0,2:2|0:0,0:0:0:0:
120,152,142294,6,0,P|152:159|183:168,1,66.0000020141602,2|0,1:2|0:0,0:0:0:0:
264,233,142643,1,10,2:2:0:0:
264,233,142817,2,0,B|301:224|317:197|317:197|344:214|381:205,1,132.00000402832,2|0,2:2|1:1,0:0:0:0:
460,140,143340,1,10,2:2:0:0:
291,13,143689,6,0,B|266:43|231:24|231:24|197:5|172:36|172:36|147:66|113:47,1,198.000006042481,4|2,1:2|2:2,0:0:0:0:
18,91,144387,2,0,P|82:160|59:252,1,198.000006042481,4|0,1:2|0:0,0:0:0:0:
119,336,145084,2,0,B|172:343|234:307|193:266|176:321|259:321|302:290,1,198.000006042481,4|2,1:2|2:2,0:0:0:0:
352,212,145782,1,2,2:2:0:0:
352,212,145957,1,0,1:1:0:0:
287,133,146131,2,0,L|314:37,1,99.0000030212403,8|0,2:3|0:0,0:0:0:0:
308,13,146480,6,0,B|244:0|226:58|157:47,1,155.999992858887,2|8,2:2|0:3,0:0:0:0:
41,258,147875,2,0,P|114:246|165:301,1,155.999992858887,2|8,2:2|0:3,0:0:0:0:
387,375,149270,2,0,L|462:356,1,77.9999964294435,2|2,2:2|2:2,0:0:0:0:
430,244,149968,2,0,L|354:262,1,77.9999964294435,8|2,2:3|2:2,0:0:0:0:
288,304,150491,1,2,2:2:0:0:
288,304,150666,2,0,P|249:307|219:283,1,77.9999964294435,2|2,2:2|2:2,0:0:0:0:
176,175,151364,1,8,2:3:0:0:
268,103,151712,1,2,2:2:0:0:
176,25,152061,6,0,B|99:8|99:8|40:59,1,155.999992858887,2|8,2:2|0:3,0:0:0:0:
268,103,153457,2,0,P|343:82|420:72,1,155.999992858887,2|8,2:2|0:3,0:0:0:0:
455,296,154852,2,0,P|416:300|378:310,1,77.9999964294435,2|2,2:2|2:2,0:0:0:0:
280,374,155550,2,0,P|241:369|203:359,1,77.9999964294435,8|2,2:3|2:2,0:0:0:0:
103,292,156247,5,0,3:3:0:0:
103,292,156422,2,0,L|113:254,1,38.9999982147218,0|0,3:3|0:0,0:0:0:0:
173,196,156770,2,0,L|163:158,1,38.9999982147218,0|0,3:3|0:0,0:0:0:0:
90,117,157119,1,0,3:3:0:0:
82,33,157294,1,2,1:2:0:0:
162,4,157468,1,2,1:2:0:0:
162,4,157643,6,0,B|201:11|201:11|208:20|208:20|251:27,1,90.0000034332277,4|2,1:2|1:2,0:0:0:0:
411,0,158340,2,0,L|454:10,1,45.0000017166138,8|2,1:3|2:2,0:0:0:0:
509,77,158689,2,0,L|498:120,1,45.0000017166138,2|2,1:2|2:2,0:0:0:0:
432,179,159038,2,0,L|442:222,2,45.0000017166138,2|2|2,1:2|2:2|1:2,0:0:0:0:
359,134,159561,1,2,2:2:0:0:
359,134,159736,2,0,P|340:146|318:152,1,45.0000017166138,8|2,1:3|2:2,0:0:0:0:
244,107,160084,1,2,1:2:0:0:
244,107,160259,1,2,2:2:0:0:
184,174,160433,6,0,L|194:217,1,45.0000017166138,2|2,1:2|2:2,0:0:0:0:
263,270,160782,1,2,1:2:0:0:
233,353,160957,1,2,2:2:0:0:
233,353,161131,2,0,L|145:331,1,90.0000034332277,8|2,1:3|1:2,0:0:0:0:
85,265,161654,1,2,2:2:0:0:
85,265,161829,2,0,P|56:298|55:342,2,90.0000034332277,2|2|8,1:2|1:2|1:3,0:0:0:0:
199,193,162875,1,2,1:2:0:0:
294,289,163224,6,0,L|381:267,1,90.0000034332277,2|0,1:2|1:1,0:0:0:0:
448,203,163747,2,0,L|459:160,1,45.0000017166138,2|8,3:2|1:3,0:0:0:0:
393,98,164096,2,0,L|306:120,1,90.0000034332277,2|2,3:2|3:2,0:0:0:0:
228,66,164619,2,0,P|241:48|248:26,2,45.0000017166138,2|2|2,1:2|3:2|1:2,0:0:0:0:
164,130,165143,1,2,3:2:0:0:
164,130,165317,2,0,B|175:169|175:169|185:175|185:175|199:213,1,90.0000034332277,8|2,1:3|1:2,0:0:0:0:
315,339,166015,6,0,L|364:327,1,51.0000009727478,2|0,1:2|1:1,0:0:0:0:
426,255,166364,1,2,1:2:0:0:
426,255,166538,2,0,P|410:235|402:210,1,51.0000009727478,2|8,1:2|1:3,0:0:0:0:
452,130,166887,1,2,1:2:0:0:
452,130,167061,2,0,L|440:80,1,51.0000009727478,2|0,1:2|1:1,0:0:0:0:
367,16,167410,1,2,1:2:0:0:
367,16,167584,2,0,P|331:50|281:53,1,102.000001945496,2|2,1:2|1:2,0:0:0:0:
194,10,168108,2,0,L|169:15,3,25.5000004863739,8|0|0|0,1:3|1:1|1:1|1:1,0:0:0:0:
153,42,168457,2,0,L|128:47,3,25.5000004863739,10|0|0|0,2:2|1:1|1:1|1:1,0:0:0:0:
106,70,168805,5,2,2:2:0:0:
450,115,171596,6,0,P|462:145|472:177,1,66.0000020141602,4|0,1:1|0:0,0:0:0:0:
419,261,171945,1,10,2:2:0:0:
328,215,172119,1,2,2:2:0:0:
328,215,172207,1,2,2:2:0:0:
328,215,172294,2,0,P|296:224|265:237,1,66.0000020141602,2|2,2:2|1:2,0:0:0:0:
190,306,172643,2,0,P|158:297|126:287,1,66.0000020141602,10|0,2:2|0:0,0:0:0:0:
49,216,172991,5,2,1:2:0:0:
49,216,173166,1,0,1:1:0:0:
120,147,173340,2,0,P|111:115|101:83,1,66.0000020141602,10|2,2:2|2:2,0:0:0:0:
84,64,173602,1,2,2:2:0:0:
64,47,173689,2,0,L|32:56,2,33.0000010070801,2|2|2,2:2|2:2|1:2,0:0:0:0:
155,0,174038,2,0,L|218:16,1,66.0000020141602,10|2,2:2|2:2,0:0:0:0:
325,17,174387,6,0,L|308:80,1,66.0000020141602,2|0,1:2|0:0,0:0:0:0:
235,148,174736,1,10,2:2:0:0:
283,238,174910,1,2,2:2:0:0:
283,238,174997,1,2,2:2:0:0:
283,238,175084,2,0,P|265:265|263:297,1,66.0000020141602,2|2,2:2|1:2,0:0:0:0:
360,332,175433,2,0,P|377:304|379:272,1,66.0000020141602,10|0,2:2|0:0,0:0:0:0:
363,174,175782,6,0,L|380:110,1,66.0000020141602,2|0,1:2|0:0,0:0:0:0:
319,28,176131,2,0,L|255:45,1,66.0000020141602,10|2,2:2|2:2,0:0:0:0:
236,64,176393,1,2,2:2:0:0:
215,80,176480,2,0,P|183:69|151:61,1,66.0000020141602,2|2,2:2|1:2,0:0:0:0:
63,17,176829,1,10,2:2:0:0:
19,204,177177,6,0,P|85:258|66:341,1,180,4|2,1:2|0:0,0:0:0:0:
171,295,177875,2,0,P|259:308|347:330,1,180,4|2,1:2|0:0,0:0:0:0:
438,371,178573,2,0,B|471:320|438:287|438:287|404:254|436:207,1,180,4|2,1:2|0:0,0:0:0:0:
488,138,179270,1,2,0:0:0:0:
429,70,179445,1,2,1:2:0:0:
429,70,179619,2,0,L|367:84,1,60,10|2,2:2|2:2,0:0:0:0:
283,149,179968,6,0,L|218:134,1,66.0000020141602,4|0,1:1|0:0,0:0:0:0:
146,62,180317,2,0,P|113:60|84:75,1,66.0000020141602,10|2,2:2|0:0,0:0:0:0:
6,142,180666,2,0,L|28:238,1,99.0000030212403,2|0,2:2|0:0,0:0:0:0:
36,264,181015,1,10,2:2:0:0:
127,211,181189,1,2,2:2:0:0:
127,211,181364,6,0,L|191:225,1,66.0000020141602,0|2,1:1|2:2,0:0:0:0:
264,293,181712,1,8,2:2:0:0:
344,229,181887,2,0,P|327:164|310:101,1,132.00000402832,2|2,2:2|1:2,0:0:0:0:
367,16,182410,1,8,2:2:0:0:
468,56,182584,1,2,2:2:0:0:
468,56,182672,1,2,2:2:0:0:
468,56,182759,6,0,L|482:120,1,66.0000020141602,0|2,1:1|2:2,0:0:0:0:
502,221,183108,1,8,2:2:0:0:
405,180,183282,2,0,P|353:141|289:146,1,132.00000402832,2|2,2:2|1:2,0:0:0:0:
216,214,183805,1,8,2:2:0:0:
128,161,183980,1,2,2:2:0:0:
128,161,184154,6,0,L|142:96,2,66.0000020141602,0|2|8,1:1|1:2|2:2,0:0:0:0:
43,213,184677,2,0,B|72:279|20:273|51:342,1,132.00000402832,2|2,2:2|1:2,0:0:0:0:
141,383,185201,1,10,2:2:0:0:
215,308,185375,1,2,2:2:0:0:
215,308,185462,1,2,2:2:0:0:
215,308,185550,6,0,P|242:325|274:329,1,66.0000020141602,2|0,1:2|0:0,0:0:0:0:
358,270,185898,1,10,2:2:0:0:
358,270,186073,2,0,B|343:225|343:225|354:194|354:194|339:143,1,132.00000402832,2|0,2:2|1:1,0:0:0:0:
380,50,186596,2,0,P|354:9|306:3,1,99.0000030212403,10|0,2:2|0:0,0:0:0:0:
282,13,186945,6,0,P|249:15|220:0,1,66.0000020141602,2|0,1:2|0:0,0:0:0:0:
124,33,187294,1,10,2:2:0:0:
124,33,187468,2,0,P|161:85|144:146,1,132.00000402832,2|0,2:2|1:1,0:0:0:0:
65,206,187991,1,10,2:2:0:0:
256,336,188340,6,0,P|329:347|384:297,1,153.000002918243,4|2,1:2|2:2,0:0:0:0:
359,204,189038,2,0,P|285:192|230:242,1,153.000002918243,4|2,1:2|2:2,0:0:0:0:
166,315,189736,2,0,P|92:326|37:276,1,153.000002918243,4|2,1:2|2:2,0:0:0:0:
85,187,190433,1,2,2:2:0:0:
85,187,190608,1,0,1:1:0:0:
21,111,190782,2,0,L|39:37,1,76.5000014591217,10|0,2:2|0:0,0:0:0:0:
53,9,191131,6,0,P|79:10|100:23,2,51.0000009727478,2|2|2,2:2|2:2|2:2,0:0:0:0:
