osu file format v14

[General]
AudioFilename: audio.mp3
AudioLeadIn: 0
PreviewTime: 123631
Countdown: 0
SampleSet: Soft
StackLeniency: 0.7
Mode: 0
LetterboxInBreaks: 0
WidescreenStoryboard: 0

[Editor]
Bookmarks: 79503
DistanceSpacing: 1.4
BeatDivisor: 4
GridSize: 16
TimelineZoom: 1.8

[Metadata]
Title:Social Path (feat. LiSA)
TitleUnicode:Social Path (feat. LiSA)
Artist:Stray Kids
ArtistUnicode:스트레이 키즈
Creator:LeomineXD
Version:Amats' Insane
Source:
Tags:nevir nevlr freezinganimenz amats seuteulei kijeu japanese ver version pop jpop j-pop jp english featuring SKZ JYPE JYP entertainment 방찬 Bang Chan Bahng 리노 Lee Know 창빈 Changbin 현진 Hyunjin Hyun Jin 한 Han 필릭스 Felix 승민 Seungmin Seung Min 아이엔 I.N
BeatmapID:4343024
BeatmapSetID:2074782

[Difficulty]
HPDrainRate:5
CircleSize:3.8
OverallDifficulty:7.5
ApproachRate:8.5
SliderMultiplier:1.6
SliderTickRate:1

[Events]
//Background and Video events
0,0,"101805095_p0.png",0,0
//Break Periods
2,35051,42549
2,102029,109526
2,146680,155572
//Storyboard Layer 0 (Background)
//Storyboard Layer 1 (Fail)
//Storyboard Layer 2 (Pass)
//Storyboard Layer 3 (Foreground)
//Storyboard Layer 4 (Overlay)
//Storyboard Sound Samples

[TimingPoints]
1364,348.837209302326,4,2,1,40,1,0
6945,-125,4,2,1,50,0,0
9736,-125,4,2,1,78,0,0
11829,-125,4,2,1,60,0,0
12526,-125,4,2,1,70,0,0
23689,-111.111111111111,4,2,1,75,0,0
32061,-142.857142857143,4,2,1,75,0,0
34503,-125,4,2,1,75,0,0
34852,-125,4,2,1,50,0,0
43224,-142.857142857143,4,2,1,50,0,0
46015,-125,4,2,1,65,0,0
55782,-125,4,2,1,70,0,0
57177,-100,4,2,1,85,0,1
79503,-142.857142857143,4,2,1,55,0,0
87875,-125,4,2,1,70,0,0
90666,-125,4,2,1,75,0,0
101829,-125,4,2,1,50,0,0
110201,-142.857142857143,4,2,1,50,0,0
112991,-125,4,2,1,65,0,0
122759,-125,4,2,1,70,0,0
124154,-100,4,2,1,85,0,1
146480,-100,4,2,1,45,0,0
147177,-100,4,2,2,45,0,0
147265,-100,4,2,1,45,0,0
148573,-100,4,2,2,45,0,0
148660,-100,4,2,1,45,0,0
149968,-100,4,2,2,45,0,0
150055,-100,4,2,1,45,0,0
151364,-100,4,2,2,45,0,0
151451,-100,4,2,1,45,0,0
152759,-100,4,2,2,45,0,0
152846,-100,4,2,1,45,0,0
154154,-100,4,2,2,45,0,0
154241,-100,4,2,1,45,0,0
155550,-100,4,2,2,45,0,0
155637,-100,4,2,1,45,0,0
156247,-142.857142857143,4,2,1,60,0,0
157643,-125,4,2,1,65,0,0
163224,-125,4,2,1,67,0,0
166015,-125,4,2,1,70,0,0
168805,-125,4,2,1,45,0,0
171596,-100,4,2,1,85,0,1
188340,-100,4,2,1,75,0,0
191131,-100,4,2,1,60,0,0

[Colours]
Combo1 : 255,128,43
Combo2 : 0,117,234
Combo3 : 169,66,253
Combo4 : 234,0,47

[HitObjects]
212,56,6945,6,0,P|203:89|197:122,1,64,2|0,2:2|0:0,0:0:0:0:
120,156,7294,1,8,2:1:0:0:
120,156,7468,2,0,P|136:220|147:283,1,128,2|0,2:2|0:0,0:0:0:0:
208,344,7991,2,0,P|238:335|270:330,1,64,8|0,2:1|0:0,0:0:0:0:
348,372,8340,6,0,P|353:340|361:309,1,64,2|0,2:2|0:0,0:0:0:0:
424,244,8689,1,8,2:1:0:0:
424,244,8863,2,0,P|360:233|299:217,1,128,2|0,2:2|0:0,0:0:0:0:
220,264,9387,2,0,P|214:232|206:201,1,64,8|0,2:1|0:0,0:0:0:0:
44,188,9736,6,0,B|146:190|107:100|237:97,1,192,4|2,1:2|2:2,0:0:0:0:
296,120,10433,2,0,P|371:114|316:62,1,192,4|2,1:2|2:2,0:0:0:0:
206,100,11131,6,0,B|156:16|75:13|35:90|84:154|143:118,1,256,4|2,1:2|2:2,0:0:0:0:
132,123,12526,6,0,P|148:187|159:250,1,128,4|10,1:2|2:2,0:0:0:0:
212,320,13050,1,0,0:0:0:0:
272,252,13224,2,0,P|302:260|334:265,1,64,2|0,2:2|1:1,0:0:0:0:
404,332,13573,1,10,2:2:0:0:
404,332,13747,1,0,0:0:0:0:
504,260,13922,6,0,P|521:200|491:145,1,128,2|8,1:2|2:2,0:0:0:0:
416,96,14445,1,2,2:2:0:0:
344,148,14619,2,0,P|313:139|281:134,1,64,2|2,2:2|1:2,0:0:0:0:
228,64,14968,2,0,P|197:72|165:77,1,64,10|2,2:2|2:2,0:0:0:0:
92,128,15317,6,0,P|81:64|65:3,2,128,2|10|2,1:2|2:2|2:2,0:0:0:0:
28,192,16189,1,0,1:1:0:0:
92,256,16364,2,0,P|122:247|154:242,1,64,10|0,2:2|0:0,0:0:0:0:
216,176,16712,6,0,P|238:198|259:223,1,64,2|0,1:2|0:0,0:0:0:0:
344,256,17061,2,0,P|321:278|300:303,1,64,8|2,1:2|2:2,0:0:0:0:
291,315,17323,1,8,2:2:0:0:
281,327,17410,2,0,P|250:318|218:313,1,64,2|2,2:2|1:2,0:0:0:0:
132,364,17759,1,10,2:2:0:0:
132,364,17933,1,2,1:2:0:0:
44,300,18108,6,0,P|33:236|17:175,1,128,2|8,1:2|2:2,0:0:0:0:
92,124,18631,1,2,2:2:0:0:
92,124,18805,2,0,P|97:92|105:61,1,64,2|2,2:2|1:2,0:0:0:0:
172,0,19154,2,0,P|180:30|185:62,1,64,10|2,2:2|2:2,0:0:0:0:
268,104,19503,6,0,B|350:86|350:86|318:130,1,128,2|8,1:2|2:2,0:0:0:0:
245,189,20026,1,0,0:0:0:0:
245,189,20201,2,0,P|213:195|182:203,1,64,2|2,2:2|1:2,0:0:0:0:
132,136,20550,2,0,P|126:104|118:73,1,64,10|2,2:2|2:2,0:0:0:0:
20,32,20898,6,0,P|36:93|46:156,1,128,4|0,1:2|0:0,0:0:0:0:
156,344,21422,1,2,0:0:0:0:
156,344,21509,1,2,0:0:0:0:
156,344,21596,2,0,P|161:312|169:281,1,64,4|0,1:2|0:0,0:0:0:0:
104,236,21945,1,0,0:0:0:0:
288,128,22119,1,2,0:0:0:0:
288,128,22207,1,2,0:0:0:0:
288,128,22294,6,0,P|349:116|400:151,1,128,4|0,1:2|0:0,0:0:0:0:
208,88,22817,1,2,0:0:0:0:
208,88,22904,1,2,0:0:0:0:
208,88,22991,2,0,L|176:95,2,32,2|2|0,2:2|0:0|1:1,0:0:0:0:
104,128,23340,2,0,P|112:158|117:190,1,64,2|0,0:0|0:0,0:0:0:0:
156,340,23689,6,0,P|224:296|308:328,1,143.999995605469,4|8,1:2|2:2,0:0:0:0:
348,364,24212,1,2,2:2:0:0:
452,296,24387,2,0,P|443:260|436:225,1,71.9999978027344,2|2,2:2|1:2,0:0:0:0:
450,215,24648,1,2,2:2:0:0:
465,206,24736,2,0,P|471:170|480:135,1,71.9999978027344,8|2,2:2|2:2,0:0:0:0:
292,100,25084,6,0,B|268:52|268:52|292:-12,2,107.999996704102,2|2|2,1:2|2:2|2:2,0:0:0:0:
392,132,25782,2,0,P|397:96|406:61,1,71.9999978027344,2|2,2:2|1:2,0:0:0:0:
320,184,26131,1,10,2:2:0:0:
320,184,26305,1,2,2:2:0:0:
184,80,26480,6,0,P|149:88|113:94,1,71.9999978027344,2|2,1:2|2:2,0:0:0:0:
84,88,26741,1,2,2:2:0:0:
64,80,26829,2,0,P|58:44|49:9,1,71.9999978027344,8|2,2:2|2:2,0:0:0:0:
128,184,27177,1,2,2:2:0:0:
128,184,27352,1,2,1:2:0:0:
200,152,27526,2,0,P|191:117|185:81,1,71.9999978027344,10|2,2:2|2:2,0:0:0:0:
280,228,27875,6,0,P|314:219|350:213,1,71.9999978027344,2|2,1:2|2:2,0:0:0:0:
392,224,28137,2,0,P|396:188|405:153,1,71.9999978027344,2|2,2:2|2:2,0:0:0:0:
436,140,28398,1,2,2:2:0:0:
336,60,28573,1,0,1:1:0:0:
336,60,28747,1,2,1:2:0:0:
236,8,28922,2,0,P|244:42|250:78,1,71.9999978027344,10|2,2:2|2:2,0:0:0:0:
149,216,29270,6,0,P|205:174|275:183,1,143.999995605469,2|10,1:2|2:2,0:0:0:0:
428,280,29794,1,2,2:2:0:0:
428,280,29881,1,2,0:0:0:0:
428,280,29968,2,0,P|419:314|413:350,1,71.9999978027344,2|2,0:0|1:2,0:0:0:0:
340,376,30317,1,10,2:2:0:0:
340,376,30491,1,2,2:2:0:0:
212,296,30666,6,0,P|247:290|282:281,1,71.9999978027344,2|2,1:2|2:2,0:0:0:0:
164,372,31015,1,10,2:2:0:0:
80,332,31189,2,0,P|67:261|49:191,1,143.999995605469,2|0,2:2|1:1,0:0:0:0:
136,32,31712,1,10,2:2:0:0:
136,32,31887,1,2,2:2:0:0:
8,112,32061,6,0,B|106:70|80:152|182:109,1,167.999994873047,4|0,1:2|0:0,0:0:0:0:
276,16,32759,2,0,P|252:96|234:178,1,167.999994873047,4|2,1:2|2:2,0:0:0:0:
172,114,33457,6,0,P|252:90|334:72,1,167.999994873047,4|0,1:2|0:0,0:0:0:0:
405,32,34154,1,2,2:2:0:0:
405,32,34329,1,0,1:1:0:0:
512,164,34503,2,0,L|388:130,1,128,8|2,2:3|2:2,0:0:0:0:
100,148,43224,6,0,P|124:257|147:366,1,223.999993164063,2|8,2:2|2:1,0:0:0:0:
272,380,44619,6,0,P|247:270|224:161,1,223.999993164063,2|8,2:2|2:1,0:0:0:0:
224,161,46015,6,0,P|279:116|344:131,1,128,2|0,1:2|1:1,0:0:0:0:
400,180,46538,1,2,2:2:0:0:
500,112,46712,2,0,P|492:80|485:49,1,64,8|2,1:3|2:2,0:0:0:0:
408,8,47061,1,2,1:2:0:0:
348,72,47236,1,2,2:2:0:0:
276,20,47410,6,0,B|200:8|224:64|136:52,1,128,0|0,1:1|1:1,0:0:0:0:
84,0,47933,1,2,2:2:0:0:
8,96,48108,2,0,P|15:127|22:158,1,64,8|2,1:3|2:2,0:0:0:0:
112,168,48457,2,0,P|104:199|97:230,1,64,2|2,1:2|2:2,0:0:0:0:
4,340,48805,6,0,P|65:322|128:309,1,128,2|2,1:2|1:2,0:0:0:0:
204,360,49329,1,2,2:2:0:0:
280,312,49503,2,0,P|272:280|265:249,1,64,8|2,1:3|2:2,0:0:0:0:
196,192,49852,1,2,1:2:0:0:
280,116,50026,6,0,P|342:111|388:153,2,128,2|2|2,2:2|2:2|2:2,0:0:0:0:
192,104,50898,2,0,P|185:72|177:41,1,64,8|2,1:3|2:2,0:0:0:0:
108,136,51247,2,0,P|115:167|122:198,1,64,0|2,1:1|2:2,0:0:0:0:
236,268,51596,5,2,1:2:0:0:
236,268,51770,1,2,2:2:0:0:
300,204,51945,2,0,P|331:211|362:218,1,64,2|2,1:2|2:2,0:0:0:0:
444,144,52294,2,0,P|488:199|473:264,1,128,8|2,1:3|1:2,0:0:0:0:
424,344,52817,6,0,P|417:312|409:281,1,64,2|0,2:2|1:1,0:0:0:0:
362,218,53166,1,2,2:2:0:0:
296,276,53340,2,0,P|264:268|233:261,1,64,2|0,1:2|0:0,0:0:0:0:
148,196,53689,2,0,P|179:189|210:181,1,64,8|2,1:3|2:2,0:0:0:0:
112,280,54038,1,2,1:2:0:0:
112,280,54212,1,2,2:2:0:0:
4,188,54387,6,0,P|21:126|34:63,1,128,2|2,1:2|1:2,0:0:0:0:
100,4,54910,1,2,2:2:0:0:
212,96,55084,2,0,P|244:88|275:81,1,64,8|2,1:3|2:2,0:0:0:0:
328,16,55433,2,0,P|360:24|391:31,1,64,2|2,1:2|2:2,0:0:0:0:
504,156,55782,5,0,1:1:0:0:
384,104,55957,1,0,1:1:0:0:
512,0,56131,2,0,P|504:32|497:63,1,64,0|0,1:1|1:1,0:0:0:0:
348,204,56480,1,0,1:1:0:0:
504,156,56654,1,2,1:2:0:0:
328,16,56829,1,10,2:2:0:0:
312,4,57177,6,0,B|254:16|254:16|221:-1|221:-1|159:11,1,160,4|10,1:1|2:2,0:0:0:0:
32,96,57701,1,2,0:0:0:0:
32,96,57788,1,2,0:0:0:0:
32,96,57875,1,2,2:2:0:0:
136,144,58050,1,0,1:1:0:0:
80,0,58224,1,10,2:2:0:0:
0,188,58398,6,0,B|80:172|64:264|176:236,1,160,2|2,2:2|2:2,0:0:0:0:
300,152,58922,1,8,2:2:0:0:
200,60,59096,1,2,2:2:0:0:
200,60,59183,1,2,0:0:0:0:
200,60,59270,2,0,P|210:98|219:137,1,80,2|2,0:0|1:2,0:0:0:0:
280,300,59619,1,10,2:2:0:0:
143,241,59794,1,2,2:2:0:0:
300,152,59968,6,0,P|375:135|432:187,1,160,2|10,1:2|2:2,0:0:0:0:
452,292,60491,1,2,0:0:0:0:
452,292,60579,1,2,0:0:0:0:
452,292,60666,2,0,P|413:281|374:272,1,80,2|0,2:2|1:1,0:0:0:0:
252,260,61015,1,10,2:2:0:0:
312,360,61189,1,2,2:2:0:0:
160,272,61364,5,0,1:1:0:0:
320,204,61538,1,2,1:2:0:0:
216,348,61712,1,8,2:2:0:0:
68,232,61887,2,0,P|49:143|30:55,1,160,2|2,2:2|1:2,0:0:0:0:
116,12,62410,1,10,2:2:0:0:
116,12,62584,1,2,2:2:0:0:
292,104,62759,6,0,B|405:79|405:79|384:104|366:128,1,160,2|10,1:2|2:2,0:0:0:0:
216,160,63282,1,2,2:2:0:0:
216,160,63369,1,2,0:0:0:0:
216,160,63457,2,0,P|200:123|204:84,1,80,2|0,0:0|1:1,0:0:0:0:
300,192,63805,2,0,P|315:228|311:267,1,80,10|0,2:2|0:0,0:0:0:0:
116,352,64154,6,0,P|173:300|248:316,1,160,2|10,1:2|2:2,0:0:0:0:
368,376,64677,1,2,2:2:0:0:
368,376,64765,1,2,0:0:0:0:
368,376,64852,2,0,P|377:337|387:298,1,80,2|0,0:0|1:1,0:0:0:0:
472,248,65201,2,0,P|461:209|452:170,1,80,10|0,2:2|0:0,0:0:0:0:
512,8,65550,6,0,B|406:13|463:67|342:76,1,160,4|2,1:2|2:2,0:0:0:0:
300,20,66073,1,2,2:2:0:0:
216,152,66247,2,0,B|181:212|213:260|213:260|225:235|269:219,1,160,4|2,1:2|2:2,0:0:0:0:
304,164,66770,1,2,2:2:0:0:
116,24,66945,6,0,B|57:38|7:51|7:51|30:61|49:73,1,160,4|2,1:2|2:2,0:0:0:0:
196,160,67468,1,2,2:2:0:0:
196,160,67555,1,2,0:0:0:0:
196,160,67643,2,0,P|185:198|176:237,1,80,2|2,2:2|1:2,0:0:0:0:
24,312,67991,1,10,2:2:0:0:
40,328,68340,6,0,B|68:312|96:344|96:344|116:368|152:360,1,120,4|0,1:1|0:0,0:0:0:0:
216,332,68689,2,0,P|225:293|235:254,1,80,10|2,2:2|0:0,0:0:0:0:
244,248,68951,1,2,0:0:0:0:
256,240,69038,1,2,2:2:0:0:
160,180,69212,1,0,1:1:0:0:
352,288,69387,1,10,2:2:0:0:
320,116,69561,6,0,P|280:117|247:139,1,80,2|0,2:2|1:1,0:0:0:0:
416,212,69910,2,0,P|455:210|488:188,1,80,2|8,2:2|2:2,0:0:0:0:
392,44,70259,1,2,2:2:0:0:
392,44,70346,1,2,0:0:0:0:
392,44,70433,1,2,0:0:0:0:
340,164,70608,1,2,1:2:0:0:
472,96,70782,1,8,2:2:0:0:
284,8,70957,6,0,P|294:46|303:85,1,80,2|0,2:2|1:1,0:0:0:0:
216,212,71305,2,0,P|225:173|235:134,1,80,2|8,2:2|2:2,0:0:0:0:
144,24,71654,1,2,2:2:0:0:
144,24,71741,1,2,0:0:0:0:
144,24,71829,1,2,0:0:0:0:
12,148,72003,2,0,P|92:104|160:132,1,160,2|2,1:2|2:2,0:0:0:0:
268,260,72526,5,0,1:1:0:0:
92,192,72701,1,2,1:2:0:0:
248,112,72875,1,8,2:2:0:0:
172,248,73050,1,2,2:2:0:0:
172,248,73137,1,2,0:0:0:0:
172,248,73224,2,0,P|182:286|191:325,1,80,2|2,0:0|1:2,0:0:0:0:
348,216,73573,2,0,P|357:177|367:138,1,80,10|2,2:2|2:2,0:0:0:0:
512,292,73922,6,0,B|406:297|463:351|342:360,1,160,2|10,1:2|2:2,0:0:0:0:
268,260,74445,1,2,2:2:0:0:
268,260,74532,1,2,0:0:0:0:
268,260,74619,2,0,P|255:222|261:183,1,80,2|0,0:0|1:1,0:0:0:0:
360,61,74968,2,0,P|372:98|366:137,1,80,10|0,2:2|0:0,0:0:0:0:
184,136,75317,6,0,B|70:111|70:111|92:136|109:160,1,160,2|10,1:2|2:2,0:0:0:0:
144,232,75840,1,2,2:2:0:0:
144,232,75927,1,2,0:0:0:0:
144,232,76015,2,0,P|133:270|124:309,1,80,2|0,0:0|1:1,0:0:0:0:
20,376,76364,2,0,P|10:337|0:298,1,80,10|0,2:2|0:0,0:0:0:0:
184,136,76712,6,0,B|289:141|232:195|353:204,1,160,4|2,1:2|2:2,0:0:0:0:
392,96,77236,1,2,2:2:0:0:
392,96,77323,1,2,0:0:0:0:
392,96,77410,2,0,P|361:212|338:329,1,240,4|0,1:2|0:0,0:0:0:0:
196,224,78108,6,0,B|148:144|72:141|34:214|80:274|136:240,1,240,4|2,1:2|2:2,0:0:0:0:
265,287,78805,2,0,P|274:244|286:198,1,80,2|0,2:2|1:1,0:0:0:0:
244,80,79154,1,8,2:3:0:0:
244,80,79503,6,0,P|300:71|366:58,1,111.999996582031,2|2,2:2|2:2,0:0:0:0:
428,92,80026,2,0,P|445:144|431:198,1,111.999996582031,2|0,0:0|0:0,0:0:0:0:
372,248,80550,1,2,0:0:0:0:
292,192,80724,1,2,2:2:0:0:
292,192,80898,6,0,P|236:202|181:211,1,111.999996582031,2|2,2:2|2:2,0:0:0:0:
104,196,81422,1,2,2:2:0:0:
104,196,81596,2,0,P|86:248|100:302,1,111.999996582031,8|2,2:1|2:2,0:0:0:0:
284,372,82294,6,0,P|292:316|303:261,1,111.999996582031,2|0,2:2|0:0,0:0:0:0:
368,220,82817,2,0,P|357:164|348:109,1,111.999996582031,2|0,0:0|0:0,0:0:0:0:
316,36,83340,1,2,0:0:0:0:
228,76,83515,1,2,2:2:0:0:
228,76,83689,6,0,P|172:65|117:56,1,111.999996582031,2|2,2:2|2:2,0:0:0:0:
44,80,84212,2,0,P|26:132|40:186,1,111.999996582031,2|2,2:2|2:2,0:0:0:0:
108,228,84736,1,2,2:2:0:0:
248,160,85084,6,0,P|303:151|358:140,1,111.999996582031,2|0,2:2|0:0,0:0:0:0:
432,168,85608,2,0,P|452:219|443:273,1,111.999996582031,2|0,0:0|0:0,0:0:0:0:
392,332,86131,1,2,0:0:0:0:
296,288,86305,1,2,2:2:0:0:
296,288,86480,6,0,P|240:298|185:307,1,111.999996582031,2|2,2:2|2:2,0:0:0:0:
116,336,87003,1,2,2:2:0:0:
116,336,87177,2,0,P|95:284|104:230,1,111.999996582031,8|2,2:1|2:2,0:0:0:0:
103,230,87875,6,0,P|166:219|229:207,1,128,4|0,1:2|0:0,0:0:0:0:
388,88,88398,1,2,0:0:0:0:
388,88,88486,1,2,0:0:0:0:
388,88,88573,2,0,P|382:56|377:24,1,64,4|0,1:2|0:0,0:0:0:0:
304,0,88922,1,0,0:0:0:0:
336,196,89096,1,2,0:0:0:0:
336,196,89183,1,2,0:0:0:0:
336,196,89270,6,0,P|405:172|466:194,1,128,4|0,1:2|0:0,0:0:0:0:
320,292,89794,1,2,2:2:0:0:
192,164,89968,2,0,P|160:169|128:174,1,64,0|0,1:1|3:3,0:0:0:0:
24,252,90317,2,0,P|28:276|32:301,3,32,0|0|0|0,3:3|3:0|3:3|3:0,0:0:0:0:
48,316,90666,6,0,P|79:310|111:305,1,64,4|0,1:2|0:0,0:0:0:0:
232,352,91015,2,0,P|237:320|242:288,1,64,10|2,2:2|2:2,0:0:0:0:
260,276,91276,1,2,0:0:0:0:
268,264,91364,2,0,P|262:232|257:200,1,64,2|0,2:2|1:1,0:0:0:0:
184,96,91712,1,10,2:2:0:0:
140,188,91887,1,2,2:2:0:0:
24,128,92061,6,0,P|55:122|87:117,1,64,2|2,1:2|2:2,0:0:0:0:
184,16,92410,2,0,P|189:47|194:79,1,64,10|2,2:2|2:2,0:0:0:0:
184,96,92672,1,2,0:0:0:0:
176,108,92759,1,2,2:2:0:0:
260,180,92933,1,2,1:2:0:0:
356,88,93108,2,0,P|350:56|345:24,1,64,10|0,2:2|0:0,0:0:0:0:
456,192,93457,6,0,P|444:254|434:318,2,128,0|8|2,1:1|2:2|2:2,0:0:0:0:
356,88,94329,1,2,1:2:0:0:
304,152,94503,2,0,P|272:146|240:141,1,64,10|2,2:2|2:2,0:0:0:0:
96,180,94852,6,0,P|72:121|86:60,2,128,0|8|2,1:1|2:2|2:2,0:0:0:0:
176,264,95724,1,2,1:2:0:0:
220,196,95898,2,0,P|251:201|283:206,1,64,10|0,2:2|0:0,0:0:0:0:
412,272,96247,5,0,1:1:0:0:
312,308,96422,1,0,0:0:0:0:
432,264,96596,2,0,P|426:232|421:200,1,64,10|2,2:2|2:2,0:0:0:0:
344,88,96945,2,0,P|275:64|214:86,1,128,2|10,2:2|2:2,0:0:0:0:
152,148,97468,1,2,2:2:0:0:
76,16,97643,6,0,P|81:47|86:79,1,64,2|2,1:2|2:2,0:0:0:0:
28,200,97991,2,0,P|22:168|17:136,1,64,10|2,2:2|2:2,0:0:0:0:
12,128,98253,1,2,0:0:0:0:
4,116,98340,1,2,2:2:0:0:
112,224,98515,1,2,1:2:0:0:
152,148,98689,2,0,P|183:153|215:158,1,64,10|0,2:2|0:0,0:0:0:0:
360,88,99038,6,0,B|320:192|408:168|368:276,1,192,4|2,1:2|2:2,0:0:0:0:
448,340,99736,2,0,P|359:303|265:282,1,192,4|2,1:2|2:2,0:0:0:0:
60,348,100433,6,0,P|54:316|49:284,1,64,4|0,1:2|0:0,0:0:0:0:
120,256,100695,2,0,P|125:224|130:192,1,64,0|0,1:1|0:0,0:0:0:0:
64,144,100957,1,2,1:2:0:0:
188,48,101131,1,2,2:2:0:0:
188,48,101218,1,2,0:0:0:0:
188,48,101305,1,2,1:2:0:0:
256,108,101480,1,8,2:3:0:0:
264,116,101829,5,2,2:2:0:0:
347,145,110201,6,0,P|324:254|300:364,1,223.999993164063,2|8,2:2|2:1,0:0:0:0:
424,352,111596,6,0,P|447:242|471:133,1,223.999993164063,2|8,2:2|2:1,0:0:0:0:
471,133,112991,6,0,P|416:88|351:103,1,128,2|0,1:2|1:1,0:0:0:0:
300,156,113515,1,2,2:2:0:0:
216,40,113689,2,0,P|222:71|227:102,1,64,8|2,1:3|2:2,0:0:0:0:
164,200,114038,1,2,1:2:0:0:
104,108,114212,1,2,2:2:0:0:
168,288,114387,6,0,B|238:288|208:239|307:237,1,128,0|0,1:1|1:1,0:0:0:0:
348,312,114910,1,2,2:2:0:0:
408,188,115084,2,0,P|413:219|419:250,1,64,8|2,1:3|2:2,0:0:0:0:
484,368,115433,2,0,P|489:336|495:305,1,64,2|2,1:2|2:2,0:0:0:0:
282,238,115782,6,0,P|219:250|156:261,1,128,2|2,1:2|1:2,0:0:0:0:
92,340,116305,1,2,2:2:0:0:
16,228,116480,2,0,P|10:196|4:165,1,64,8|2,1:3|2:2,0:0:0:0:
48,92,116829,1,2,1:2:0:0:
188,168,117003,6,0,P|156:173|125:179,1,64,2|0,2:2|1:1,0:0:0:0:
244,96,117352,2,0,P|275:90|306:84,1,64,2|0,2:2|1:1,0:0:0:0:
152,8,117701,2,0,P|158:39|163:70,1,64,2|8,2:2|1:3,0:0:0:0:
256,224,118050,2,0,P|316:238|372:210,1,128,2|0,2:2|0:0,0:0:0:0:
384,72,118573,5,2,1:2:0:0:
308,152,118747,1,2,2:2:0:0:
460,128,118922,2,0,P|466:97|471:66,1,64,2|2,1:2|2:2,0:0:0:0:
316,16,119270,2,0,P|253:28|190:39,1,128,8|2,1:3|1:2,0:0:0:0:
40,16,119794,6,0,P|46:47|51:78,1,64,2|0,2:2|1:1,0:0:0:0:
108,224,120143,2,0,P|119:160|130:98,1,128,2|0,2:2|0:0,0:0:0:0:
244,163,120666,2,0,P|275:157|306:152,1,64,8|2,1:3|2:2,0:0:0:0:
420,268,121015,1,2,1:2:0:0:
324,232,121189,1,2,2:2:0:0:
488,136,121364,6,0,P|516:191|502:253,1,128,2|2,1:2|1:2,0:0:0:0:
420,268,121887,1,2,2:2:0:0:
280,376,122061,2,0,P|273:344|268:312,1,64,8|2,1:3|2:2,0:0:0:0:
335,168,122410,2,0,P|328:199|323:231,1,64,2|2,1:2|2:2,0:0:0:0:
156,324,122759,5,0,1:1:0:0:
244,240,122933,1,0,1:1:0:0:
72,148,123108,2,0,P|78:179|83:211,1,64,0|0,1:1|1:1,0:0:0:0:
248,328,123457,1,0,1:1:0:0:
72,288,123631,1,2,1:2:0:0:
240,152,123805,1,10,2:2:0:0:
256,160,124154,6,0,B|344:160|308:224|424:224,1,160,4|10,1:1|2:2,0:0:0:0:
512,48,124677,1,2,0:0:0:0:
512,48,124765,1,2,0:0:0:0:
512,48,124852,1,2,2:2:0:0:
352,96,125026,1,0,1:1:0:0:
512,176,125201,1,10,2:2:0:0:
328,12,125375,6,0,P|249:27|170:40,1,160,2|2,2:2|2:2,0:0:0:0:
20,136,125898,1,8,2:2:0:0:
200,208,126073,1,2,2:2:0:0:
200,208,126160,1,2,0:0:0:0:
200,208,126247,2,0,P|215:171|213:131,1,80,2|2,0:0|1:2,0:0:0:0:
56,288,126596,1,10,2:2:0:0:
116,156,126770,1,2,2:2:0:0:
228,316,126945,6,0,B|287:305|287:305|318:324|318:324|405:309,1,160,2|10,1:2|2:2,0:0:0:0:
496,224,127468,1,2,0:0:0:0:
496,224,127555,1,2,0:0:0:0:
496,224,127643,2,0,P|488:184|481:145,1,80,2|0,2:2|1:1,0:0:0:0:
344,120,127991,1,10,2:2:0:0:
404,200,128166,1,2,2:2:0:0:
248,104,128340,5,0,1:1:0:0:
416,52,128515,1,2,1:2:0:0:
288,200,128689,1,8,2:2:0:0:
100,124,128864,2,0,B|54:70|101:14|101:14|108:32|123:45,1,160,2|2,2:2|1:2,0:0:0:0:
248,104,129387,1,10,2:2:0:0:
181,177,129561,1,2,2:2:0:0:
404,200,129736,6,0,B|510:181|510:181|474:232,1,160,2|10,1:2|2:2,0:0:0:0:
364,344,130259,1,2,2:2:0:0:
364,344,130346,1,2,0:0:0:0:
364,344,130433,2,0,P|357:304|349:265,1,80,2|0,0:0|1:1,0:0:0:0:
188,260,130782,2,0,P|227:252|266:245,1,80,10|0,2:2|0:0,0:0:0:0:
36,176,131131,6,0,B|-8:228|-8:228|26:313,1,160,2|10,1:2|2:2,0:0:0:0:
96,380,131654,2,0,P|102:340|110:301,1,80,2|2,2:2|0:0,0:0:0:0:
152,154,132003,1,0,1:1:0:0:
269,219,132177,2,0,P|229:226|190:233,1,80,10|0,2:2|0:0,0:0:0:0:
0,53,132526,6,0,P|65:11|142:28,1,160,4|2,1:2|2:2,0:0:0:0:
83,100,133050,1,2,2:2:0:0:
240,4,133224,2,0,P|224:82|211:161,1,160,4|2,1:2|2:2,0:0:0:0:
124,200,133747,1,2,2:2:0:0:
196,356,133922,6,0,B|284:356|248:292|364:292,1,160,4|2,1:2|2:2,0:0:0:0:
472,316,134445,1,2,2:2:0:0:
472,316,134532,1,2,0:0:0:0:
472,316,134619,2,0,P|478:276|486:237,1,80,2|2,2:2|1:2,0:0:0:0:
432,108,134968,1,10,2:2:0:0:
416,120,135317,6,0,B|353:109|353:109|330:80|330:80|271:70,1,160,4|10,1:1|2:2,0:0:0:0:
144,160,135840,1,2,0:0:0:0:
144,160,135927,1,2,0:0:0:0:
144,160,136015,2,0,P|151:199|158:238,1,80,2|0,2:2|1:1,0:0:0:0:
292,352,136364,1,10,2:2:0:0:
332,216,136538,6,0,P|293:206|255:217,1,80,2|0,2:2|1:1,0:0:0:0:
412,304,136887,2,0,P|450:313|488:302,1,80,2|8,2:2|2:2,0:0:0:0:
384,136,137236,1,2,2:2:0:0:
384,136,137323,1,2,0:0:0:0:
384,136,137410,1,2,0:0:0:0:
255,217,137584,1,2,1:2:0:0:
448,192,137759,1,8,2:2:0:0:
268,44,137933,6,0,P|275:83|282:122,1,80,2|0,2:2|1:1,0:0:0:0:
148,264,138282,2,0,P|154:224|162:185,1,80,2|8,2:2|2:2,0:0:0:0:
88,120,138631,1,2,2:2:0:0:
88,120,138718,1,2,0:0:0:0:
88,120,138805,1,2,0:0:0:0:
255,217,138980,2,0,B|343:217|307:153|423:153,1,160,2|2,1:2|2:2,0:0:0:0:
460,20,139503,5,0,1:1:0:0:
312,92,139677,1,2,1:2:0:0:
480,160,139852,1,8,2:2:0:0:
336,0,140026,1,2,2:2:0:0:
336,0,140113,1,2,0:0:0:0:
336,0,140201,2,0,P|296:7|257:14,1,80,2|2,0:0|1:2,0:0:0:0:
160,0,140550,2,0,P|167:39|174:78,1,80,10|2,2:2|2:2,0:0:0:0:
0,252,140898,6,0,P|60:203|138:210,1,160,2|10,1:2|2:2,0:0:0:0:
232,188,141422,1,2,2:2:0:0:
232,188,141509,1,2,0:0:0:0:
232,188,141596,2,0,P|224:227|217:266,1,80,2|0,0:0|1:1,0:0:0:0:
100,360,141945,2,0,P|93:320|85:281,1,80,10|0,2:2|0:0,0:0:0:0:
0,120,142294,6,0,B|88:120|52:184|168:184,1,160,2|10,1:2|2:2,0:0:0:0:
292,112,142817,1,2,2:2:0:0:
292,112,142904,1,2,0:0:0:0:
292,112,142991,2,0,P|301:73|290:35,1,80,2|0,0:0|1:1,0:0:0:0:
232,188,143340,2,0,P|222:226|233:264,1,80,10|0,2:2|0:0,0:0:0:0:
440,292,143689,6,0,P|362:284|301:333,1,160,4|2,1:2|2:2,0:0:0:0:
392,372,144212,1,2,2:2:0:0:
512,232,144387,2,0,P|496:153|483:74,1,160,4|2,1:2|2:2,0:0:0:0:
428,8,144910,1,0,0:0:0:0:
284,100,145084,6,0,B|247:27|155:16|111:88|159:148|221:125,1,240,4|2,1:2|2:2,0:0:0:0:
361,162,145782,2,0,P|368:123|376:84,1,80,2|0,2:2|1:1,0:0:0:0:
266,191,146131,2,0,P|273:230|280:269,1,80,8|0,2:3|0:0,0:0:0:0:
392,372,146480,5,2,2:2:0:0:
216,88,156247,5,0,3:3:0:0:
288,128,156422,2,0,P|350:115|413:104,1,111.999996582031,0|0,3:3|3:3,0:0:0:0:
468,140,156945,2,0,P|461:171|456:203,1,55.9999982910157,0|0,0:0|3:3,0:0:0:0:
384,220,157294,2,0,P|390:251|395:283,1,55.9999982910157,2|2,1:2|1:2,0:0:0:0:
256,320,157643,6,0,P|200:348|139:334,1,128,4|2,1:2|1:2,0:0:0:0:
88,272,158166,1,0,0:0:0:0:
24,376,158340,2,0,P|18:344|12:312,1,64,8|2,1:3|2:2,0:0:0:0:
88,272,158689,2,0,P|93:240|99:208,1,64,2|2,1:2|2:2,0:0:0:0:
0,148,159038,6,0,P|63:136|125:125,1,128,2|2,1:2|1:2,0:0:0:0:
176,60,159561,1,2,2:2:0:0:
296,160,159736,2,0,P|289:191|284:223,1,64,8|2,1:3|2:2,0:0:0:0:
208,300,160084,2,0,P|202:268|196:236,1,64,2|2,1:2|2:2,0:0:0:0:
332,340,160433,6,0,P|363:333|395:328,1,64,2|2,1:2|2:2,0:0:0:0:
480,260,160782,2,0,P|448:254|416:248,1,64,2|2,1:2|2:2,0:0:0:0:
296,160,161131,2,0,P|267:104|281:43,1,128,8|2,1:3|1:2,0:0:0:0:
360,92,161654,1,2,2:2:0:0:
228,220,161829,6,0,B|158:220|188:171|89:169,2,128,2|2|8,1:2|1:2|1:3,0:0:0:0:
296,160,162701,1,0,0:0:0:0:
228,104,162875,2,0,P|222:72|216:40,1,64,2|0,1:2|0:0,0:0:0:0:
384,168,163224,6,0,P|372:230|361:293,1,128,2|0,1:2|1:1,0:0:0:0:
248,356,163747,1,2,3:2:0:0:
127,294,163922,1,8,1:3:0:0:
127,294,164096,2,0,P|190:282|252:271,1,128,2|2,3:2|3:2,0:0:0:0:
296,160,164619,6,0,P|301:128|307:96,1,64,2|2,1:2|3:2,0:0:0:0:
372,4,164968,2,0,P|377:35|383:67,1,64,2|2,1:2|3:2,0:0:0:0:
224,108,165317,2,0,B|154:108|184:59|85:57,1,128,8|2,1:3|1:2,0:0:0:0:
48,8,165840,1,0,3:3:0:0:
12,128,166015,5,2,1:2:0:0:
14,143,166102,1,0,1:0:0:0:
17,159,166189,1,0,1:1:0:0:
20,175,166276,1,0,1:0:0:0:
23,191,166364,2,0,P|25:206|28:222,3,32,2|0|2|0,1:2|1:0|1:2|1:0,0:0:0:0:
92,280,166712,2,0,P|107:277|123:274,3,32,8|0|2|0,1:3|1:0|1:2|1:0,0:0:0:0:
176,212,167061,2,0,P|191:214|207:217,3,32,2|0|0|0,1:2|1:0|1:1|1:0,0:0:0:0:
272,292,167410,5,2,1:2:0:0:
287,290,167497,1,0,1:1:0:0:
303,287,167584,1,2,1:2:0:0:
319,284,167671,1,0,1:1:0:0:
335,281,167759,2,0,P|350:278|366:275,3,32,0|0|2|0,1:1|1:1|1:2|1:1,0:0:0:0:
448,288,168108,1,8,1:3:0:0:
450,273,168195,1,0,1:1:0:0:
453,257,168282,1,0,1:1:0:0:
456,241,168369,1,0,1:1:0:0:
460,224,168457,1,10,2:2:0:0:
388,184,168631,5,0,1:1:0:0:
388,184,168718,1,0,1:1:0:0:
388,184,168805,1,2,2:2:0:0:
308,136,169154,1,2,2:2:0:0:
308,136,170201,5,2,2:2:0:0:
236,88,170550,1,2,2:2:0:0:
308,136,170898,2,0,P|346:103|338:199,1,224,0|0,1:1|0:0,0:0:0:0:
288,252,171596,6,0,P|296:291|303:330,1,80,4|0,1:1|0:0,0:0:0:0:
180,152,171945,1,10,2:2:0:0:
116,268,172119,1,2,2:2:0:0:
116,268,172207,1,2,2:2:0:0:
116,268,172294,2,0,P|155:260|194:253,1,80,2|2,2:2|1:2,0:0:0:0:
350,201,172643,2,0,P|361:163|352:124,1,80,10|0,2:2|0:0,0:0:0:0:
232,12,172991,5,2,1:2:0:0:
274,162,173166,1,0,1:1:0:0:
156,63,173340,1,10,2:2:0:0:
351,19,173515,1,2,2:2:0:0:
351,19,173602,1,2,2:2:0:0:
351,19,173689,2,0,P|343:58|336:97,1,80,2|2,2:2|1:2,0:0:0:0:
263,194,174038,1,10,2:2:0:0:
220,106,174212,1,2,2:2:0:0:
50,197,174387,6,0,P|89:188|128:181,1,80,2|0,1:2|0:0,0:0:0:0:
130,57,174736,2,0,P|90:65|51:72,1,80,10|2,2:2|2:2,0:0:0:0:
42,85,174997,1,2,2:2:0:0:
30,97,175084,1,2,2:2:0:0:
50,197,175259,1,2,1:2:0:0:
220,106,175433,2,0,P|211:145|204:184,1,80,10|0,2:2|0:0,0:0:0:0:
56,324,175782,6,0,P|117:277|195:287,1,160,2|10,1:2|2:2,0:0:0:0:
276,360,176305,1,2,2:2:0:0:
276,360,176393,1,2,2:2:0:0:
276,360,176480,2,0,P|283:320|291:281,1,80,2|2,2:2|1:2,0:0:0:0:
416,168,176829,1,10,2:2:0:0:
380,276,177003,1,0,0:0:0:0:
244,120,177177,6,0,B|156:120|192:184|76:184,1,160,4|0,1:2|0:0,0:0:0:0:
304,196,177701,1,2,0:0:0:0:
304,196,177788,1,2,0:0:0:0:
304,196,177875,2,0,P|337:126|311:51,1,160,4|0,1:2|0:0,0:0:0:0:
156,8,178398,1,2,0:0:0:0:
156,8,178486,1,2,0:0:0:0:
156,8,178573,6,0,P|164:47|171:86,1,80,4|0,1:2|0:0,0:0:0:0:
80,192,178922,2,0,P|87:152|95:113,1,80,0|2,0:0|0:0,0:0:0:0:
88,104,179183,1,2,0:0:0:0:
80,92,179270,1,2,0:0:0:0:
204,160,179445,1,2,1:2:0:0:
344,24,179619,2,0,P|335:63|328:102,1,80,10|2,2:2|2:2,0:0:0:0:
508,204,179968,6,0,B|420:204|456:268|340:268,1,160,4|10,1:1|2:2,0:0:0:0:
204,160,180491,1,2,0:0:0:0:
204,160,180578,1,2,0:0:0:0:
204,160,180666,2,0,P|211:199|218:238,1,80,2|0,2:2|1:1,0:0:0:0:
320,344,181015,1,10,2:2:0:0:
372,184,181189,6,0,P|335:166|296:168,1,80,2|0,2:2|1:1,0:0:0:0:
143,254,181538,2,0,P|182:256|217:238,1,80,2|8,2:2|2:2,0:0:0:0:
48,88,181887,1,2,2:2:0:0:
48,88,181974,1,2,0:0:0:0:
48,88,182061,1,2,0:0:0:0:
220,156,182236,1,2,1:2:0:0:
40,224,182410,1,8,2:2:0:0:
168,84,182584,6,0,P|161:45|154:6,1,80,2|0,2:2|1:1,0:0:0:0:
312,128,182933,2,0,P|305:167|298:206,1,80,2|8,2:2|2:2,0:0:0:0:
224,256,183282,1,2,2:2:0:0:
224,256,183369,1,2,2:2:0:0:
224,256,183457,1,2,2:2:0:0:
32,304,183631,2,0,B|120:304|84:368|200:368,1,160,2|2,1:2|2:2,0:0:0:0:
356,216,184154,5,0,1:1:0:0:
268,340,184329,1,2,1:2:0:0:
216,164,184503,1,8,2:2:0:0:
372,312,184677,1,2,2:2:0:0:
372,312,184765,1,2,2:2:0:0:
372,312,184852,2,0,P|411:305|450:298,1,80,2|2,2:2|1:2,0:0:0:0:
488,128,185201,2,0,P|449:135|410:142,1,80,10|2,2:2|2:2,0:0:0:0:
160,240,185550,6,0,P|127:170|153:95,1,160,2|10,1:2|2:2,0:0:0:0:
256,20,186073,1,2,2:2:0:0:
256,20,186160,1,2,2:2:0:0:
256,20,186247,2,0,P|249:59|242:98,1,80,2|0,2:2|1:1,0:0:0:0:
332,224,186596,2,0,P|325:185|318:146,1,80,10|0,2:2|0:0,0:0:0:0:
140,80,186945,6,0,B|29:60|29:60|68:116,1,160,2|10,1:2|2:2,0:0:0:0:
128,184,187468,1,2,2:2:0:0:
128,184,187555,1,2,2:2:0:0:
128,184,187643,2,0,P|121:223|114:262,1,80,2|0,2:2|1:1,0:0:0:0:
40,344,187991,2,0,P|33:305|26:266,1,80,10|0,2:2|0:0,0:0:0:0:
216,160,188340,6,0,B|304:160|268:224|384:224,1,160,4|2,1:2|2:2,0:0:0:0:
432,272,188864,1,2,2:2:0:0:
492,68,189038,2,0,P|422:35|348:61,1,160,4|2,1:2|2:2,0:0:0:0:
216,8,189561,1,2,2:2:0:0:
216,8,189648,1,2,2:2:0:0:
216,8,189736,6,0,P|232:87|245:166,1,160,4|2,1:2|2:2,0:0:0:0:
316,292,190259,1,2,2:2:0:0:
375,186,190433,2,0,P|414:179|453:172,1,80,2|0,2:2|1:1,0:0:0:0:
306,300,190782,2,0,P|267:293|228:286,1,80,10|0,2:2|0:0,0:0:0:0:
99,210,191131,5,2,2:2:0:0:
