osu file format v14

[General]
AudioFilename: audio.mp3
AudioLeadIn: 0
PreviewTime: 53798
Countdown: 0
SampleSet: Normal
StackLeniency: 0.7
Mode: 1
LetterboxInBreaks: 0
WidescreenStoryboard: 1

[Editor]
Bookmarks: 19111
DistanceSpacing: 0.8
BeatDivisor: 4
GridSize: 32
TimelineZoom: 2.5

[Metadata]
Title:SLUMP -Japanese ver.-
TitleUnicode:SLUMP -Japanese ver.-
Artist:Stray Kids
ArtistUnicode:Stray Kids
Creator:ikin5050
Version:Zhuokin's Muzukashii
Source:Tower of God
Tags:Zhuosh zhuokin tog kami no tou ending ed SIU Sin-ui Tap 신의 탑 pop japanese jpop j-pop kpop k-pop skz ストレイキッズ talse uzer anime bang chan hyunjin lee know minho changbin han felix seungmin i.n
BeatmapID:2476774
BeatmapSetID:1188578

[Difficulty]
HPDrainRate:6
CircleSize:5
OverallDifficulty:5
ApproachRate:5
SliderMultiplier:1.4
SliderTickRate:1

[Events]
//Background and Video events
0,0,"top tog.jpg",0,60
//Break Periods
//Storyboard Layer 0 (Background)
//Storyboard Layer 1 (Fail)
//Storyboard Layer 2 (Pass)
//Storyboard Layer 3 (Foreground)
//Storyboard Layer 4 (Overlay)
//Storyboard Sound Samples

[TimingPoints]
7111,375,4,1,0,50,1,0
7111,-133.333333333333,4,1,0,50,0,0
19111,-111.111111111111,4,1,0,75,0,0
43111,-133.333333333333,4,1,0,75,0,0
53798,-133.333333333333,4,1,0,75,0,0
53986,-127.306961271949,4,1,0,75,0,0
54173,-121.801789511892,4,1,0,75,0,0
54361,-116.753005514244,4,1,0,90,0,0
54548,-112.10611516437,4,1,0,90,0,0
54736,-107.814967952001,4,1,0,90,0,0
54829,-105.79032780191,4,1,0,90,0,0
54923,-103.840218978254,4,1,0,90,0,0
55111,-100,4,1,0,90,0,1
79111,-100,4,1,0,80,0,0
102736,-111.111111111111,4,1,0,80,0,0
103111,-125,4,1,0,50,0,0
113798,-121.212121212121,4,1,0,60,0,0
113986,-117.647058823529,4,1,0,60,0,0
114173,-114.285714285714,4,1,0,60,0,0
114361,-111.111111111111,4,1,0,60,0,0
114548,-108.108108108108,4,1,0,60,0,0
114736,-105.263157894737,4,1,0,60,0,0
114829,-103.896103896104,4,1,0,60,0,0
114923,-102.564102564103,4,1,0,60,0,0
115111,-100,4,1,0,90,0,1
139111,-100,4,1,0,90,0,0

[HitObjects]
256,192,7111,5,0,0:0:0:0:
256,192,7673,1,8,0:0:0:0:
256,192,8236,1,8,0:0:0:0:
256,192,8611,1,0,0:0:0:0:
256,192,9173,1,8,0:0:0:0:
256,192,9736,1,8,0:0:0:0:
256,192,10111,1,0,0:0:0:0:
256,192,10673,1,8,0:0:0:0:
256,192,11236,1,0,0:0:0:0:
256,192,11611,1,8,0:0:0:0:
256,192,12173,1,8,0:0:0:0:
256,192,12736,1,0,0:0:0:0:
256,192,13111,1,0,0:0:0:0:
256,192,13673,1,8,0:0:0:0:
256,192,14236,1,8,0:0:0:0:
256,192,14611,1,0,0:0:0:0:
256,192,15173,1,8,0:0:0:0:
256,192,15736,1,8,0:0:0:0:
256,192,16111,1,0,0:0:0:0:
256,192,16673,1,8,0:0:0:0:
256,192,17236,1,0,0:0:0:0:
256,192,17611,1,8,0:0:0:0:
256,192,18173,1,8,0:0:0:0:
256,192,18361,1,0,0:0:0:0:
256,192,18455,1,0,0:0:0:0:
256,192,18736,1,8,0:0:0:0:
256,192,18830,1,8,0:0:0:0:
256,192,19111,1,4,0:0:0:0:
256,192,19486,1,0,0:0:0:0:
256,192,19861,1,8,0:0:0:0:
256,192,20049,1,8,0:0:0:0:
256,192,20236,1,0,0:0:0:0:
256,192,20611,1,8,0:0:0:0:
256,192,20798,1,8,0:0:0:0:
256,192,20986,1,0,0:0:0:0:
256,192,21173,1,8,0:0:0:0:
256,192,21361,1,0,0:0:0:0:
256,192,21548,1,0,0:0:0:0:
256,192,21736,1,8,0:0:0:0:
256,192,22111,1,0,0:0:0:0:
256,192,22486,1,0,0:0:0:0:
256,192,22861,1,8,0:0:0:0:
256,192,23048,1,0,0:0:0:0:
256,192,23236,1,0,0:0:0:0:
256,192,23611,1,8,0:0:0:0:
256,192,23986,1,0,0:0:0:0:
256,192,24173,1,0,0:0:0:0:
256,192,24361,1,8,0:0:0:0:
256,192,24548,1,0,0:0:0:0:
256,192,24736,1,0,0:0:0:0:
256,192,24923,1,8,0:0:0:0:
256,192,25111,1,8,0:0:0:0:
256,192,25861,1,0,0:0:0:0:
256,192,26048,1,8,0:0:0:0:
256,192,26236,1,0,0:0:0:0:
256,192,26611,1,8,0:0:0:0:
256,192,26798,1,0,0:0:0:0:
256,192,26986,1,0,0:0:0:0:
256,192,27173,1,8,0:0:0:0:
256,192,27361,1,0,0:0:0:0:
256,192,27548,1,0,0:0:0:0:
256,192,27736,1,8,0:0:0:0:
256,192,28111,1,0,0:0:0:0:
256,192,28486,1,0,0:0:0:0:
256,192,28861,1,0,0:0:0:0:
256,192,29048,1,0,0:0:0:0:
256,192,29236,1,8,0:0:0:0:
256,192,29611,1,8,0:0:0:0:
256,192,29798,1,0,0:0:0:0:
256,192,29986,1,0,0:0:0:0:
256,192,30173,1,8,0:0:0:0:
256,192,30923,1,0,0:0:0:0:
256,192,31111,1,12,0:0:0:0:
256,192,31298,1,0,0:0:0:0:
256,192,31486,1,0,0:0:0:0:
256,192,31673,1,8,0:0:0:0:
256,192,31861,1,8,0:0:0:0:
256,192,32236,1,8,0:0:0:0:
256,192,32611,1,8,0:0:0:0:
256,192,32798,1,0,0:0:0:0:
256,192,32986,1,0,0:0:0:0:
256,192,33173,1,0,0:0:0:0:
256,192,33361,1,8,0:0:0:0:
256,192,33548,1,0,0:0:0:0:
256,192,33736,1,8,0:0:0:0:
256,192,34111,1,0,0:0:0:0:
256,192,34298,1,8,0:0:0:0:
256,192,34486,1,0,0:0:0:0:
256,192,34673,1,0,0:0:0:0:
256,192,34861,1,8,0:0:0:0:
256,192,35423,1,8,0:0:0:0:
256,192,35611,1,8,0:0:0:0:
256,192,35798,1,0,0:0:0:0:
256,192,35986,1,0,0:0:0:0:
256,192,36173,1,8,0:0:0:0:
256,192,36361,1,0,0:0:0:0:
256,192,36548,1,0,0:0:0:0:
256,192,36736,1,8,0:0:0:0:
256,192,37111,1,0,0:0:0:0:
256,192,37298,1,8,0:0:0:0:
256,192,37486,1,0,0:0:0:0:
256,192,37673,1,8,0:0:0:0:
256,192,37861,1,0,0:0:0:0:
256,192,38236,1,8,0:0:0:0:
256,192,38611,1,8,0:0:0:0:
256,192,38798,1,0,0:0:0:0:
256,192,38986,1,0,0:0:0:0:
256,192,39173,1,8,0:0:0:0:
256,192,39361,1,0,0:0:0:0:
256,192,39548,1,8,0:0:0:0:
256,192,39736,1,8,0:0:0:0:
256,192,40111,1,0,0:0:0:0:
256,192,40298,1,8,0:0:0:0:
256,192,40486,1,0,0:0:0:0:
256,192,40673,1,8,0:0:0:0:
256,192,40861,1,8,0:0:0:0:
256,192,41048,1,0,0:0:0:0:
256,192,41236,1,0,0:0:0:0:
256,192,41423,1,8,0:0:0:0:
256,192,41611,1,8,0:0:0:0:
256,192,41798,1,0,0:0:0:0:
256,192,41986,1,0,0:0:0:0:
256,192,42361,1,0,0:0:0:0:
256,192,42736,1,8,0:0:0:0:
256,192,43111,1,12,0:0:0:0:
256,192,43861,1,0,0:0:0:0:
256,192,44236,1,8,0:0:0:0:
256,192,44611,1,8,0:0:0:0:
256,192,45173,1,0,0:0:0:0:
256,192,45736,1,0,0:0:0:0:
256,192,45923,1,0,0:0:0:0:
256,192,46111,1,8,0:0:0:0:
261,191,46486,1,8,0:0:0:0:
261,191,46861,1,0,0:0:0:0:
256,192,47236,1,8,0:0:0:0:
256,192,47611,1,0,0:0:0:0:
256,192,47798,1,0,0:0:0:0:
256,192,47986,1,0,0:0:0:0:
256,192,48361,1,8,0:0:0:0:
256,192,48736,1,0,0:0:0:0:
256,192,49111,1,0,0:0:0:0:
256,192,49673,1,0,0:0:0:0:
256,192,50236,1,0,0:0:0:0:
256,192,50611,1,0,0:0:0:0:
256,192,50986,1,0,0:0:0:0:
256,192,51173,1,0,0:0:0:0:
256,192,51361,1,8,0:0:0:0:
256,192,51548,1,0,0:0:0:0:
256,192,51736,1,8,0:0:0:0:
256,192,51923,1,0,0:0:0:0:
256,192,52111,1,0,0:0:0:0:
256,192,52486,1,8,0:0:0:0:
256,192,52861,1,0,0:0:0:0:
256,192,53236,1,0,0:0:0:0:
256,192,53798,1,0,0:0:0:0:
256,192,53986,1,0,0:0:0:0:
256,192,54173,1,0,0:0:0:0:
256,192,54361,1,8,0:0:0:0:
256,192,54548,1,0,0:0:0:0:
256,192,54736,1,8,0:0:0:0:
256,192,54829,1,8,0:0:0:0:
256,192,54923,1,8,0:0:0:0:
256,192,55111,1,4,0:0:0:0:
256,192,55673,1,0,0:0:0:0:
256,192,55861,1,8,0:0:0:0:
256,192,56048,1,8,0:0:0:0:
256,192,56142,1,8,0:0:0:0:
256,192,56236,1,8,0:0:0:0:
256,192,56423,1,8,0:0:0:0:
256,192,56611,1,0,0:0:0:0:
256,192,56986,1,0,0:0:0:0:
256,192,57361,1,8,0:0:0:0:
256,192,57736,1,0,0:0:0:0:
256,192,57923,1,0,0:0:0:0:
256,192,58111,1,8,0:0:0:0:
256,192,58298,1,8,0:0:0:0:
256,192,58486,1,0,0:0:0:0:
256,192,58861,1,8,0:0:0:0:
256,192,59048,1,0,0:0:0:0:
256,192,59236,1,8,0:0:0:0:
256,192,59423,1,8,0:0:0:0:
256,192,59611,1,0,0:0:0:0:
256,192,59704,1,0,0:0:0:0:
256,192,59798,1,0,0:0:0:0:
256,192,59986,1,0,0:0:0:0:
244,191,60361,1,8,0:0:0:0:
249,191,60454,1,8,0:0:0:0:
224,192,60548,1,8,0:0:0:0:
224,192,60736,1,0,0:0:0:0:
256,192,60923,1,8,0:0:0:0:
256,192,61111,1,0,0:0:0:0:
256,192,61298,1,8,0:0:0:0:
256,192,61486,1,0,0:0:0:0:
256,192,61861,1,0,0:0:0:0:
256,192,62048,1,0,0:0:0:0:
256,192,62236,1,8,0:0:0:0:
256,192,62423,1,0,0:0:0:0:
256,192,62611,1,8,0:0:0:0:
256,192,62986,1,0,0:0:0:0:
256,192,63361,1,8,0:0:0:0:
256,192,63736,1,8,0:0:0:0:
256,192,63923,1,8,0:0:0:0:
256,192,64111,1,0,0:0:0:0:
256,192,64298,1,0,0:0:0:0:
256,192,64486,1,8,0:0:0:0:
256,192,64673,1,8,0:0:0:0:
256,192,64861,1,0,0:0:0:0:
256,192,65048,1,8,0:0:0:0:
256,192,65142,1,8,0:0:0:0:
256,192,65236,1,8,0:0:0:0:
256,192,65423,1,0,0:0:0:0:
256,192,65611,1,8,0:0:0:0:
256,192,65798,1,0,0:0:0:0:
256,192,65986,1,0,0:0:0:0:
235,185,66548,1,8,0:0:0:0:
256,192,66736,1,0,0:0:0:0:
256,192,66923,1,0,0:0:0:0:
256,192,67111,1,12,0:0:0:0:
256,192,67298,1,8,0:0:0:0:
256,192,67486,1,0,0:0:0:0:
256,192,67673,1,0,0:0:0:0:
256,192,67861,1,8,0:0:0:0:
256,192,68048,1,0,0:0:0:0:
256,192,68236,1,8,0:0:0:0:
256,192,68423,1,8,0:0:0:0:
256,192,68611,1,8,0:0:0:0:
256,192,69361,1,0,0:0:0:0:
256,192,69548,1,8,0:0:0:0:
256,192,69736,1,0,0:0:0:0:
256,192,69923,1,8,0:0:0:0:
256,192,70111,1,0,0:0:0:0:
256,192,70298,1,0,0:0:0:0:
256,192,70486,1,8,0:0:0:0:
256,192,70861,1,8,0:0:0:0:
256,192,71048,1,8,0:0:0:0:
256,192,71236,1,8,0:0:0:0:
256,192,71423,1,0,0:0:0:0:
256,192,71611,1,0,0:0:0:0:
256,192,71986,1,8,0:0:0:0:
256,192,72361,1,0,0:0:0:0:
235,185,72454,1,0,0:0:0:0:
235,185,72548,1,0,0:0:0:0:
235,185,72736,1,8,0:0:0:0:
256,192,72923,1,0,0:0:0:0:
256,192,73111,1,8,0:0:0:0:
256,192,73298,1,8,0:0:0:0:
256,192,73486,1,0,0:0:0:0:
256,192,73673,1,0,0:0:0:0:
256,192,73861,1,8,0:0:0:0:
256,192,74048,1,0,0:0:0:0:
256,192,74236,1,8,0:0:0:0:
256,192,74423,1,0,0:0:0:0:
256,192,74611,1,8,0:0:0:0:
256,192,75361,1,0,0:0:0:0:
256,192,75548,1,0,0:0:0:0:
256,192,75736,1,8,0:0:0:0:
256,192,75923,1,0,0:0:0:0:
256,192,76111,1,8,0:0:0:0:
256,192,76298,1,8,0:0:0:0:
256,192,76486,1,0,0:0:0:0:
256,192,76673,1,8,0:0:0:0:
256,192,76861,1,0,0:0:0:0:
256,192,77048,1,0,0:0:0:0:
256,192,77236,1,8,0:0:0:0:
256,192,77611,1,0,0:0:0:0:
256,192,77986,1,0,0:0:0:0:
256,192,78736,1,8,0:0:0:0:
192,224,79111,1,4,0:0:0:0:
306,189,79486,1,8,0:0:0:0:
306,189,79736,1,0,0:0:0:0:
306,189,79861,1,8,0:0:0:0:
306,189,80111,1,0,0:0:0:0:
306,189,80236,1,8,0:0:0:0:
300,192,80486,1,8,0:0:0:0:
300,192,80611,1,0,0:0:0:0:
261,200,80986,1,8,0:0:0:0:
271,166,81236,1,0,0:0:0:0:
271,166,81361,1,8,0:0:0:0:
287,172,81611,1,0,0:0:0:0:
287,172,81736,1,8,0:0:0:0:
371,154,82111,1,8,0:0:0:0:
353,172,82486,1,8,0:0:0:0:
320,197,82861,1,0,0:0:0:0:
320,197,82986,1,0,0:0:0:0:
320,197,83111,1,0,0:0:0:0:
320,197,83236,1,0,0:0:0:0:
302,215,83611,1,8,0:0:0:0:
323,211,83986,1,8,0:0:0:0:
381,225,84236,1,0,0:0:0:0:
323,211,84361,1,8,0:0:0:0:
310,198,84611,1,8,0:0:0:0:
391,241,84736,1,0,0:0:0:0:
311,197,85111,1,8,0:0:0:0:
348,183,85736,1,0,0:0:0:0:
292,195,85861,1,8,0:0:0:0:
302,197,86236,1,8,0:0:0:0:
321,216,86361,1,8,0:0:0:0:
332,218,86486,1,8,0:0:0:0:
302,197,86611,1,8,0:0:0:0:
332,218,86986,1,0,0:0:0:0:
327,228,87111,1,0,0:0:0:0:
332,218,87236,1,0,0:0:0:0:
332,218,87361,1,0,0:0:0:0:
322,211,87611,1,8,0:0:0:0:
332,218,87736,1,0,0:0:0:0:
332,218,88111,1,8,0:0:0:0:
336,212,88486,1,0,0:0:0:0:
300,204,88736,1,8,0:0:0:0:
300,204,88861,1,0,0:0:0:0:
296,209,89111,1,8,0:0:0:0:
296,209,89236,1,0,0:0:0:0:
296,209,89486,1,0,0:0:0:0:
309,205,89611,1,8,0:0:0:0:
313,204,89986,1,0,0:0:0:0:
340,222,90361,1,8,0:0:0:0:
340,222,90486,1,8,0:0:0:0:
340,222,90611,1,8,0:0:0:0:
340,222,90736,1,8,0:0:0:0:
306,184,91111,1,12,0:0:0:0:
298,199,91736,1,0,0:0:0:0:
298,199,91861,1,8,0:0:0:0:
306,184,92236,1,12,0:0:0:0:
306,184,92611,1,12,0:0:0:0:
312,195,92986,1,8,0:0:0:0:
324,190,93111,1,8,0:0:0:0:
324,190,93236,1,8,0:0:0:0:
324,190,93361,1,8,0:0:0:0:
311,187,93736,1,12,0:0:0:0:
311,187,94111,1,12,0:0:0:0:
311,203,94486,1,0,0:0:0:0:
310,206,94736,1,0,0:0:0:0:
297,204,94861,1,0,0:0:0:0:
311,187,95236,1,12,0:0:0:0:
311,187,95611,1,12,0:0:0:0:
307,195,95986,1,0,0:0:0:0:
307,195,96111,1,0,0:0:0:0:
307,195,96236,1,0,0:0:0:0:
307,199,96361,1,0,0:0:0:0:
303,201,96611,1,8,0:0:0:0:
303,201,96736,1,0,0:0:0:0:
311,187,97111,1,12,0:0:0:0:
288,205,97736,1,0,0:0:0:0:
296,199,97861,1,8,0:0:0:0:
286,205,98111,1,8,0:0:0:0:
286,205,98236,1,0,0:0:0:0:
288,205,98486,1,0,0:0:0:0:
290,205,98611,1,8,0:0:0:0:
286,205,98986,1,0,0:0:0:0:
315,202,99361,1,8,0:0:0:0:
282,205,99611,1,8,0:0:0:0:
282,205,99736,1,0,0:0:0:0:
297,186,99986,1,0,0:0:0:0:
268,178,100111,1,8,0:0:0:0:
283,191,100486,1,0,0:0:0:0:
283,191,100736,1,0,0:0:0:0:
283,191,100861,1,8,0:0:0:0:
283,191,101111,1,0,0:0:0:0:
283,191,101236,1,8,0:0:0:0:
283,191,101611,1,8,0:0:0:0:
283,191,101986,1,0,0:0:0:0:
283,191,102361,1,8,0:0:0:0:
283,191,102736,1,8,0:0:0:0:
250,177,103111,1,4,0:0:0:0:
261,175,103861,1,8,0:0:0:0:
238,182,104236,1,8,0:0:0:0:
238,182,104611,1,0,0:0:0:0:
238,182,104986,1,8,0:0:0:0:
247,188,105361,1,0,0:0:0:0:
247,188,105548,1,8,0:0:0:0:
250,191,105736,1,8,0:0:0:0:
248,188,105923,1,8,0:0:0:0:
247,188,106111,1,0,0:0:0:0:
250,191,106486,1,0,0:0:0:0:
246,177,106861,1,8,0:0:0:0:
246,177,107236,1,8,0:0:0:0:
242,200,107611,1,0,0:0:0:0:
250,197,107986,1,0,0:0:0:0:
247,197,108361,1,8,0:0:0:0:
250,197,108548,1,0,0:0:0:0:
250,197,108736,1,8,0:0:0:0:
247,197,108923,1,8,0:0:0:0:
247,197,109111,1,0,0:0:0:0:
247,197,109861,1,8,0:0:0:0:
250,197,110236,1,8,0:0:0:0:
247,197,110611,1,0,0:0:0:0:
271,201,110986,1,8,0:0:0:0:
271,201,111361,1,0,0:0:0:0:
271,201,111548,1,0,0:0:0:0:
271,201,111736,1,8,0:0:0:0:
271,201,111923,1,0,0:0:0:0:
134,272,112111,1,8,0:0:0:0:
134,272,112486,1,8,0:0:0:0:
134,272,112861,1,8,0:0:0:0:
134,272,113236,1,8,0:0:0:0:
151,269,113798,1,0,0:0:0:0:
146,273,113986,1,0,0:0:0:0:
146,272,114173,1,0,0:0:0:0:
146,281,114361,1,8,0:0:0:0:
146,281,114548,1,0,0:0:0:0:
146,281,114736,1,8,0:0:0:0:
146,281,114829,1,8,0:0:0:0:
146,281,114923,1,8,0:0:0:0:
146,281,115111,1,4,0:0:0:0:
283,173,115486,1,0,0:0:0:0:
304,160,115861,1,8,0:0:0:0:
304,163,116048,1,0,0:0:0:0:
303,167,116236,1,8,0:0:0:0:
303,167,116423,1,8,0:0:0:0:
303,167,116611,1,8,0:0:0:0:
290,166,116798,1,0,0:0:0:0:
300,169,116986,1,0,0:0:0:0:
285,168,117361,1,8,0:0:0:0:
297,171,117923,1,8,0:0:0:0:
304,164,118111,1,0,0:0:0:0:
296,162,118486,1,0,0:0:0:0:
298,165,118673,1,0,0:0:0:0:
309,166,118861,1,8,0:0:0:0:
304,185,118954,1,8,0:0:0:0:
310,166,119048,1,8,0:0:0:0:
310,166,119236,1,0,0:0:0:0:
304,185,119423,1,0,0:0:0:0:
304,185,119611,1,8,0:0:0:0:
299,181,119986,1,8,0:0:0:0:
312,204,120361,1,0,0:0:0:0:
311,201,120454,1,0,0:0:0:0:
311,201,120548,1,0,0:0:0:0:
311,201,120736,1,8,0:0:0:0:
311,201,120923,1,8,0:0:0:0:
312,204,121111,1,0,0:0:0:0:
305,205,121486,1,0,0:0:0:0:
300,185,121861,1,8,0:0:0:0:
300,187,122048,1,0,0:0:0:0:
300,187,122236,1,8,0:0:0:0:
300,187,122423,1,8,0:0:0:0:
300,185,122611,1,8,0:0:0:0:
300,185,122798,1,0,0:0:0:0:
300,187,122986,1,0,0:0:0:0:
310,170,123361,1,8,0:0:0:0:
310,170,123923,1,8,0:0:0:0:
310,170,124111,1,0,0:0:0:0:
310,170,124486,1,0,0:0:0:0:
310,170,124673,1,0,0:0:0:0:
310,170,124861,1,8,0:0:0:0:
337,209,124954,1,8,0:0:0:0:
310,170,125048,1,8,0:0:0:0:
310,170,125236,1,0,0:0:0:0:
310,170,125423,1,0,0:0:0:0:
310,170,125611,1,8,0:0:0:0:
310,170,125986,1,0,0:0:0:0:
303,171,126361,1,8,0:0:0:0:
300,172,126454,1,8,0:0:0:0:
303,171,126548,1,8,0:0:0:0:
303,171,126736,1,8,0:0:0:0:
303,171,126923,1,0,0:0:0:0:
303,171,127111,1,4,0:0:0:0:
333,174,127486,1,0,0:0:0:0:
320,169,127861,1,0,0:0:0:0:
327,178,128048,1,0,0:0:0:0:
319,171,128236,1,8,0:0:0:0:
317,172,128423,1,0,0:0:0:0:
320,169,128611,1,8,0:0:0:0:
317,172,129361,1,8,0:0:0:0:
320,169,129548,1,8,0:0:0:0:
320,169,129736,1,0,0:0:0:0:
320,169,129923,1,8,0:0:0:0:
317,172,130111,1,0,0:0:0:0:
298,164,130486,1,0,0:0:0:0:
298,165,130673,1,0,0:0:0:0:
298,167,130861,1,8,0:0:0:0:
298,164,131236,1,8,0:0:0:0:
298,164,131423,1,8,0:0:0:0:
298,165,131611,1,0,0:0:0:0:
298,167,131986,1,8,0:0:0:0:
302,177,132361,1,0,0:0:0:0:
300,177,132454,1,0,0:0:0:0:
302,178,132548,1,0,0:0:0:0:
295,177,132736,1,8,0:0:0:0:
294,179,132923,1,8,0:0:0:0:
294,179,133111,1,0,0:0:0:0:
294,179,133486,1,0,0:0:0:0:
294,179,133861,1,0,0:0:0:0:
294,179,134048,1,0,0:0:0:0:
294,179,134236,1,8,0:0:0:0:
294,179,134423,1,0,0:0:0:0:
295,177,134611,1,8,0:0:0:0:
294,179,135361,1,8,0:0:0:0:
295,177,135548,1,8,0:0:0:0:
294,179,135736,1,0,0:0:0:0:
294,179,135923,1,8,0:0:0:0:
294,179,136111,1,0,0:0:0:0:
295,177,136486,1,0,0:0:0:0:
294,179,136673,1,0,0:0:0:0:
294,179,136861,1,8,0:0:0:0:
294,179,137236,1,8,0:0:0:0:
295,177,137423,1,8,0:0:0:0:
294,179,137611,1,0,0:0:0:0:
294,179,137986,1,0,0:0:0:0:
295,177,138361,1,8,0:0:0:0:
295,177,138454,1,8,0:0:0:0:
294,179,138548,1,8,0:0:0:0:
294,179,138736,1,8,0:0:0:0:
