osu file format v14

[General]
AudioFilename: audio.mp3
AudioLeadIn: 0
PreviewTime: 53798
Countdown: 0
SampleSet: Normal
StackLeniency: 0.7
Mode: 1
LetterboxInBreaks: 0
WidescreenStoryboard: 1

[Editor]
Bookmarks: 30318
DistanceSpacing: 0.8
BeatDivisor: 4
GridSize: 32
TimelineZoom: 2.4

[Metadata]
Title:SLUMP -Japanese ver.-
TitleUnicode:SLUMP -Japanese ver.-
Artist:Stray Kids
ArtistUnicode:Stray Kids
Creator:ikin5050
Version:Zhuokin's Futsuu
Source:Tower of God
Tags:Zhuosh zhuokin tog kami no tou ending ed SIU Sin-ui Tap 신의 탑 pop japanese jpop j-pop kpop k-pop skz ストレイキッズ talse uzer anime bang chan hyunjin lee know minho changbin han felix seungmin i.n
BeatmapID:2476771
BeatmapSetID:1188578

[Difficulty]
HPDrainRate:6.5
CircleSize:5
OverallDifficulty:4
ApproachRate:5
SliderMultiplier:1.4
SliderTickRate:1

[Events]
//Background and Video events
0,0,"top tog.jpg",0,60
//Break Periods
//Storyboard Layer 0 (Background)
//Storyboard Layer 1 (Fail)
//Storyboard Layer 2 (Pass)
//Storyboard Layer 3 (Foreground)
//Storyboard Layer 4 (Overlay)
//Storyboard Sound Samples

[TimingPoints]
7111,375,4,1,0,50,1,0
7111,-133.333333333333,4,1,0,50,0,0
19111,-111.111111111111,4,1,0,75,0,0
43111,-133.333333333333,4,1,0,50,0,0
54361,-100,4,1,0,90,0,0
55111,-100,4,1,0,90,0,1
79111,-100,4,1,0,80,0,0
102736,-111.111111111111,4,1,0,80,0,0
103111,-125,4,1,0,50,0,0
113798,-111.111111111111,4,1,0,60,0,0
114548,-108.108108108108,4,1,0,60,0,0
114736,-105.263157894737,4,1,0,60,0,0
114923,-102.564102564103,4,1,0,60,0,0
115111,-100,4,1,0,90,0,1
139111,-100,4,1,0,90,0,0

[HitObjects]
256,192,7111,5,0,0:0:0:0:
256,192,7673,1,8,0:0:0:0:
256,192,8236,1,8,0:0:0:0:
256,192,8611,1,0,0:0:0:0:
256,192,9173,1,8,0:0:0:0:
256,192,9736,1,8,0:0:0:0:
256,192,10111,1,0,0:0:0:0:
256,192,10673,1,8,0:0:0:0:
256,192,11236,1,0,0:0:0:0:
256,192,11611,1,8,0:0:0:0:
256,192,12173,1,8,0:0:0:0:
256,192,13111,1,0,0:0:0:0:
256,192,13673,1,8,0:0:0:0:
256,192,14236,1,8,0:0:0:0:
256,192,14611,1,0,0:0:0:0:
256,192,15173,1,8,0:0:0:0:
256,192,15736,1,8,0:0:0:0:
256,192,16111,1,0,0:0:0:0:
256,192,16673,1,8,0:0:0:0:
256,192,17236,1,0,0:0:0:0:
256,192,17611,1,8,0:0:0:0:
256,192,18361,1,8,0:0:0:0:
256,192,18736,1,8,0:0:0:0:
256,192,19111,1,4,0:0:0:0:
256,192,19486,1,0,0:0:0:0:
256,192,19861,1,8,0:0:0:0:
256,192,20048,1,8,0:0:0:0:
256,192,20236,1,0,0:0:0:0:
256,192,21173,1,0,0:0:0:0:
256,192,21361,1,8,0:0:0:0:
256,192,21548,1,8,0:0:0:0:
256,192,21736,1,0,0:0:0:0:
256,192,22673,1,0,0:0:0:0:
256,192,22861,1,8,0:0:0:0:
256,192,23048,1,0,0:0:0:0:
256,192,23236,1,0,0:0:0:0:
256,192,23611,1,8,0:0:0:0:
256,192,23986,1,8,0:0:0:0:
256,192,24173,1,0,0:0:0:0:
256,192,24361,1,8,0:0:0:0:
256,192,24548,1,8,0:0:0:0:
256,192,24736,1,0,0:0:0:0:
256,192,25673,1,8,0:0:0:0:
256,192,25861,1,0,0:0:0:0:
256,192,26048,1,8,0:0:0:0:
256,192,26236,1,0,0:0:0:0:
256,192,27173,1,0,0:0:0:0:
256,192,27361,1,0,0:0:0:0:
256,192,27548,1,8,0:0:0:0:
256,192,27736,1,8,0:0:0:0:
256,192,28673,1,0,0:0:0:0:
256,192,28861,1,8,0:0:0:0:
256,192,29048,1,0,0:0:0:0:
256,192,29236,1,8,0:0:0:0:
256,192,29611,1,8,0:0:0:0:
256,192,29798,1,0,0:0:0:0:
256,192,29986,1,8,0:0:0:0:
256,192,30173,1,8,0:0:0:0:
256,192,30548,1,8,0:0:0:0:
256,192,30736,1,0,0:0:0:0:
256,192,31111,1,4,0:0:0:0:
256,192,31298,1,8,0:0:0:0:
256,192,31486,1,0,0:0:0:0:
256,192,31861,1,8,0:0:0:0:
256,192,32236,1,8,0:0:0:0:
256,192,32611,1,8,0:0:0:0:
256,192,32798,1,0,0:0:0:0:
256,192,32986,1,8,0:0:0:0:
256,192,33361,1,8,0:0:0:0:
256,192,34111,1,0,0:0:0:0:
256,192,34486,1,0,0:0:0:0:
256,192,34673,1,0,0:0:0:0:
256,192,34861,1,8,0:0:0:0:
256,192,35236,1,8,0:0:0:0:
256,192,35423,1,0,0:0:0:0:
256,192,35611,1,8,0:0:0:0:
256,192,35986,1,0,0:0:0:0:
256,192,36361,1,8,0:0:0:0:
256,192,37111,1,0,0:0:0:0:
256,192,37486,1,0,0:0:0:0:
256,192,37861,1,8,0:0:0:0:
256,192,38236,1,8,0:0:0:0:
256,192,38423,1,8,0:0:0:0:
256,192,38611,1,0,0:0:0:0:
256,192,38986,1,8,0:0:0:0:
256,192,39361,1,0,0:0:0:0:
256,192,39736,1,8,0:0:0:0:
256,192,40111,1,0,0:0:0:0:
256,192,40486,1,0,0:0:0:0:
256,192,40861,1,8,0:0:0:0:
256,192,41048,1,0,0:0:0:0:
256,192,41236,1,8,0:0:0:0:
256,192,41611,1,8,0:0:0:0:
256,192,41798,1,0,0:0:0:0:
256,192,41986,1,0,0:0:0:0:
256,192,42361,1,8,0:0:0:0:
256,192,43111,1,12,0:0:0:0:
256,192,43673,1,8,0:0:0:0:
256,192,44236,1,0,0:0:0:0:
256,192,44611,1,0,0:0:0:0:
256,192,45173,1,8,0:0:0:0:
256,192,45736,1,0,0:0:0:0:
256,192,46111,1,0,0:0:0:0:
256,192,46673,1,8,0:0:0:0:
256,192,47236,1,0,0:0:0:0:
256,192,47611,1,8,0:0:0:0:
256,192,48173,1,8,0:0:0:0:
256,192,49111,1,0,0:0:0:0:
256,192,49673,1,8,0:0:0:0:
256,192,50236,1,0,0:0:0:0:
256,192,50611,1,0,0:0:0:0:
256,192,51173,1,8,0:0:0:0:
256,192,51736,1,0,0:0:0:0:
256,192,52111,1,0,0:0:0:0:
256,192,52673,1,0,0:0:0:0:
256,192,53236,1,0,0:0:0:0:
256,192,53611,1,8,0:0:0:0:
256,192,54361,1,8,0:0:0:0:
256,192,54548,1,0,0:0:0:0:
256,192,54736,1,8,0:0:0:0:
256,192,54923,1,8,0:0:0:0:
256,192,55111,1,4,0:0:0:0:
256,192,55486,1,0,0:0:0:0:
256,192,55673,1,8,0:0:0:0:
256,192,55861,1,0,0:0:0:0:
256,192,56236,1,0,0:0:0:0:
256,192,56611,1,8,0:0:0:0:
256,192,56986,1,0,0:0:0:0:
256,192,57361,1,8,0:0:0:0:
256,192,57736,1,0,0:0:0:0:
256,192,57923,1,8,0:0:0:0:
256,192,58111,1,0,0:0:0:0:
256,192,58486,1,0,0:0:0:0:
256,192,58861,1,0,0:0:0:0:
256,192,59048,1,0,0:0:0:0:
256,192,59236,1,8,0:0:0:0:
256,192,59611,1,8,0:0:0:0:
256,192,59986,1,0,0:0:0:0:
256,192,60736,1,0,0:0:0:0:
256,192,61111,1,0,0:0:0:0:
256,192,61298,1,8,0:0:0:0:
256,192,61486,1,0,0:0:0:0:
256,192,61861,1,0,0:0:0:0:
256,192,62048,1,0,0:0:0:0:
256,192,62236,1,8,0:0:0:0:
256,192,62611,1,8,0:0:0:0:
256,192,62986,1,0,0:0:0:0:
256,192,63361,1,8,0:0:0:0:
256,192,63736,1,0,0:0:0:0:
256,192,63923,1,8,0:0:0:0:
256,192,64111,1,8,0:0:0:0:
256,192,64298,1,8,0:0:0:0:
256,192,64486,1,0,0:0:0:0:
256,192,64861,1,8,0:0:0:0:
256,192,65048,1,8,0:0:0:0:
256,192,65236,1,0,0:0:0:0:
256,192,65423,1,0,0:0:0:0:
256,192,65611,1,8,0:0:0:0:
256,192,65986,1,0,0:0:0:0:
256,192,66736,1,0,0:0:0:0:
256,192,67111,1,12,0:0:0:0:
256,192,67486,1,0,0:0:0:0:
256,192,67673,1,0,0:0:0:0:
256,192,67861,1,8,0:0:0:0:
256,192,68236,1,0,0:0:0:0:
256,192,68611,1,8,0:0:0:0:
256,192,69361,1,0,0:0:0:0:
256,192,69736,1,8,0:0:0:0:
256,192,70111,1,0,0:0:0:0:
256,192,70298,1,8,0:0:0:0:
256,192,70486,1,0,0:0:0:0:
256,192,70861,1,8,0:0:0:0:
256,192,71236,1,0,0:0:0:0:
256,192,71423,1,8,0:0:0:0:
256,192,71611,1,8,0:0:0:0:
256,192,71986,1,8,0:0:0:0:
256,192,72361,1,0,0:0:0:0:
256,192,72736,1,0,0:0:0:0:
256,192,73111,1,0,0:0:0:0:
256,192,73298,1,8,0:0:0:0:
256,192,73486,1,0,0:0:0:0:
256,192,73861,1,8,0:0:0:0:
256,192,74236,1,0,0:0:0:0:
256,192,74423,1,0,0:0:0:0:
256,192,74611,1,8,0:0:0:0:
256,192,75361,1,8,0:0:0:0:
256,192,75736,1,0,0:0:0:0:
256,192,76111,1,8,0:0:0:0:
256,192,76298,1,0,0:0:0:0:
256,192,76486,1,8,0:0:0:0:
256,192,76861,1,8,0:0:0:0:
256,192,77236,1,0,0:0:0:0:
256,192,77423,1,0,0:0:0:0:
256,192,77611,1,8,0:0:0:0:
256,192,77986,1,0,0:0:0:0:
256,192,78736,1,8,0:0:0:0:
224,211,79111,1,4,0:0:0:0:
306,189,79486,1,8,0:0:0:0:
306,189,79673,1,0,0:0:0:0:
306,189,79861,1,8,0:0:0:0:
306,189,80236,1,0,0:0:0:0:
300,192,80611,1,0,0:0:0:0:
261,200,80986,1,0,0:0:0:0:
271,166,81173,1,0,0:0:0:0:
271,166,81361,1,8,0:0:0:0:
287,172,81736,1,0,0:0:0:0:
371,154,82111,1,0,0:0:0:0:
353,172,82486,1,8,0:0:0:0:
313,208,82673,1,8,0:0:0:0:
320,197,82861,1,8,0:0:0:0:
320,197,83236,1,0,0:0:0:0:
302,215,83611,1,0,0:0:0:0:
323,211,83986,1,8,0:0:0:0:
381,225,84173,1,0,0:0:0:0:
323,211,84361,1,0,0:0:0:0:
391,241,84736,1,8,0:0:0:0:
311,197,85111,1,0,0:0:0:0:
292,195,85861,1,8,0:0:0:0:
302,197,86236,1,0,0:0:0:0:
290,201,86423,1,0,0:0:0:0:
302,197,86611,1,8,0:0:0:0:
332,218,86986,1,8,0:0:0:0:
327,228,87173,1,8,0:0:0:0:
332,218,87361,1,0,0:0:0:0:
332,218,87736,1,0,0:0:0:0:
332,218,88111,1,8,0:0:0:0:
300,204,88861,1,0,0:0:0:0:
296,209,89236,1,0,0:0:0:0:
301,198,89423,1,0,0:0:0:0:
309,205,89611,1,8,0:0:0:0:
313,204,89986,1,0,0:0:0:0:
341,239,90173,1,0,0:0:0:0:
340,222,90361,1,8,0:0:0:0:
340,222,90548,1,8,0:0:0:0:
340,222,90736,1,0,0:0:0:0:
306,184,91111,1,12,0:0:0:0:
298,199,91861,1,0,0:0:0:0:
306,184,92236,1,12,0:0:0:0:
306,184,92611,1,12,0:0:0:0:
324,190,93173,1,8,0:0:0:0:
324,190,93361,1,0,0:0:0:0:
311,187,93736,1,12,0:0:0:0:
311,187,94111,1,12,0:0:0:0:
311,203,94486,1,0,0:0:0:0:
297,204,94861,1,0,0:0:0:0:
294,204,95048,1,0,0:0:0:0:
311,187,95236,1,12,0:0:0:0:
311,187,95611,1,12,0:0:0:0:
307,195,95986,1,0,0:0:0:0:
307,195,96173,1,0,0:0:0:0:
307,199,96361,1,0,0:0:0:0:
303,201,96736,1,0,0:0:0:0:
311,187,97111,1,12,0:0:0:0:
296,199,97861,1,8,0:0:0:0:
286,205,98236,1,0,0:0:0:0:
290,205,98611,1,8,0:0:0:0:
286,205,98986,1,0,0:0:0:0:
287,214,99173,1,0,0:0:0:0:
315,202,99361,1,8,0:0:0:0:
282,205,99736,1,0,0:0:0:0:
268,178,100111,1,8,0:0:0:0:
283,191,100861,1,0,0:0:0:0:
283,191,101236,1,8,0:0:0:0:
283,191,101611,1,0,0:0:0:0:
283,191,101986,1,8,0:0:0:0:
281,185,102173,1,8,0:0:0:0:
283,191,102361,1,0,0:0:0:0:
283,191,102736,1,8,0:0:0:0:
250,177,103111,1,4,0:0:0:0:
261,175,103861,1,8,0:0:0:0:
238,182,104236,1,8,0:0:0:0:
238,182,104611,1,0,0:0:0:0:
247,188,105173,1,8,0:0:0:0:
250,191,105736,1,0,0:0:0:0:
247,188,106111,1,0,0:0:0:0:
246,177,106861,1,8,0:0:0:0:
242,200,107611,1,0,0:0:0:0:
247,197,108173,1,0,0:0:0:0:
247,197,108736,1,8,0:0:0:0:
247,197,109111,1,0,0:0:0:0:
247,197,109861,1,8,0:0:0:0:
250,197,110236,1,8,0:0:0:0:
247,197,110611,1,0,0:0:0:0:
271,201,111173,1,8,0:0:0:0:
271,201,111736,1,0,0:0:0:0:
134,272,112111,1,8,0:0:0:0:
134,272,112486,1,8,0:0:0:0:
134,272,112861,1,8,0:0:0:0:
134,272,113236,1,8,0:0:0:0:
146,281,114361,1,8,0:0:0:0:
146,281,114548,1,0,0:0:0:0:
146,281,114736,1,8,0:0:0:0:
146,281,114923,1,8,0:0:0:0:
146,281,115111,1,4,0:0:0:0:
182,277,115486,1,0,0:0:0:0:
182,277,115861,1,8,0:0:0:0:
182,277,116236,1,8,0:0:0:0:
182,277,116423,1,8,0:0:0:0:
182,277,116611,1,0,0:0:0:0:
182,277,116986,1,0,0:0:0:0:
182,277,117361,1,8,0:0:0:0:
182,277,118111,1,0,0:0:0:0:
182,277,118486,1,8,0:0:0:0:
182,277,118861,1,0,0:0:0:0:
193,282,119048,1,0,0:0:0:0:
182,277,119236,1,8,0:0:0:0:
193,282,119423,1,8,0:0:0:0:
182,277,119611,1,0,0:0:0:0:
182,277,119986,1,0,0:0:0:0:
182,277,120361,1,0,0:0:0:0:
193,282,120548,1,0,0:0:0:0:
182,277,120736,1,8,0:0:0:0:
182,277,121111,1,0,0:0:0:0:
197,253,121486,1,0,0:0:0:0:
197,253,121861,1,8,0:0:0:0:
197,253,122236,1,8,0:0:0:0:
204,264,122423,1,8,0:0:0:0:
197,253,122611,1,0,0:0:0:0:
197,253,122986,1,0,0:0:0:0:
197,253,123361,1,8,0:0:0:0:
197,253,124111,1,0,0:0:0:0:
197,253,124486,1,8,0:0:0:0:
197,253,124861,1,0,0:0:0:0:
204,264,125048,1,0,0:0:0:0:
197,253,125236,1,8,0:0:0:0:
204,264,125423,1,8,0:0:0:0:
197,253,125611,1,0,0:0:0:0:
197,253,125986,1,0,0:0:0:0:
197,253,126361,1,8,0:0:0:0:
207,261,126548,1,0,0:0:0:0:
197,253,126736,1,8,0:0:0:0:
197,253,127111,1,4,0:0:0:0:
197,253,127861,1,8,0:0:0:0:
204,227,128236,1,0,0:0:0:0:
217,251,128423,1,8,0:0:0:0:
204,227,128611,1,8,0:0:0:0:
204,227,129361,1,8,0:0:0:0:
204,227,129736,1,0,0:0:0:0:
204,227,130111,1,0,0:0:0:0:
206,236,130298,1,8,0:0:0:0:
204,227,130486,1,0,0:0:0:0:
204,227,130861,1,8,0:0:0:0:
206,237,131048,1,0,0:0:0:0:
204,227,131236,1,0,0:0:0:0:
204,227,131611,1,8,0:0:0:0:
204,227,131986,1,0,0:0:0:0:
204,227,132361,1,8,0:0:0:0:
233,253,132548,1,0,0:0:0:0:
233,253,132736,1,8,0:0:0:0:
168,254,132923,1,0,0:0:0:0:
204,227,133111,1,0,0:0:0:0:
204,227,133861,1,8,0:0:0:0:
204,227,134236,1,0,0:0:0:0:
217,247,134423,1,8,0:0:0:0:
204,227,134611,1,8,0:0:0:0:
204,227,135361,1,8,0:0:0:0:
204,227,135736,1,0,0:0:0:0:
204,227,136111,1,0,0:0:0:0:
224,214,136298,1,8,0:0:0:0:
204,227,136486,1,0,0:0:0:0:
204,227,136861,1,8,0:0:0:0:
224,214,137048,1,0,0:0:0:0:
204,227,137236,1,0,0:0:0:0:
204,227,137611,1,0,0:0:0:0:
204,227,137986,1,0,0:0:0:0:
204,227,138736,1,8,0:0:0:0:
