osu file format v14

[General]
AudioFilename: audio.mp3
AudioLeadIn: 0
PreviewTime: 47377
Countdown: 0
SampleSet: Soft
StackLeniency: 0.6
Mode: 0
LetterboxInBreaks: 0
WidescreenStoryboard: 1

[Editor]
Bookmarks: 12690,24690,36690,42690,47190,60690,72690
DistanceSpacing: 1.3
BeatDivisor: 4
GridSize: 16
TimelineZoom: 2.2

[Metadata]
Title:SLUMP -Japanese ver.- (TV Size)
TitleUnicode:SLUMP -Japanese ver.- (TV Size)
Artist:Stray Kids
ArtistUnicode:스트레이 키즈
Creator:Sylvarus
Version:Hard
Source:神之塔 -Tower of God-
Tags:tog kami no tou ending ed SIU Sin-ui Tap 신의 탑 pop japanese jpop j-pop kpop k-pop skz ストレイキッズ talse uzer anime bang chan hyunjin lee know minho changbin han felix seungmin i.n
BeatmapID:2379355
BeatmapSetID:1138490

[Difficulty]
HPDrainRate:4
CircleSize:3.6
OverallDifficulty:6
ApproachRate:7.2
SliderMultiplier:2.6
SliderTickRate:1

[Events]
//Background and Video events
0,0,"68552821_p0.jpg",0,0
//Break Periods
//Storyboard Layer 0 (Background)
//Storyboard Layer 1 (Fail)
//Storyboard Layer 2 (Pass)
//Storyboard Layer 3 (Foreground)
//Storyboard Layer 4 (Overlay)
//Storyboard Sound Samples

[TimingPoints]
690,750,4,2,1,30,1,0
690,-142.857142857143,4,2,1,30,0,0
12690,-111.111111111111,4,2,2,50,0,0
36690,-142.857142857143,4,2,1,30,0,0
47940,-100,4,2,1,60,0,0
48690,-83.3333333333333,4,2,1,80,0,1
72690,-100,4,2,1,70,0,0

[Colours]
Combo1 : 145,0,0
Combo2 : 212,212,212
Combo3 : 127,127,127
Combo4 : 255,12,12
Combo5 : 255,60,60
Combo6 : 255,102,102

[HitObjects]
205,96,690,6,0,P|165:43|99:42,2,136.499995834351,0|2|0,0:0|0:0|0:0,0:0:0:0:
218,213,2190,2,0,P|257:160|319:176,2,136.499995834351,0|2|0,0:0|0:0|0:0,0:0:0:0:
165,319,3690,2,0,P|154:261|101:287,2,136.499995834351,0|2|0,0:0|0:0|0:0,0:0:0:0:
47,337,5190,2,0,P|73:295|72:199,1,136.499995834351,0|2,0:0|0:0,0:0:0:0:
14,43,6315,1,2,0:0:0:0:
125,85,6690,6,0,P|181:80|233:10,2,136.499995834351,0|2|0,0:0|0:0|0:0,0:0:0:0:
225,147,8190,2,0,P|281:152|312:225,2,136.499995834351,0|2|0,0:0|0:0|0:0,0:0:0:0:
332,96,9690,2,0,P|365:66|295:43,2,136.499995834351,0|2|0,0:0|0:0|0:0,0:0:0:0:
443,55,11190,2,0,P|414:94|409:155,1,90.9999972229005,2|0,0:0|0:0,0:0:0:0:
470,234,11940,70,0,L|492:236,1,22.7499993057251,8|8,0:2|0:2,0:2:0:0:
437,305,12315,2,0,L|459:307,1,22.7499993057251,8|8,0:2|0:2,0:2:0:0:
362,250,12690,6,0,L|351:119,1,116.999996429443,4|0,3:2|3:2,0:0:0:0:
238,33,13440,2,0,P|202:48|184:81,1,58.4999982147217,10|0,0:2|0:0,0:0:0:0:
122,29,13815,2,0,P|143:72|139:112,1,87.7499973220826,2|0,0:0|0:0,0:0:0:0:
159,143,14190,2,0,L|152:217,2,58.4999982147217,0|0|0,0:0|3:2|3:2,0:0:0:0:
274,360,14940,2,0,P|283:323|308:299,1,58.4999982147217,10|0,0:2|0:0,0:0:0:0:
254,246,15315,2,0,P|298:234|338:245,1,87.7499973220826,2|0,0:0|0:0,0:0:0:0:
361,215,15690,70,0,L|371:91,1,116.999996429443,0|0,3:2|3:2,0:0:0:0:
496,245,16440,2,2,P|483:284|464:302,1,58.4999982147217,10|0,0:2|0:0,0:0:0:0:
510,362,16815,2,0,P|463:342|417:357,1,87.7499973220826,2|0,0:0|0:0,0:0:0:0:
393,334,17190,2,0,L|271:344,1,116.999996429443,2|0,0:0|3:2,0:0:0:0:
220,292,17752,1,2,0:0:0:0:
144,304,17940,2,0,P|85:321|50:380,1,116.999996429443,10|0,0:2|0:0,0:0:0:0:
15,209,18690,6,0,L|25:83,1,116.999996429443,0|0,3:2|3:2,0:0:0:0:
214,0,19440,2,0,P|189:24|163:31,1,58.4999982147217,10|0,0:2|0:0,0:0:0:0:
172,106,19815,2,0,P|126:96|93:57,1,87.7499973220826,2|0,0:0|0:0,0:0:0:0:
88,31,20190,2,0,L|26:25,2,58.4999982147217,0|0|0,0:0|3:2|3:2,0:0:0:0:
261,80,20940,2,0,P|283:114|287:141,1,58.4999982147217,10|0,0:2|0:0,0:0:0:0:
356,101,21315,2,0,P|327:150|328:198,1,87.7499973220826,2|0,0:0|0:0,0:0:0:0:
344,212,21690,70,0,L|471:200,1,116.999996429443,0|0,3:2|3:2,0:0:0:0:
512,0,22440,2,0,P|492:18|456:23,1,58.4999982147217,10|0,0:2|0:0,0:0:0:0:
470,99,22815,2,0,P|439:77|384:70,1,87.7499973220826,2|0,0:0|0:0,0:0:0:0:
357,87,23190,2,0,L|351:20,2,58.4999982147217,2|0|2,0:0|3:2|3:2,0:0:0:0:
307,144,23752,2,0,B|233:144|266:100|175:100,1,116.999996429443,2|0,0:0|0:0,0:0:0:0:
147,48,24315,2,0,L|140:123,1,58.4999982147217,2|2,0:0|0:0,0:0:0:0:
113,177,24690,6,0,P|78:190|55:219,1,58.4999982147217,6|0,3:2|0:0,0:0:0:0:
53,280,25065,2,0,P|81:303|118:309,1,58.4999982147217,2|0,3:2|0:0,0:0:0:0:
171,339,25440,2,0,L|37:350,1,116.999996429443,10|2,0:2|0:0,0:0:0:0:
177,260,26190,2,0,P|213:272|233:289,1,58.4999982147217,2|0,0:0|3:2,0:0:0:0:
293,245,26565,2,0,P|329:233|349:216,1,58.4999982147217,2|0,3:2|0:0,0:0:0:0:
394,162,26940,1,10,0:2:0:0:
434,226,27127,1,2,0:0:0:0:
476,289,27315,2,0,L|481:351,1,58.4999982147217,2|0,0:0|0:0,0:0:0:0:
406,365,27690,70,0,P|393:330|364:307,1,58.4999982147217,2|0,3:2|0:0,0:0:0:0:
303,305,28065,2,0,P|279:333|273:370,1,58.4999982147217,2|0,3:2|0:0,0:0:0:0:
203,324,28440,2,0,L|191:190,1,116.999996429443,10|2,0:2|0:0,0:0:0:0:
41,250,29190,2,0,P|35:210|47:182,1,58.4999982147217,2|0,0:0|3:2,0:0:0:0:
87,131,29565,2,0,P|93:91|81:63,1,58.4999982147217,2|0,3:2|0:0,0:0:0:0:
33,2,29940,1,10,0:2:0:0:
108,2,30127,1,2,0:0:0:0:
184,2,30315,2,0,L|267:9,1,58.4999982147217,2|0,0:0|0:0,0:0:0:0:
257,81,30690,6,0,P|292:94|315:123,1,58.4999982147217,2|0,3:2|0:0,0:0:0:0:
317,184,31065,2,0,P|288:207|251:213,1,58.4999982147217,2|0,3:2|0:0,0:0:0:0:
199,243,31440,2,0,L|332:254,1,116.999996429443,10|2,0:2|0:0,0:0:0:0:
466,269,32190,2,0,P|479:236|477:207,1,58.4999982147217,2|0,0:0|3:2,0:0:0:0:
484,138,32565,2,0,P|479:102|489:75,1,58.4999982147217,2|0,3:2|0:0,0:0:0:0:
509,6,32940,1,10,0:2:0:0:
435,24,33127,1,2,0:0:0:0:
360,42,33315,2,0,L|291:48,1,58.4999982147217,2|0,0:0|0:0,0:0:0:0:
293,122,33690,70,0,P|309:160|301:197,1,58.4999982147217,2|0,3:2|0:0,0:0:0:0:
244,218,34065,2,0,P|203:212|175:187,1,58.4999982147217,2|0,3:2|0:0,0:0:0:0:
143,142,34440,2,0,L|131:274,1,116.999996429443,10|2,0:2|0:0,0:0:0:0:
118,333,35002,1,2,0:0:0:0:
189,359,35190,2,0,P|218:351|265:368,1,58.4999982147217,2|0,0:0|3:2,0:0:0:0:
299,301,35565,2,0,P|328:309|375:292,1,58.4999982147217,2|0,3:2|0:0,0:0:0:0:
410,357,35940,5,10,0:2:0:0:
331,226,36315,1,2,0:0:0:0:
487,165,36690,70,0,P|490:114|434:31,2,136.499995834351,4|2|0,0:2|0:0|0:0,0:0:0:0:
373,131,38190,2,0,B|292:123|321:183|236:171,1,136.499995834351,0|2,0:0|0:0,0:0:0:0:
80,114,39315,1,0,0:0:0:0:
140,12,39690,6,0,P|189:21|247:101,2,136.499995834351,0|2|0,0:0|0:0|0:0,0:0:0:0:
26,44,41190,2,0,P|-3:104|16:167,1,136.499995834351,0|2,0:0|0:0,0:0:0:0:
177,242,42315,1,2,0:0:0:0:
144,355,42690,70,0,P|101:326|6:340,2,136.499995834351,0|2|0,0:0|0:0|0:0,0:0:0:0:
247,298,44190,2,0,B|323:308|289:358|380:364,1,136.499995834351,0|2,0:0|0:0,0:0:0:0:
492,240,45315,1,0,0:0:0:0:
379,277,45690,6,0,P|352:196|301:152,2,136.499995834351,0|2|0,0:0|0:0|0:0,0:0:0:0:
289,354,47190,1,2,0:0:0:0:
202,118,47940,53,8,0:2:0:0:
202,118,48033,1,8,0:2:0:0:
202,118,48127,1,0,3:2:0:0:
285,102,48315,2,0,L|333:96,3,32.5,8|8|8|8,0:2|0:2|0:2|0:2,0:0:0:0:
359,68,48690,38,0,L|349:188,1,116.999996429443,6|0,3:2|0:0,0:0:0:0:
312,219,49065,2,0,P|344:252|354:291,1,77.999997619629,0|0,3:2|0:0,0:0:0:0:
333,381,49440,1,10,0:2:0:0:
436,357,49627,1,2,0:0:0:0:
436,357,49721,1,0,0:0:0:0:
436,357,49815,2,0,L|445:277,1,77.999997619629,2|2,0:0|0:0,0:0:0:0:
493,190,50190,38,0,P|453:178|411:186,1,77.999997619629,2|0,0:0|3:2,0:0:0:0:
360,99,50565,2,0,P|324:131|316:163,1,77.999997619629,0|0,3:2|0:0,0:0:0:0:
433,54,50940,2,0,B|364:85|355:29|277:66,1,155.999995239258,10|0,0:2|0:0,0:0:0:0:
198,122,51502,1,2,0:0:0:0:
99,96,51690,38,0,P|115:144|109:187,1,77.999997619629,2|0,3:2|0:0,0:0:0:0:
204,215,52065,2,0,P|170:252|123:265,1,77.999997619629,0|0,3:2|0:0,0:0:0:0:
46,226,52440,1,10,0:2:0:0:
2,289,52627,1,2,0:0:0:0:
86,372,52815,1,2,0:0:0:0:
79,296,53002,1,2,0:0:0:0:
175,285,53190,38,0,P|219:294|245:328,1,77.999997619629,2|0,0:0|0:0,0:0:0:0:
337,285,53565,2,0,P|351:327|345:372,1,77.999997619629,0|0,3:2|0:0,0:0:0:0:
276,236,53940,2,0,L|280:158,2,77.999997619629,10|0|2,0:2|0:0|0:0,0:0:0:0:
364,187,54502,1,2,0:0:0:0:
472,207,54690,38,0,P|430:240|422:277,1,77.999997619629,2|0,3:2|0:0,0:0:0:0:
321,275,55065,2,0,P|328:327|355:357,1,77.999997619629,0|0,3:2|0:0,0:0:0:0:
441,367,55440,1,10,0:2:0:0:
507,292,55627,1,2,0:0:0:0:
507,292,55721,1,0,0:0:0:0:
507,292,55815,2,0,L|415:283,1,77.999997619629,2|2,0:0|0:0,0:0:0:0:
321,275,56190,38,0,P|295:236|295:194,1,77.999997619629,2|0,0:0|0:0,0:0:0:0:
195,177,56565,2,0,P|216:136|249:114,1,77.999997619629,0|0,3:2|0:0,0:0:0:0:
214,258,56940,2,0,P|173:222|74:239,1,155.999995239258,10|0,0:2|0:0,0:0:0:0:
17,315,57502,1,2,0:0:0:0:
95,379,57690,38,0,P|126:352|169:346,1,77.999997619629,2|0,3:2|0:0,0:0:0:0:
214,258,58065,2,0,P|252:284|269:325,1,77.999997619629,0|0,3:2|0:0,0:0:0:0:
341,381,58440,1,10,0:2:0:0:
367,309,58627,1,2,0:0:0:0:
467,258,58815,1,2,0:0:0:0:
440,329,59002,1,2,0:0:0:0:
392,238,59190,38,0,P|339:238|301:270,1,77.999997619629,2|0,0:0|3:2,0:0:0:0:
241,183,59565,2,0,P|214:228|223:277,1,77.999997619629,0|0,3:2|0:0,0:0:0:0:
320,155,59940,2,0,L|328:72,1,77.999997619629,10|0,0:2|0:0,0:0:0:0:
222,24,60315,1,2,0:0:0:0:
242,99,60502,1,2,0:0:0:0:
148,138,60690,38,0,L|41:127,2,77.999997619629,4|2|0,3:2|0:0|3:2,0:0:0:0:
116,41,61252,1,2,0:0:0:0:
18,70,61440,2,0,P|-7:115|-5:157,1,77.999997619629,10|0,0:2|0:0,0:0:0:0:
16,190,61721,1,0,0:0:0:0:
16,190,61815,2,0,L|8:280,1,77.999997619629,2|2,0:0|0:0,0:0:0:0:
101,225,62190,38,0,P|152:212|199:220,1,77.999997619629,2|0,0:0|3:2,0:0:0:0:
269,254,62565,1,0,3:2:0:0:
424,123,62940,2,0,L|342:115,2,77.999997619629,8|2|0,0:2|0:0|0:0,0:0:0:0:
495,194,63502,1,2,0:0:0:0:
509,93,63690,38,0,L|501:7,1,77.999997619629,2|0,3:2|0:0,0:0:0:0:
402,36,64065,2,0,L|394:121,1,77.999997619629,2|0,3:2|0:0,0:0:0:0:
335,196,64440,2,0,P|280:166|265:125,1,77.999997619629,10|0,0:2|0:0,0:0:0:0:
230,137,64721,1,0,0:0:0:0:
230,137,64815,2,0,L|237:54,1,77.999997619629,2|0,0:0|0:0,0:0:0:0:
137,36,65190,38,0,P|110:69|103:131,1,77.999997619629,2|0,0:0|3:2,0:0:0:0:
0,111,65565,2,0,P|27:78|34:16,1,77.999997619629,0|0,3:2|0:0,0:0:0:0:
51,172,65940,1,10,0:2:0:0:
96,236,66127,1,2,0:0:0:0:
198,194,66315,1,2,0:0:0:0:
127,164,66502,1,2,0:0:0:0:
170,271,66690,38,0,L|264:262,2,77.999997619629,0|2|0,3:2|0:0|3:2,0:0:0:0:
235,348,67252,1,2,0:0:0:0:
329,310,67440,2,0,P|340:272|336:234,1,77.999997619629,10|0,0:2|0:0,0:0:0:0:
301,204,67721,1,0,0:0:0:0:
301,204,67815,2,0,L|293:113,1,77.999997619629,2|2,0:0|0:0,0:0:0:0:
335,33,68190,38,0,P|383:21|421:35,1,77.999997619629,2|0,0:0|3:2,0:0:0:0:
501,73,68565,1,0,3:2:0:0:
487,275,68940,2,0,L|480:365,1,77.999997619629,10|0,0:2|0:0,0:0:0:0:
383,380,69315,2,0,L|376:289,1,77.999997619629,2|0,0:0|0:0,0:0:0:0:
285,258,69690,38,0,P|244:287|231:330,1,77.999997619629,2|0,3:2|0:0,0:0:0:0:
137,280,70065,2,0,P|177:250|190:207,1,77.999997619629,2|0,3:2|0:0,0:0:0:0:
90,196,70440,2,0,L|4:203,1,77.999997619629,10|0,0:2|0:0,0:0:0:0:
4,256,70721,1,0,0:0:0:0:
4,256,70815,2,0,P|5:300|23:330,1,77.999997619629,2|0,0:0|0:0,0:0:0:0:
112,374,71190,38,0,L|206:365,1,77.999997619629,2|0,0:0|3:2,0:0:0:0:
279,318,71565,2,0,P|245:283|142:281,1,155.999995239258,2|8,3:2|0:2,0:0:0:0:
344,259,72315,2,0,L|354:143,1,116.999996429443,2|0,0:0|0:0,0:0:0:0:
372,104,72690,54,0,P|336:83|296:87,1,65,4|0,3:2|0:2,0:0:0:0:
276,6,73065,2,0,P|239:26|223:63,1,65,0|0,3:2|0:2,0:0:0:0:
143,37,73440,2,0,L|149:117,1,65,8|0,0:0|0:0,0:0:0:0:
190,124,73721,1,0,0:0:0:0:
190,124,73815,2,0,L|182:213,1,65,2|2,0:0|0:0,0:0:0:0:
248,243,74190,2,0,L|240:332,1,65,2|0,0:0|3:2,0:0:0:0:
182,366,74565,1,0,3:2:0:0:
87,225,74940,2,2,B|53:196|53:196|44:296,1,130,8|0,0:2|0:0,0:1:0:0:
35,366,75502,1,0,0:0:0:0:
110,328,75690,6,0,P|138:295|146:252,1,65,0|0,3:2|0:0,0:0:0:0:
228,264,76065,2,0,P|213:223|180:194,1,65,0|0,3:2|0:0,0:0:0:0:
130,157,76440,2,0,L|217:148,1,65,8|0,0:2|0:0,0:0:0:0:
228,125,76721,1,0,0:0:0:0:
228,125,76815,2,0,L|315:116,1,65,2|0,0:0|0:0,0:0:0:0:
351,179,77190,1,2,0:0:0:0:
432,159,77377,2,0,P|467:180|489:217,1,65,2|0,3:2|3:2,0:0:0:0:
474,29,77940,2,2,B|489:69|489:69|392:44,1,130,8|0,0:2|0:0,0:1:0:0:
324,30,78502,1,0,0:0:0:0:
242,53,78690,70,0,P|212:89|209:114,1,65,0|0,3:2|0:0,0:0:0:0:
125,118,79065,2,0,P|141:161|161:177,1,65,0|0,3:2|0:0,0:0:0:0:
181,253,79440,2,0,L|111:246,1,65,8|0,0:2|0:0,0:0:0:0:
84,273,79721,1,0,0:0:0:0:
84,273,79815,2,0,L|77:198,1,65,2|2,0:0|0:0,0:0:0:0:
15,151,80190,2,0,L|8:76,1,65,2|0,0:0|3:2,0:0:0:0:
1,1,80565,1,0,3:2:0:0:
169,24,80940,2,2,B|129:5|129:5|146:104,1,130,8|0,0:2|0:0,0:1:0:0:
154,173,81502,1,0,0:0:0:0:
206,239,81690,6,0,P|252:250|277:245,1,65,0|0,3:2|0:0,0:0:0:0:
312,320,82065,2,0,P|344:285|352:261,1,65,0|0,3:2|0:0,0:0:0:0:
323,189,82440,2,0,L|394:182,1,65,8|0,0:2|0:0,0:0:0:0:
423,160,82721,1,0,0:0:0:0:
423,160,82815,2,0,L|494:153,1,65,2|0,0:0|0:0,0:0:0:0:
509,236,83190,69,2,0:0:0:0:
449,295,83377,2,0,P|449:344|461:371,1,65,2|0,3:2|3:2,0:0:0:0:
284,364,83940,2,2,B|302:324|302:324|203:341,1,130,8|0,0:2|0:0,0:1:0:0:
135,349,84502,1,0,0:0:0:0:
