osu file format v14

[General]
AudioFilename: audio.mp3
AudioLeadIn: 0
PreviewTime: 60580
Countdown: 0
SampleSet: Soft
StackLeniency: 0.2
Mode: 0
LetterboxInBreaks: 0
WidescreenStoryboard: 0

[Editor]
DistanceSpacing: 1.6
BeatDivisor: 4
GridSize: 4
TimelineZoom: 2.3

[Metadata]
Title:My Pace
TitleUnicode:My Pace
Artist:Stray Kids
ArtistUnicode:스트레이 키즈
Creator:Fragmented
Version:JUST STAY IN MY LANE
Source:
Tags:
BeatmapID:2033332
BeatmapSetID:971076

[Difficulty]
HPDrainRate:6
CircleSize:4
OverallDifficulty:7
ApproachRate:9
SliderMultiplier:1.9
SliderTickRate:1

[Events]
//Background and Video events
0,0,"rsz_seungmin-stray-kids-my-pace-i-am-who-z7211.jpg",0,0
//Break Periods
2,161425,162174
//Storyboard Layer 0 (Background)
//Storyboard Layer 1 (Fail)
//Storyboard Layer 2 (Pass)
//Storyboard Layer 3 (Foreground)
//Storyboard Layer 4 (Overlay)
//Storyboard Sound Samples

[TimingPoints]
194,387.096774193548,4,2,2,70,1,0
194,387.096774193548,4,2,2,70,1,0
12580,-111.111111111111,4,2,2,70,0,0
18387,-66.6666666666667,4,2,2,70,0,0
18677,-66.6666666666667,4,2,2,20,0,0
18774,-100,4,2,2,70,0,0
23225,-100,4,2,3,70,0,0
23612,-133.333333333333,4,2,3,70,0,0
24967,-200,4,2,3,60,0,0
25741,-66.6666666666667,4,2,3,60,0,0
26516,-200,4,2,3,60,0,0
27290,-66.6666666666667,4,2,3,60,0,0
28064,-200,4,2,3,60,0,0
30411,-200,4,2,3,40,0,0
30967,-200,4,2,3,60,0,0
31838,-200,4,2,3,20,0,0
31935,-66.6666666666667,4,2,3,60,0,0
32709,-200,4,2,3,60,0,0
33387,-200,4,2,3,20,0,0
33483,-66.6666666666667,4,2,3,60,0,0
34258,-200,4,2,3,60,0,0
36580,-200,4,2,22,60,0,0
37354,-133.333333333333,4,2,33,60,0,0
42774,-200,4,2,33,40,0,0
43354,-200,4,2,33,60,0,0
44322,-200,4,2,33,40,0,0
45096,-133.333333333333,4,2,33,60,0,0
47806,-83.3333333333333,4,2,33,60,0,0
48096,-83.3333333333333,4,2,2,5,0,0
48193,-200,4,2,2,70,0,0
48967,-200,4,2,22,70,0,0
49741,-200,4,2,70,70,0,0
52839,-181.818181818182,4,2,70,70,0,0
55161,-200,4,2,3,70,0,0
55935,-133.333333333333,4,2,3,55,0,0
59806,-133.333333333333,4,2,3,40,0,0
60580,-200,4,2,3,70,0,0
62128,-100,4,2,4,70,0,1
68709,-80,4,2,4,70,0,1
69096,-66.6666666666667,4,2,4,70,0,1
69483,-100,4,2,4,70,0,1
70258,-80,4,2,4,70,0,1
70645,-66.6666666666667,4,2,4,70,0,1
71419,-100,4,2,4,70,0,1
72774,-100,4,2,4,70,0,0
73161,-100,4,2,4,70,0,0
73741,-100,4,2,4,70,0,0
74128,-50,4,2,50,70,0,0
74419,-50,4,2,2,10,0,0
74516,-100,4,2,2,70,0,1
85161,-100,4,2,3,70,0,0
85935,-133.333333333333,4,2,3,70,0,0
86903,-200,4,2,3,60,0,0
88064,-500,4,2,3,60,0,0
88451,-200,4,2,3,60,0,0
89129,-200,4,2,3,5,0,0
89226,-200,4,2,3,60,0,0
89999,-500,4,2,3,60,0,0
92322,-200,4,2,3,50,0,0
92903,-500,4,2,3,60,0,0
93097,-200,4,2,3,60,0,0
94258,-500,4,2,3,60,0,0
94645,-200,4,2,3,60,0,0
95323,-200,4,2,3,5,0,0
95419,-200,4,2,3,60,0,0
96193,-500,4,2,3,60,0,0
98516,-200,4,2,22,60,0,0
99290,-500,4,2,3,60,0,0
100451,-66.6666666666667,4,2,33,60,0,0
100839,-125,4,2,33,60,0,0
104709,-500,4,2,2,60,0,0
105483,-66.6666666666667,4,2,33,60,0,0
106258,-500,4,2,2,60,0,0
107032,-66.6666666666667,4,2,33,60,0,0
107419,-500,4,2,33,60,0,0
107806,-125,4,2,33,60,0,0
110903,-200,4,2,22,70,0,0
111677,-200,4,2,70,70,0,0
114774,-181.818181818182,4,2,70,70,0,0
117096,-500,4,2,3,70,0,0
117870,-125,4,2,3,55,0,0
122516,-200,4,2,3,55,0,0
124064,-100,4,2,4,70,0,1
130645,-83.3333333333333,4,2,4,70,0,1
131032,-66.6666666666667,4,2,4,70,0,1
131419,-100,4,2,4,70,0,1
132193,-83.3333333333333,4,2,4,70,0,1
132581,-66.6666666666667,4,2,4,70,0,1
132968,-100,4,2,4,70,0,1
134709,-100,4,2,4,70,0,0
136451,-200,4,2,5,40,0,0
148838,-125,4,2,5,50,0,0
155032,-111.111111111111,4,2,5,60,0,0
159677,-166.666666666667,4,2,4,70,0,0
161226,-166.666666666667,4,2,4,5,0,0
162774,-100,4,2,4,70,0,1
163161,-100,4,2,4,70,0,0
164322,-100,4,2,4,70,0,1
164709,-100,4,2,4,70,0,0
165870,-66.6666666666667,4,2,4,70,0,1
167419,-100,4,2,4,70,0,0
168967,-83.3333333333333,4,2,4,70,0,1
169355,-71.4285714285714,4,2,4,70,0,1
169742,-62.5,4,2,4,70,0,1
170516,-83.3333333333333,4,2,4,70,0,1
170903,-71.4285714285714,4,2,4,70,0,1
171290,-62.5,4,2,4,70,0,1
172064,-83.3333333333333,4,2,4,70,0,1
173419,-83.3333333333333,4,2,4,70,0,0
174774,-45.4545454545455,4,2,50,70,0,0
175064,-45.4545454545455,4,2,50,5,0,0
175161,-83.3333333333333,4,2,2,70,0,1
185806,-58.8235294117647,4,2,4,70,0,0
186193,-58.8235294117647,4,2,4,5,0,0

[HitObjects]
328,296,12580,5,8,0:2:0:0:
126,94,12774,1,0,0:0:0:0:
227,337,12967,1,8,0:2:0:0:
227,52,13161,1,0,0:0:0:0:
126,296,13354,5,8,0:2:0:0:
328,94,13548,1,0,0:0:0:0:
84,195,13741,1,8,0:2:0:0:
369,195,13935,1,0,0:0:0:0:
120,32,14128,6,0,L|128:140,1,85.4999973907472,8|0,0:2|0:0,0:0:0:0:
356,216,14516,2,0,L|364:108,1,85.4999973907472,8|0,0:2|0:0,0:0:0:0:
108,132,14903,2,0,L|116:240,1,85.4999973907472,8|0,0:2|0:0,0:0:0:0:
312,292,15290,1,8,0:2:0:0:
72,304,15483,1,0,0:0:0:0:
200,72,15677,5,8,0:2:0:0:
232,328,15870,1,0,0:0:0:0:
296,32,16064,1,8,0:2:0:0:
156,256,16258,1,0,0:0:0:0:
384,64,16451,5,8,0:2:0:0:
64,164,16645,1,0,0:0:0:0:
352,168,16838,1,8,0:2:0:0:
80,24,17032,2,0,B|60:72|60:72|88:192,1,170.999994781494
264,276,17612,5,8,0:2:0:0:
236,96,17806,1,0,0:0:0:0:
80,212,17999,2,0,L|88:324,1,85.4999973907472,8|0,0:2|0:0,0:0:0:0:
320,116,18387,6,0,P|288:32|164:48,1,213.750008153916,8|0,0:2|0:0,0:0:0:0:
120,104,18774,6,0,B|120:162|120:162|166:216,1,95,12|0,0:2|0:0,0:0:0:0:
344,344,19161,5,8,0:2:0:0:
176,164,19354,1,0,0:0:0:0:
232,364,19548,5,8,0:2:0:0:
236,96,19742,1,0,0:0:0:0:
204,348,19935,1,8,0:2:0:0:
288,32,20128,6,0,P|316:72|308:140,1,95,0|8,0:0|0:2,0:0:0:0:
156,276,20516,2,0,P|128:236|136:168,1,95,0|8,0:0|0:2,0:0:0:0:
192,28,20903,1,0,0:0:0:0:
320,232,21096,5,8,0:2:0:0:
120,164,21290,1,0,0:0:0:0:
348,112,21484,5,8,0:2:0:0:
72,232,21677,1,0,0:0:0:0:
404,184,21870,6,0,B|415:253|415:253|389:306,1,95,8|0,0:2|0:0,0:0:0:0:
168,276,22258,5,8,0:2:0:0:
424,296,22451,1,0,0:0:0:0:
208,136,22645,5,8,0:2:0:0:
352,352,22839,1,0,0:0:0:0:
404,184,23032,1,8,0:2:0:0:
124,196,23225,5,4,3:2:0:0:
345,308,24967,6,0,P|372:315|400:308,2,47.5,4|0|0,3:2|0:0|0:0,0:0:0:0:
208,40,25741,6,0,B|214:90|214:90|202:118|202:118|206:190,1,142.500005435944,10|0,0:2|0:0,0:0:0:0:
80,332,26128,2,0,B|86:282|86:282|74:254|74:254|78:182,1,142.500005435944,2|0,3:2|0:0,0:0:0:0:
345,76,26516,6,0,P|372:69|400:76,2,47.5,0|0|0,3:2|0:0|0:0,0:0:0:0:
76,40,27290,6,0,B|70:90|70:90|82:118|82:118|78:190,1,142.500005435944,10|0,1:2|0:0,0:0:0:0:
204,332,27677,2,0,B|198:282|198:282|210:254|210:254|206:182,1,142.500005435944,2|8,1:2|0:2,0:0:0:0:
437,240,28064,6,0,L|453:142,1,95,0|0,3:2|0:0,0:0:0:0:
140,108,28645,2,0,L|155:201,1,95,0|0,3:2|0:0,0:0:0:0:
452,146,29225,2,0,P|468:98|468:48,1,95,0|0,3:2|0:0,0:0:0:0:
155,201,29806,1,0,3:2:0:0:
452,146,29999,1,0,3:2:0:0:
56,144,30387,6,0,B|52:128,4,11.875,8|8|8|8|0,0:2|0:2|0:2|0:2|0:0,0:0:0:0:
124,304,30774,2,0,B|128:320,4,11.875,8|8|8|8|8,0:2|0:2|0:2|0:2|0:2,0:0:0:0:
189,17,31161,5,0,3:2:0:0:
230,238,31354,1,0,0:0:0:0:
282,39,31548,2,0,P|314:34|357:50,1,71.25,2|0,0:1|0:0,0:0:0:0:
429,137,31935,6,0,B|426:105|403:89|403:89|378:96|378:96|354:83|349:36,1,142.500005435944,10|0,0:2|0:0,0:0:0:0:
350,228,32322,2,0,B|353:196|376:180|376:180|401:187|401:187|425:174|430:127,1,142.500005435944,2|0,3:2|0:0,0:0:0:0:
264,112,32709,5,0,3:2:0:0:
223,333,32903,1,0,0:0:0:0:
171,134,33096,2,0,P|139:129|96:145,1,71.25,2|0,0:1|0:0,0:0:0:0:
24,232,33483,6,0,B|27:200|50:184|50:184|75:191|75:191|99:178|104:131,1,142.500005435944,10|0,1:2|0:0,0:0:0:0:
103,323,33870,2,0,B|100:291|77:275|77:275|52:282|52:282|28:269|23:222,1,142.500005435944,2|0,1:2|0:0,0:0:0:0:
310,319,34258,6,0,P|266:311|219:336,1,95,0|0,3:2|0:0,0:0:0:0:
512,216,34838,2,0,P|489:177|440:157,1,95,0|0,3:2|0:0,0:0:0:0:
144,72,35419,2,0,B|168:88|168:88|244:80,1,95,0|0,3:2|0:0,0:0:0:0:
124,252,35999,1,0,3:2:0:0:
88,300,36096,1,0,3:2:0:0:
52,343,36193,2,0,P|24:297|29:267,1,71.25,0|0,3:2|0:0,0:0:0:0:
48,180,36580,6,0,L|47:144,2,31.6666666666667,8|8|8,1:3|0:3|0:3,0:0:0:0:
112,32,36967,2,0,L|112:63,2,31.6666666666667,8|4|4,0:3|0:3|0:3,0:0:0:0:
180,152,37354,6,0,P|252:178|330:137,1,142.500005435944,4|2,3:2|0:2,0:0:0:0:
360,72,37838,1,2,0:2:0:0:
360,72,37935,1,2,0:2:0:0:
512,236,38128,2,0,L|506:314,1,71.2500027179719,10|2,0:2|0:2,0:0:0:0:
260,312,38516,1,0,3:2:0:0:
440,140,38709,1,0,0:0:0:0:
432,368,38903,6,0,L|355:374,1,71.2500027179719,0|0,3:2|0:0,0:0:0:0:
176,244,39290,2,0,P|160:206|164:147,1,71.2500027179719,2|0,0:1|0:0,0:0:0:0:
347,115,39677,2,0,P|363:153|359:212,1,71.2500027179719,8|0,0:2|0:0,0:0:0:0:
264,348,40064,1,0,0:0:0:0:
336,192,40258,1,8,0:2:0:0:
79,258,40451,6,0,L|71:175,1,71.2500027179719,0|0,3:2|0:0,0:0:0:0:
232,48,40838,1,2,0:2:0:0:
228,68,40935,1,2,0:2:0:0:
224,88,41032,1,2,3:2:0:0:
168,276,41225,1,10,0:2:0:0:
136,40,41419,1,2,0:2:0:0:
336,144,41612,2,0,P|304:156|265:153,1,71.2500027179719,0|0,3:2|0:0,0:0:0:0:
64,116,41999,6,0,L|72:186,2,71.2500027179719,0|0|0,0:0|3:2|3:2,0:0:0:0:
144,336,42774,2,0,B|152:340,7,5.9375,8|8|8|8|8|8|8|8,0:2|0:2|0:2|0:2|0:2|0:2|0:2|0:2,0:0:0:0:
60,288,43161,2,0,B|52:292,7,5.9375,8|8|8|8|8|8|8|8,0:2|0:2|0:2|0:2|0:2|0:2|0:2|0:2,0:0:0:0:
500,208,43548,6,0,B|464:212|428:184|428:184|392:208|344:196,1,166.25
320,160,44322,6,0,L|285:157,1,23.75,10|0,0:2|0:0,0:0:0:0:
120,64,44516,2,0,L|155:67,1,23.75,10|0,0:2|0:0,0:0:0:0:
312,264,44709,1,10,0:2:0:0:
252,304,44806,1,10,0:2:0:0:
180,304,44903,1,10,0:2:0:0:
116,272,44999,1,10,0:2:0:0:
72,216,45096,6,0,P|60:164|72:120,1,71.2500027179719,0|0,3:2|0:0,0:0:0:0:
220,24,45483,1,2,0:1:0:0:
272,232,45677,1,0,0:0:0:0:
36,212,45870,2,0,P|24:160|36:116,1,71.2500027179719,8|0,0:2|0:0,0:0:0:0:
196,24,46258,2,0,P|208:76|196:120,1,71.2500027179719,0|8,0:0|0:2,0:0:0:0:
129,318,46645,6,0,L|137:230,1,71.2500027179719,0|0,3:2|0:0,0:0:0:0:
296,104,47032,1,2,0:2:0:0:
300,128,47128,1,2,0:2:0:0:
304,152,47225,1,2,3:2:0:0:
88,100,47419,1,10,0:2:0:0:
352,32,47612,1,2,0:2:0:0:
296,316,47806,6,0,P|228:288|260:168,1,170.999994781494,0|0,3:2|0:0,0:0:0:0:
288,236,48193,1,0,0:0:0:0:
256,20,48967,6,0,L|204:36,2,31.6666666666667,8|8|8,0:3|0:3|0:3,0:0:0:0:
300,92,49354,2,0,L|352:108,2,31.6666666666667,4|4|4,0:3|0:3|0:3,0:0:0:0:
204,184,49741,6,0,P|80:240|260:240,1,522.5,4|0,0:2|0:0,0:0:0:0:
296,124,52064,2,0,P|344:104|352:104,1,47.5
440,228,52452,2,0,P|417:221|397:208,1,47.5
260,240,52839,6,0,P|101:341|204:184,1,522.5
372,324,55161,1,0,1:2:0:0:
408,336,55258,1,0,1:2:0:0:
448,328,55354,1,0,1:2:0:0:
480,304,55452,1,0,1:2:0:0:
492,264,55548,1,0,1:2:0:0:
480,224,55645,1,0,1:2:0:0:
456,192,55742,1,0,1:2:0:0:
444,156,55838,1,0,1:2:0:0:
452,116,55935,6,0,P|416:124|376:116,1,71.2500027179719,0|0,3:2|0:0,0:0:0:0:
308,64,56226,2,0,P|272:58|238:66,1,71.2500027179719,8|0,0:2|0:0,0:0:0:0:
280,148,56516,1,8,0:2:0:0:
132,40,56709,1,0,3:2:0:0:
132,40,56806,2,0,L|120:136,1,71.2500027179719,8|0,0:2|0:0,0:0:0:0:
68,184,57097,2,0,P|40:196|-16:192,1,71.2500027179719,8|8,3:2|0:2,0:0:0:0:
280,148,57484,6,0,L|292:244,1,71.2500027179719,8|0,3:2|0:0,0:0:0:0:
344,292,57775,2,0,P|372:304|428:300,1,71.2500027179719,8|0,0:2|0:0,0:0:0:0:
500,256,58064,1,8,0:2:0:0:
372,40,58258,1,0,3:2:0:0:
372,40,58355,2,0,B|352:76|352:76|360:136,1,71.2500027179719,8|0,0:2|0:0,0:0:0:0:
428,172,58646,2,0,L|498:165,1,71.2500027179719,8|8,3:2|0:2,0:0:0:0:
161,309,59032,5,8,3:2:0:0:
101,318,59128,1,8,0:2:0:0:
51,283,59225,1,8,3:2:0:0:
41,224,59322,1,8,0:2:0:0:
77,174,59419,1,8,3:2:0:0:
136,164,59516,1,8,0:2:0:0:
186,199,59612,1,8,3:2:0:0:
196,259,59709,1,8,0:2:0:0:
161,309,59806,6,0,L|152:312,4,8.90625033974649,8|8|8|8|8,3:2|0:2|0:2|0:2|0:2,0:0:0:0:
316,232,60000,2,0,L|325:229,4,8.90625033974649,8|8|8|8|8,3:2|0:2|0:2|0:2|0:2,0:0:0:0:
240,368,60193,2,0,L|231:371,4,8.90625033974649,8|8|8|8|8,3:2|0:2|0:2|0:2|0:2,0:0:0:0:
395,291,60387,2,0,L|404:288,4,8.90625033974649,8|8|8|8|8,3:2|0:2|0:2|0:2|0:2,0:0:0:0:
368,120,60580,6,0,B|392:156|440:152|472:120|468:72|444:48|408:36|372:52|360:72|364:92|340:104|312:96|292:84,1,285,0|0,3:2|3:2,0:0:0:0:
144,304,62128,6,0,B|160:168|160:168|120:108,1,190,4|0,3:1|0:0,0:0:0:0:
0,200,62709,1,0,0:0:0:0:
184,340,62903,2,0,L|288:328,1,95,8|0,0:2|0:0,0:0:0:0:
328,96,63290,2,0,L|233:106,1,95,0|0,0:0|3:2,0:0:0:0:
484,280,63677,5,0,0:0:0:0:
412,36,63870,1,0,0:0:0:0:
228,236,64064,2,0,B|168:228|168:228|112:246|112:246|28:232,1,190,0|8,0:0|0:2,0:0:0:0:
164,48,64645,1,0,0:0:0:0:
316,280,64838,1,0,0:0:0:0:
224,148,65032,1,0,0:0:0:0:
408,36,65225,6,0,P|460:28|504:36,1,95,0|0,3:2|0:0,0:0:0:0:
440,220,65612,1,0,0:0:0:0:
224,148,65806,2,0,L|120:152,1,95,0|8,0:0|0:2,0:0:0:0:
352,248,66193,2,0,P|368:188|360:124,1,95,0|0,3:2|0:0,0:0:0:0:
268,28,66580,1,0,3:2:0:0:
129,151,66774,1,0,0:0:0:0:
216,348,66967,6,0,P|272:336|332:364,2,95,0|0|0,0:0|0:0|3:2,0:0:0:0:
108,136,67548,5,8,0:2:0:0:
180,352,67742,1,0,0:0:0:0:
168,48,67935,5,0,0:0:0:0:
92,292,68129,1,0,0:0:0:0:
74,49,68322,6,0,P|121:41|174:49,1,95,0|0,3:2|0:0,0:0:0:0:
384,192,68709,2,0,B|392:56|392:56|320:84,1,178.125,0|0,3:2|0:0,0:0:0:0:
237,83,69096,6,0,B|256:53|256:53|324:45|324:45|360:77,1,142.500005435944,14|0,3:2|0:0,0:0:0:0:
228,324,69483,1,0,3:2:0:0:
48,148,69677,1,0,0:0:0:0:
216,68,69870,2,0,L|212:168,1,95,0|0,3:2|0:0,0:0:0:0:
128,352,70258,2,0,B|0:332|0:332|40:292,1,178.125,0|0,3:2|0:0,0:0:0:0:
49,177,70645,6,0,B|69:197|69:197|64:272|64:272|25:305,1,142.500005435944,14|0,3:2|0:0,0:0:0:0:
168,36,71032,1,0,3:2:0:0:
32,192,71225,1,0,0:0:0:0:
292,316,71419,6,0,L|232:340,1,47.5,0|0,3:2|0:0,0:0:0:0:
452,160,71612,2,0,L|512:136,1,47.5,0|0,3:2|0:0,0:0:0:0:
288,224,71806,2,0,L|228:248,1,47.5,0|0,3:2|0:0,0:0:0:0:
456,252,71999,2,0,L|516:228,1,47.5,0|0,3:2|0:0,0:0:0:0:
352,120,72193,1,0,3:2:0:0:
328,128,72290,1,0,0:0:0:0:
304,136,72387,1,0,3:2:0:0:
48,56,72580,1,0,3:2:0:0:
272,4,72774,5,6,3:2:0:0:
348,56,73741,5,0,3:2:0:0:
344,128,73838,1,0,3:2:0:0:
340,200,73935,1,0,3:2:0:0:
68,328,74128,6,0,B|88:304|136:300|172:320|172:320|196:248|132:240|128:184|168:136,1,285,4|0,0:2|0:0,0:0:0:0:
104,64,74516,6,0,P|168:44|216:68,1,95,8|0,3:2|0:0,0:0:0:0:
308,276,74903,5,8,3:2:0:0:
224,60,75097,1,0,0:0:0:0:
228,340,75290,5,8,3:2:0:0:
304,104,75484,1,0,0:0:0:0:
192,360,75677,1,8,3:2:0:0:
324,80,75870,6,0,L|316:204,1,95,0|8,0:0|3:2,0:0:0:0:
85,81,76258,2,0,L|93:205,1,95,0|8,0:0|3:2,0:0:0:0:
288,284,76645,1,0,0:0:0:0:
96,336,76838,1,8,3:2:0:0:
60,288,76935,1,0,0:0:0:0:
64,228,77032,1,0,0:0:0:0:
92,176,77128,1,0,0:0:0:0:
144,152,77226,2,0,L|188:156,6,23.75,8|0|0|0|0|0|0,3:2|0:0|0:0|0:0|0:0|0:0|0:0,0:0:0:0:
112,108,77612,6,0,P|96:64|112:12,1,95,8|0,3:2|0:0,0:0:0:0:
372,60,78000,5,8,3:2:0:0:
128,32,78194,1,0,0:0:0:0:
372,216,78387,5,8,3:2:0:0:
152,48,78581,1,0,0:0:0:0:
352,84,78774,1,8,3:2:0:0:
140,244,78967,2,0,P|132:292|156:352,1,95,0|8,0:0|3:2,0:0:0:0:
440,160,79354,5,0,0:0:0:0:
408,352,79548,1,8,3:2:0:0:
240,192,79741,1,0,0:0:0:0:
464,256,79935,1,8,3:2:0:0:
404,256,80032,1,0,0:0:0:0:
356,216,80128,1,0,0:0:0:0:
344,152,80225,1,0,0:0:0:0:
368,96,80322,2,0,L|392:60,6,23.75,8|0|0|0|0|0|0,3:2|0:0|0:0|0:0|0:0|0:0|0:0,0:0:0:0:
408,24,80709,6,0,L|304:32,1,95,12|0,3:2|0:0,0:0:0:0:
44,48,81096,5,8,3:2:0:0:
312,144,81290,1,0,0:0:0:0:
64,184,81484,5,8,3:2:0:0:
284,48,81677,1,0,0:0:0:0:
72,216,81870,1,8,3:2:0:0:
328,252,82064,6,0,P|334:298|323:344,1,95,0|8,0:0|3:2,0:0:0:0:
108,328,82451,2,0,P|96:272|108:224,1,95,0|8,0:0|3:2,0:0:0:0:
228,48,82838,1,0,0:0:0:0:
348,224,83032,1,8,3:2:0:0:
400,244,83128,1,0,0:0:0:0:
456,232,83225,1,0,0:0:0:0:
496,192,83322,1,0,0:0:0:0:
504,132,83419,2,0,L|496:104,6,23.75,8|0|0|0|0|0|0,3:2|0:0|0:0|0:0|0:0|0:0|0:0,0:0:0:0:
460,76,83806,6,0,B|400:68|400:68|356:88,1,95,8|0,3:2|0:0,0:0:0:0:
280,356,84193,5,8,3:2:0:0:
376,120,84387,1,0,0:0:0:0:
380,344,84581,5,8,3:2:0:0:
280,88,84774,1,0,0:0:0:0:
440,208,84968,1,8,3:2:0:0:
104,292,85161,5,4,0:2:0:0:
212,104,85935,6,0,P|164:112|120:104,4,71.2500027179719
376,52,86903,6,0,B|408:120|408:120|376:212,1,166.25,4|0,0:2|0:0,0:0:0:0:
292,168,87677,1,8,0:2:0:0:
68,328,88064,2,0,L|77:294,1,28.5,0|0,3:2|0:0,0:0:0:0:
48,204,88452,2,0,B|176:200|176:200|204:244,1,166.25,0|0,3:2|0:0,0:0:0:0:
248,308,89225,6,0,L|248:316,5,7.91666666666667,10|0|0|0|0|0,1:2|1:2|1:2|1:2|1:2|1:2,0:0:0:0:
324,152,89613,2,0,L|324:144,5,7.91666666666667,2|0|0|0|0|0,1:2|1:2|1:2|1:2|1:2|1:2,0:0:0:0:
484,300,89999,6,0,P|468:304|444:304,1,38,0|0,3:2|0:0,0:0:0:0:
224,212,90581,2,0,P|228:196|240:175,1,38,0|0,3:2|0:0,0:0:0:0:
424,36,91161,2,0,P|435:47|447:68,1,38,0|0,3:2|0:0,0:0:0:0:
392,200,91742,2,0,L|392:176,1,19,0|0,3:2|3:2,0:0:0:0:
72,112,92323,6,0,L|64:104,3,11.875,8|8|8|8,0:2|0:2|0:2|0:2,0:0:0:0:
176,32,92710,2,0,L|184:24,3,11.875,8|8|8|8,0:2|0:2|0:2|0:2,0:0:0:0:
240,180,93097,6,0,B|224:208|184:216|184:216|232:268|208:332,1,190,0|10,3:2|0:2,0:0:0:0:
96,40,94258,2,0,P|92:60|92:72,1,28.5,2|0,3:2|0:0,0:0:0:0:
168,108,94645,2,0,B|184:84|176:60|176:60|240:80|296:52,1,166.25,2|0,3:2|0:0,0:0:0:0:
368,104,95419,6,0,L|372:116,5,7.91666666666667,10|0|0|0|0|0,1:2|1:2|1:2|1:2|1:2|1:2,0:0:0:0:
264,168,95806,2,0,L|260:180,5,7.91666666666667,2|0|0|0|0|0,1:2|1:2|1:2|1:2|1:2|1:2,0:0:0:0:
440,368,96193,6,0,L|428:328,1,38,2|0,3:2|0:0,0:0:0:0:
261,175,96774,2,0,L|301:184,1,38,0|0,3:2|0:0,0:0:0:0:
512,116,97355,2,0,L|483:146,1,38,0|0,3:2|0:0,0:0:0:0:
304,304,97935,1,0,3:2:0:0:
244,292,98032,1,0,3:2:0:0:
188,280,98129,2,0,L|152:288,1,28.5,0|0,3:2|0:0,0:0:0:0:
72,268,98516,6,0,P|68:296|72:308,2,31.6666666666667,8|8|8,1:3|0:3|0:3,0:0:0:0:
236,204,98903,2,0,P|240:176|236:164,2,31.6666666666667,8|4|4,0:3|0:3|0:3,0:0:0:0:
72,104,100452,6,0,L|168:116,1,71.2500027179719,0|0,3:2|0:0,0:0:0:0:
384,44,100645,2,0,L|313:52,1,71.2500027179719,0|0,3:2|0:0,0:0:0:0:
88,200,100839,5,0,3:2:0:0:
84,236,100935,1,0,0:0:0:0:
80,272,101032,1,0,0:0:0:0:
305,124,101226,1,2,0:1:0:0:
309,88,101322,1,0,0:0:0:0:
313,52,101419,1,0,0:0:0:0:
212,300,101613,2,0,B|240:304|240:304|308:292,1,76,8|0,0:2|0:0,0:0:0:0:
488,192,102000,1,0,0:0:0:0:
380,352,102193,1,8,0:2:0:0:
440,104,102387,6,0,P|428:56|404:32,1,76,0|0,3:2|0:0,0:0:0:0:
316,68,102677,2,0,P|328:116|352:140,1,76,0|2,0:0|0:2,0:0:0:0:
344,236,102968,2,0,L|292:228,1,38,2|0,3:2|0:0,0:0:0:0:
184,96,103161,2,0,B|144:96|144:96|100:124,1,76,10|2,0:2|0:2,0:0:0:0:
16,96,103452,2,0,L|28:180,1,76
72,320,103742,2,0,L|84:256,1,38
180,184,103935,2,0,P|196:232|188:280,1,76,0|0,0:0|3:2,0:0:0:0:
256,36,104323,1,0,3:2:0:0:
256,36,104419,1,0,0:0:0:0:
256,36,104516,1,0,0:0:0:0:
480,172,104710,6,0,L|484:152,1,19,2|2,0:2|0:2,0:0:0:0:
456,208,105000,2,0,L|459:226,1,19,2|2,0:2|0:2,0:0:0:0:
492,256,105290,1,2,0:2:0:0:
208,336,105484,6,0,P|148:268|276:284,1,285.000010871888,0|2,3:2|0:2,0:0:0:0:
272,280,105968,1,2,0:2:0:0:
260,300,106064,1,2,0:2:0:0:
44,56,106258,6,0,L|40:36,1,19,2|2,0:2|0:2,0:0:0:0:
68,92,106548,2,0,L|64:110,1,19,2|2,0:2|0:2,0:0:0:0:
32,140,106838,1,2,0:2:0:0:
356,52,107032,6,0,B|396:80|468:72|468:72|408:76|344:148,1,213.750008153916,0|0,3:2|0:0,0:0:0:0:
328,184,107419,6,0,P|348:192|352:192,1,19,2|0,0:1|0:0,0:0:0:0:
172,324,107806,6,0,L|92:316,1,76,8|0,0:2|0:0,0:0:0:0:
0,228,108097,2,0,L|75:220,1,76
160,104,108387,1,8,0:2:0:0:
176,140,108484,1,0,0:0:0:0:
172,180,108581,2,0,P|232:164|260:172,1,76,0|0,3:2|0:0,0:0:0:0:
412,212,108871,2,0,P|352:228|324:220,1,76,0|2,0:0|0:2,0:0:0:0:
360,136,109161,1,2,3:2:0:0:
440,332,109355,5,10,0:2:0:0:
364,108,109548,1,2,0:2:0:0:
304,340,109742,1,0,3:2:0:0:
456,140,109935,1,0,0:0:0:0:
48,124,110903,6,0,L|44:164,2,31.6666666666667,8|8|8,0:3|0:3|0:3,0:0:0:0:
124,188,111290,2,0,L|120:219,2,31.6666666666667,4|4|4,0:3|0:3|0:3,0:0:0:0:
300,88,111677,6,0,B|364:104|364:104|468:80|468:80|368:184|372:232|428:308|536:272|508:176,1,522.5,4|0,0:2|0:0,0:0:0:0:
492,348,114000,2,0,P|456:356|432:352,1,47.5
304,304,114387,2,0,P|340:296|364:300,1,47.5
508,176,114774,6,0,B|536:272|428:308|372:232|368:184|468:80|468:80|364:104|364:104|300:88,1,522.5
32,40,117097,1,0,1:2:0:0:
52,72,117193,1,0,1:2:0:0:
60,112,117290,1,0,1:2:0:0:
52,156,117387,1,0,1:2:0:0:
36,192,117484,1,0,1:2:0:0:
32,236,117581,1,0,1:2:0:0:
52,272,117677,1,0,1:2:0:0:
88,288,117774,1,0,1:2:0:0:
128,284,117871,6,0,P|192:264|216:268,1,76,0|0,3:2|0:0,0:0:0:0:
288,308,118161,2,0,P|325:305|359:288,1,76,8|0,0:2|0:0,0:0:0:0:
408,208,118452,1,8,0:2:0:0:
236,36,118645,1,0,3:2:0:0:
236,36,118742,2,0,L|232:132,1,76,8|0,0:2|0:0,0:0:0:0:
144,176,119032,2,0,L|140:80,1,76,8|8,3:2|0:2,0:0:0:0:
334,199,119419,6,0,P|386:211|438:195,1,76,8|0,3:2|0:0,0:0:0:0:
352,108,119710,2,0,P|314:105|278:116,1,76,8|0,0:2|0:0,0:0:0:0:
224,204,120000,1,8,0:2:0:0:
404,281,120193,1,0,3:2:0:0:
404,281,120290,2,0,B|416:233|416:233|404:197,1,76,8|0,0:2|0:0,0:0:0:0:
308,304,120581,2,0,L|320:400,1,76,8|8,3:2|0:2,0:0:0:0:
20,192,120968,5,8,3:2:0:0:
60,148,121064,1,8,0:2:0:0:
116,140,121161,1,8,3:2:0:0:
168,156,121258,1,8,0:2:0:0:
216,180,121355,1,8,3:2:0:0:
268,196,121452,1,8,0:2:0:0:
324,188,121549,1,8,3:2:0:0:
364,144,121645,1,8,0:2:0:0:
372,88,121742,6,0,L|368:72,4,9.5,8|8|8|8|8,3:2|0:2|0:2|0:2|0:2,0:0:0:0:
476,248,121935,2,0,L|480:264,4,9.5,8|8|8|8|8,3:2|0:2|0:2|0:2|0:2,0:0:0:0:
472,108,122129,2,0,L|476:92,4,9.5,8|8|8|8|8,3:2|0:2|0:2|0:2|0:2,0:0:0:0:
384,268,122322,2,0,L|380:284,4,9.5,8|8|8|8|8,3:2|0:2|0:2|0:2|0:2,0:0:0:0:
268,84,122516,6,0,B|228:108|184:80|184:80|120:48|64:112|92:180|156:184,1,285,0|0,3:2|3:2,0:0:0:0:
436,40,124064,6,0,B|460:80|460:80|448:224,1,190,4|0,3:1|0:0,0:0:0:0:
332,344,124645,1,0,0:0:0:0:
96,192,124839,2,0,L|196:180,1,95,8|0,0:2|0:0,0:0:0:0:
436,40,125226,2,0,L|336:28,1,95,0|0,0:0|3:2,0:0:0:0:
112,52,125613,1,0,0:0:0:0:
372,140,125806,1,0,0:0:0:0:
208,280,126000,2,0,B|168:312|112:296|120:288|64:268|4:328,1,190,0|8,0:0|0:2,0:0:0:0:
148,184,126581,1,0,0:0:0:0:
28,24,126774,2,0,B|16:64|16:64|36:124,1,95
284,212,127161,6,0,B|296:172|296:172|276:112,1,95,0|0,3:2|0:0,0:0:0:0:
144,32,127548,1,0,0:0:0:0:
376,144,127742,2,0,P|416:144|480:124,1,95,0|8,0:0|0:2,0:0:0:0:
172,240,128129,2,0,P|126:226|79:225,1,95,0|0,3:2|0:0,0:0:0:0:
360,344,128516,1,0,3:2:0:0:
279,121,128710,1,0,0:0:0:0:
140,316,128903,6,0,B|104:328|104:328|48:320,2,95,0|0|0,0:0|0:0|3:2,0:0:0:0:
264,84,129484,5,8,0:2:0:0:
176,328,129677,1,0,0:0:0:0:
156,48,129871,5,0,0:0:0:0:
304,284,130064,1,0,0:0:0:0:
32,248,130258,6,0,P|20:204|48:152,1,95,0|0,3:2|0:0,0:0:0:0:
272,56,130645,2,0,B|308:84|308:84|328:140|296:216,1,170.999994781494,0|0,3:2|0:0,0:0:0:0:
181,239,131032,6,0,B|189:215|189:215|272:192|272:192|301:207,1,142.500005435944,14|0,3:2|0:0,0:0:0:0:
488,340,131419,5,0,3:2:0:0:
288,244,131613,1,0,0:0:0:0:
492,100,131806,2,0,P|512:136|508:196,1,95,0|0,3:2|0:0,0:0:0:0:
276,280,132193,2,0,B|240:252|240:252|220:196|252:120,1,170.999994781494,0|0,3:2|0:0,0:0:0:0:
367,97,132580,6,0,B|359:121|359:121|276:144|276:144|247:129,1,142.500005435944,14|0,3:2|0:0,0:0:0:0:
68,32,132968,1,0,3:2:0:0:
304,48,133161,1,0,0:0:0:0:
4,176,133355,6,0,L|0:128,1,47.5,0|0,3:2|0:0,0:0:0:0:
96,320,133548,2,0,L|100:368,1,47.5,0|0,3:2|0:0,0:0:0:0:
116,136,133742,2,0,L|112:88,1,47.5,0|0,3:2|0:0,0:0:0:0:
208,280,133935,2,0,L|212:328,1,47.5,0|0,3:2|0:0,0:0:0:0:
252,96,134129,1,0,3:2:0:0:
260,56,134226,1,0,0:0:0:0:
268,16,134323,1,0,3:2:0:0:
332,244,134516,1,0,3:2:0:0:
512,32,134710,5,6,3:2:0:0:
512,32,136452,6,0,P|484:116|508:228,1,190,2|2,0:2|0:3,0:0:0:0:
300,296,137419,1,2,0:2:0:0:
368,228,137613,1,2,0:2:0:0:
392,324,137806,1,2,0:2:0:0:
116,340,138000,2,0,P|144:256|120:144,1,190,0|2,0:0|0:3,0:0:0:0:
328,48,138968,1,2,0:2:0:0:
288,132,139161,1,2,0:2:0:0:
308,24,139355,1,2,0:2:0:0:
44,92,139548,6,0,P|120:56|216:108,1,190,0|2,0:0|0:3,0:0:0:0:
400,336,141097,2,0,B|440:312|492:320|492:320|464:264|480:208,1,190,0|2,0:0|0:3,0:0:0:0:
475,228,142645,6,0,P|423:216|287:268,1,190,2|2,0:2|0:3,0:0:0:0:
92,72,143613,1,2,0:2:0:0:
168,132,143806,1,2,0:2:0:0:
184,36,144000,1,2,0:2:0:0:
64,296,144193,6,0,P|116:284|252:336,1,190,0|2,0:0|0:3,0:0:0:0:
384,148,145161,1,2,0:2:0:0:
360,244,145355,1,2,0:2:0:0:
368,112,145548,1,2,0:2:0:0:
432,324,145742,6,0,P|356:352|268:288,1,190,0|2,0:0|0:3,0:0:0:0:
20,60,147290,2,0,B|64:40|120:56|108:60|160:76|212:52,1,190,0|2,0:0|0:3,0:0:0:0:
208,56,148839,6,0,P|196:96|200:144,1,76,0|0,3:2|0:0,0:0:0:0:
276,264,149226,1,0,3:2:0:0:
288,100,149419,1,0,0:0:0:0:
176,280,149613,2,0,P|144:288|88:288,1,76,2|0,3:3|0:0,0:0:0:0:
0,148,150000,2,0,P|32:140|88:140,1,76,0|0,3:2|0:0,0:0:0:0:
364,160,150387,6,0,L|376:80,1,76,0|0,3:2|0:0,0:0:0:0:
276,264,150774,2,0,L|288:344,1,76,0|0,3:2|0:0,0:0:0:0:
464,240,151161,1,2,3:3:0:0:
276,184,151355,1,0,0:0:0:0:
492,136,151548,1,0,3:2:0:0:
304,192,151742,1,0,0:0:0:0:
424,20,151935,6,0,P|416:52|428:104,1,76,0|0,3:2|0:0,0:0:0:0:
480,300,152323,2,0,P|488:268|476:216,1,76,0|0,3:2|0:0,0:0:0:0:
312,108,152710,2,0,P|268:104|196:144,1,114,2|0,3:3|0:0,0:0:0:0:
188,156,153097,1,0,3:2:0:0:
280,312,153290,1,0,0:0:0:0:
84,192,153484,6,0,L|88:100,1,76,0|0,3:2|0:0,0:0:0:0:
196,276,153871,2,0,L|192:368,1,76,0|0,3:2|0:0,0:0:0:0:
240,128,154258,5,2,3:3:0:0:
312,300,154452,1,0,0:0:0:0:
320,92,154645,5,0,3:2:0:0:
196,276,154839,1,0,0:0:0:0:
408,88,155032,6,0,P|444:80|496:88,1,85.4999973907472,8|0,3:2|0:0,0:0:0:0:
344,168,155323,2,0,P|308:176|256:168,1,85.4999973907472,8|0,0:2|0:0,0:0:0:0:
188,104,155613,1,8,0:2:0:0:
40,236,155806,1,2,3:3:0:0:
40,236,155903,2,0,L|56:344,1,85.4999973907472,8|0,0:2|0:0,0:0:0:0:
84,144,156193,2,0,L|96:59,1,85.4999973907472,8|8,3:2|0:2,0:0:0:0:
232,296,156581,6,0,B|272:304|272:304|328:296,1,85.4999973907472,8|0,3:2|0:0,0:0:0:0:
392,236,156871,2,0,B|436:229|436:229|476:237,1,85.4999973907472,8|0,0:2|0:0,0:0:0:0:
432,328,157161,1,8,0:2:0:0:
240,152,157355,1,2,3:3:0:0:
240,152,157452,2,0,P|224:120|236:64,1,85.4999973907472,8|0,0:2|0:0,0:0:0:0:
307,217,157742,2,0,P|323:249|311:305,1,85.4999973907472,8|8,3:2|0:2,0:0:0:0:
72,44,158129,5,8,3:2:0:0:
32,88,158226,1,0,0:0:0:0:
36,148,158323,1,8,3:2:0:0:
80,184,158419,1,0,0:0:0:0:
132,208,158516,1,8,3:2:0:0:
176,244,158612,1,0,0:0:0:0:
180,304,158709,1,8,3:2:0:0:
140,348,158806,1,8,0:2:0:0:
88,348,158903,6,0,L|71:344,4,9.5,8|8|8|0|0,3:2|0:2|0:2|0:0|0:0,0:0:0:0:
320,304,159097,2,0,L|329:302,4,9.5,8|8|8|0|0,3:2|0:2|0:2|0:0|0:0,0:0:0:0:
96,272,159290,2,0,L|79:268,4,9.5,8|8|8|0|0,3:2|0:2|0:2|0:0|0:0,0:0:0:0:
328,228,159484,2,0,L|337:226,4,9.5,8|0|0|0|0,3:2|0:0|0:0|0:0|0:0,0:0:0:0:
112,112,159677,6,0,B|176:100|176:100|180:104|180:104|256:92|256:92|260:88|260:88|324:80|324:80|332:84|332:84|340:156|464:176|464:40|404:36,1,455.999986083985,4|0,0:1|0:0,0:0:0:0:
412,37,162774,5,4,3:2:0:0:
328,312,162968,1,4,3:2:0:0:
68,80,164323,5,4,3:2:0:0:
180,352,164517,1,4,3:2:0:0:
180,352,165484,5,0,0:0:0:0:
180,352,165581,1,0,0:0:0:0:
180,352,165677,1,0,0:0:0:0:
420,344,165871,6,0,P|464:232|372:292,1,285.000010871888,4|0,3:2|0:0,0:0:0:0:
96,268,166452,6,0,P|52:156|144:216,1,285.000010871888,4|0,3:2|0:0,0:0:0:0:
380,128,167032,6,0,B|408:96|408:96|372:44|372:44|304:52|304:52|296:148,1,213.750008153916,4|0,3:2|0:0,0:0:0:0:
288,180,167419,5,0,3:2:0:0:
512,328,167613,1,0,3:2:0:0:
476,192,167806,5,0,3:2:0:0:
212,296,167999,1,0,3:2:0:0:
60,72,168193,5,0,0:0:0:0:
96,56,168290,1,0,0:0:0:0:
132,56,168387,1,0,0:0:0:0:
164,72,168484,1,0,0:0:0:0:
228,136,168581,5,0,0:0:0:0:
260,152,168678,1,0,0:0:0:0:
296,152,168775,1,0,0:0:0:0:
332,136,168872,1,0,0:0:0:0:
424,92,168968,6,0,L|416:224,1,113.999996520996,0|0,3:2|0:0,0:0:0:0:
172,332,169355,2,0,B|128:312|48:312|48:312|88:316|144:252,1,199.499993911743,0|0,3:2|0:0,0:0:0:0:
123,147,169742,6,0,B|123:183|147:211|147:211|111:239|111:307,1,152,14|0,3:2|0:0,0:0:0:0:
0,48,170129,1,0,3:2:0:0:
248,172,170323,1,0,0:0:0:0:
4,252,170516,2,0,B|20:216|20:216|0:140,1,113.999996520996,0|0,3:2|0:0,0:0:0:0:
272,88,170903,2,0,B|316:108|396:108|396:108|356:104|300:168,1,199.499993911743,0|0,3:2|0:0,0:0:0:0:
321,273,171290,6,0,B|321:237|297:209|297:209|333:181|333:113,1,152,14|0,3:2|0:0,0:0:0:0:
432,344,171677,1,0,3:2:0:0:
192,280,171871,1,0,0:0:0:0:
484,80,172064,6,0,L|492:160,1,56.9999982604981,0|0,3:2|0:0,0:0:0:0:
396,352,172258,2,0,L|404:272,1,56.9999982604981,0|0,3:2|0:0,0:0:0:0:
344,48,172452,2,0,L|352:128,1,56.9999982604981,0|0,3:2|0:0,0:0:0:0:
256,320,172646,2,0,L|264:240,1,56.9999982604981,0|0,3:2|0:0,0:0:0:0:
168,20,172839,1,0,3:2:0:0:
181,78,172935,1,0,0:0:0:0:
194,137,173032,1,0,3:2:0:0:
112,348,173226,1,0,3:2:0:0:
489,136,173419,5,6,3:2:0:0:
460,220,174387,5,0,3:2:0:0:
376,244,174484,1,0,3:2:0:0:
292,268,174581,1,0,3:2:0:0:
32,80,174774,6,0,B|84:56|132:60|132:60|228:88|228:88|284:92|352:64,1,313.500009567261,4|0,0:2|0:0,0:0:0:0:
432,32,175161,6,0,P|440:76|412:140,1,113.999996520996,8|0,3:2|0:0,0:0:0:0:
104,240,175548,5,8,3:2:0:0:
424,180,175742,1,0,0:0:0:0:
64,140,175935,5,8,3:2:0:0:
368,264,176129,1,0,0:0:0:0:
84,104,176323,1,8,3:2:0:0:
60,340,176516,6,0,B|104:348|104:348|176:332,1,113.999996520996,0|8,0:0|3:2,0:0:0:0:
480,256,176903,2,0,B|436:264|436:264|364:248,1,113.999996520996,0|8,0:0|3:2,0:0:0:0:
64,140,177290,1,0,0:0:0:0:
348,32,177484,1,8,3:2:0:0:
412,64,177581,1,0,0:0:0:0:
436,132,177677,1,0,0:0:0:0:
412,200,177774,1,0,0:0:0:0:
352,240,177871,2,0,L|308:232,6,28.4999991302491,8|0|0|0|0|0|0,3:2|0:0|0:0|0:0|0:0|0:0|0:0,0:0:0:0:
240,244,178258,6,0,B|224:304|224:304|252:360,1,113.999996520996,8|0,3:2|0:0,0:0:0:0:
0,256,178645,5,8,3:2:0:0:
224,360,178839,1,0,0:0:0:0:
88,60,179032,5,8,3:2:0:0:
60,352,179226,1,0,0:0:0:0:
0,116,179419,1,8,3:2:0:0:
272,268,179613,2,0,P|324:284|384:268,1,113.999996520996,0|8,0:0|3:2,0:0:0:0:
148,32,180000,5,0,0:0:0:0:
148,308,180193,1,8,3:2:0:0:
240,60,180387,1,0,0:0:0:0:
52,308,180581,1,8,3:2:0:0:
92,240,180677,1,0,0:0:0:0:
168,224,180774,1,0,0:0:0:0:
232,268,180871,1,0,0:0:0:0:
240,348,180968,2,0,P|232:376|220:392,6,28.4999991302491,8|0|0|0|0|0|0,3:2|0:0|0:0|0:0|0:0|0:0|0:0,0:0:0:0:
312,300,181355,6,0,P|384:292|440:308,1,113.999996520996,12|0,3:2|0:0,0:0:0:0:
492,36,181742,5,8,3:2:0:0:
420,332,181935,1,0,0:0:0:0:
324,32,182129,5,8,3:2:0:0:
512,280,182323,1,0,0:0:0:0:
292,24,182516,1,8,3:2:0:0:
112,320,182710,6,0,B|88:280|88:280|96:200,1,113.999996520996,0|8,0:0|3:2,0:0:0:0:
388,264,183097,2,0,B|394:196|394:196|370:156,1,113.999996520996,0|8,0:0|3:2,0:0:0:0:
136,44,183484,1,0,0:0:0:0:
240,332,183677,1,8,3:2:0:0:
284,272,183774,1,0,0:0:0:0:
288,200,183871,1,0,0:0:0:0:
248,140,183968,1,0,0:0:0:0:
180,112,184064,2,0,L|148:120,6,28.4999991302491,8|0|0|0|0|0|0,3:2|0:0|0:0|0:0|0:0|0:0|0:0,0:0:0:0:
64,120,184452,6,0,P|72:168|152:208,1,113.999996520996,8|0,3:2|0:0,0:0:0:0:
436,116,184839,5,8,3:2:0:0:
112,244,185032,1,0,0:0:0:0:
492,240,185226,5,8,3:2:0:0:
152,118,185419,1,0,0:0:0:0:
424,28,185613,1,8,3:2:0:0:
168,320,185806,6,0,P|80:332|112:152,1,323.000006160736,4|0,0:1|0:0,0:0:0:0:
