osu file format v14

[General]
AudioFilename: audio.mp3
AudioLeadIn: 0
PreviewTime: 60580
Countdown: 0
SampleSet: Soft
StackLeniency: 0.2
Mode: 0
LetterboxInBreaks: 0
WidescreenStoryboard: 1

[Editor]
Bookmarks: 74516,175161
DistanceSpacing: 1.2
BeatDivisor: 4
GridSize: 4
TimelineZoom: 2.3

[Metadata]
Title:My Pace
TitleUnicode:My Pace
Artist:Stray Kids
ArtistUnicode:스트레이 키즈
Creator:Fragmented
Version:Hard
Source:
Tags:
BeatmapID:2051603
BeatmapSetID:971076

[Difficulty]
HPDrainRate:5
CircleSize:3.8
OverallDifficulty:6
ApproachRate:7
SliderMultiplier:1.3
SliderTickRate:1

[Events]
//Background and Video events
0,0,"rsz_seungmin-stray-kids-my-pace-i-am-who-z7211.jpg",0,0
//Break Periods
2,49941,55035
2,111877,116970
2,136452,141745
2,160651,161874
//Storyboard Layer 0 (Background)
//Storyboard Layer 1 (Fail)
//Storyboard Layer 2 (Pass)
//Storyboard Layer 3 (Foreground)
//Storyboard Layer 4 (Overlay)
//Storyboard Sound Samples

[TimingPoints]
194,387.096774193548,4,2,2,70,1,0
194,387.096774193548,4,2,2,70,1,0
12580,-111.111111111111,4,2,2,70,0,0
18677,-111.111111111111,4,2,2,20,0,0
18774,-100,4,2,2,70,0,0
23225,-100,4,2,3,70,0,0
24967,-125,4,2,3,60,0,0
30411,-125,4,2,3,40,0,0
30967,-125,4,2,3,60,0,0
31838,-125,4,2,3,20,0,0
31935,-125,4,2,3,60,0,0
33387,-125,4,2,3,20,0,0
33483,-125,4,2,3,60,0,0
36580,-125,4,2,22,60,0,0
37354,-111.111111111111,4,2,33,60,0,0
42774,-111.111111111111,4,2,33,40,0,0
43354,-111.111111111111,4,2,33,60,0,0
44322,-111.111111111111,4,2,33,40,0,0
45096,-111.111111111111,4,2,33,60,0,0
48096,-111.111111111111,4,2,2,5,0,0
48193,-111.111111111111,4,2,2,70,0,0
48967,-111.111111111111,4,2,22,70,0,0
49741,-111.111111111111,4,2,70,70,0,0
55161,-111.111111111111,4,2,3,70,0,0
55935,-111.111111111111,4,2,3,55,0,0
59806,-111.111111111111,4,2,3,40,0,0
60580,-111.111111111111,4,2,3,70,0,0
62128,-100,4,2,4,70,0,1
72774,-100,4,2,4,70,0,0
74128,-83.3333333333333,4,2,50,70,0,0
74419,-83.3333333333333,4,2,2,10,0,0
74516,-100,4,2,2,70,0,1
85161,-100,4,2,3,70,0,0
86903,-125,4,2,3,60,0,0
88839,-125,4,2,3,60,0,0
88935,-125,4,2,3,60,0,0
92322,-125,4,2,3,50,0,0
92903,-125,4,2,3,60,0,0
98516,-125,4,2,22,60,0,0
99290,-125,4,2,3,60,0,0
100451,-125,4,2,33,60,0,0
104709,-125,4,2,2,60,0,0
105483,-125,4,2,33,60,0,0
106258,-125,4,2,2,60,0,0
107032,-125,4,2,33,60,0,0
110903,-125,4,2,22,70,0,0
111677,-125,4,2,70,70,0,0
117096,-125,4,2,3,70,0,0
117870,-111.111111111111,4,2,3,55,0,0
124064,-100,4,2,4,70,0,1
134709,-100,4,2,4,70,0,0
136451,-133.333333333333,4,2,5,40,0,0
148838,-125,4,2,5,50,0,0
155032,-111.111111111111,4,2,5,60,0,0
159677,-111.111111111111,4,2,4,70,0,0
162774,-100,4,2,4,70,0,1
163161,-100,4,2,4,70,0,0
164322,-100,4,2,4,70,0,1
164709,-100,4,2,4,70,0,0
165870,-100,4,2,4,70,0,1
167323,-100,4,2,4,70,0,1
167419,-100,4,2,4,70,0,0
168967,-100,4,2,4,70,0,1
173419,-100,4,2,4,70,0,0
174774,-76.9230769230769,4,2,50,70,0,0
175064,-76.9230769230769,4,2,50,70,0,0
175161,-90.9090909090909,4,2,2,70,0,1
185806,-100,4,2,4,70,0,0

[Colours]
Combo1 : 0,183,0
Combo2 : 254,183,16
Combo3 : 0,105,234
Combo4 : 170,0,0

[HitObjects]
360,104,12580,6,0,L|348:244,1,116.999996429443,8|8,0:2|0:2,0:0:0:0:
304,308,13161,1,0,0:0:0:0:
216,272,13354,2,0,L|136:280,1,58.4999982147217,8|0,0:2|0:0,0:0:0:0:
100,196,13741,2,0,L|158:190,1,58.4999982147217,8|0,0:2|0:0,0:0:0:0:
240,72,14128,6,0,P|232:96|240:152,1,58.4999982147217,8|0,0:2|0:0,0:0:0:0:
296,240,14516,2,0,P|304:216|296:160,1,58.4999982147217,8|0,0:2|0:0,0:0:0:0:
356,96,14903,2,0,P|392:108|436:104,1,58.4999982147217,8|0,0:2|0:0,0:0:0:0:
488,48,15290,1,8,0:2:0:0:
512,136,15483,1,0,0:0:0:0:
420,232,15677,6,0,B|400:256|400:256|416:360,1,116.999996429443,8|8,0:2|0:2,0:0:0:0:
324,312,16258,1,0,0:0:0:0:
232,304,16451,2,0,L|136:312,1,58.4999982147217,8|0,0:2|0:0,0:0:0:0:
92,264,16838,1,8,0:2:0:0:
152,112,17032,2,0,P|180:148|152:236,1,116.999996429443
84,148,17612,2,0,P|76:112|96:60,1,58.4999982147217,8|0,0:2|0:0,0:0:0:0:
144,24,17999,2,0,P|180:16|232:36,1,58.4999982147217,8|0,0:2|0:0,0:0:0:0:
276,80,18387,1,8,0:2:0:0:
440,60,18774,6,0,P|420:112|440:212,1,130,12|8,0:2|0:2,0:0:0:0:
464,272,19354,1,0,0:0:0:0:
388,332,19548,2,0,L|324:328,1,65,8|0,0:2|0:0,0:0:0:0:
256,264,19935,1,8,0:2:0:0:
172,312,20128,2,0,P|160:284|172:228,1,65,0|8,0:0|0:2,0:0:0:0:
208,160,20516,2,0,P|209:127|197:98,1,65,0|8,0:0|0:2,0:0:0:0:
136,32,20903,2,0,P|220:40|288:12,1,130
352,68,21483,1,8,0:2:0:0:
436,24,21677,1,0,0:0:0:0:
336,104,21870,6,0,L|320:264,1,130,8|8,0:2|0:2,0:0:0:0:
364,324,22451,1,0,0:0:0:0:
428,244,22645,2,0,L|416:156,1,65,8|0,0:2|0:0,0:0:0:0:
452,88,23032,1,8,0:2:0:0:
344,24,23225,1,4,3:2:0:0:
88,312,24967,6,0,L|148:304,2,52,4|0|0,3:2|0:0|0:0,0:0:0:0:
20,188,25741,1,10,0:2:0:0:
92,72,26128,1,2,3:2:0:0:
184,172,26516,2,0,L|176:240,2,52,0|0|0,3:2|0:0|0:0,0:0:0:0:
280,272,27290,1,10,1:2:0:0:
316,136,27677,1,2,1:2:0:0:
420,224,28064,6,0,L|428:340,1,104,0|0,3:2|0:0,0:0:0:0:
344,296,28645,2,0,L|239:244,1,104,0|0,3:2|0:0,0:0:0:0:
188,192,29225,2,0,P|164:272|220:336,1,156,0|0,3:2|3:2,0:0:0:0:
250,250,29999,1,0,3:2:0:0:
100,320,30387,6,0,L|80:320,4,13,8|8|8|8|0,0:2|0:2|0:2|0:2|0:0,0:0:0:0:
80,236,30774,2,0,L|60:236,4,13,8|8|8|8|8,0:2|0:2|0:2|0:2|0:2,0:0:0:0:
72,148,31161,6,0,P|128:140|156:148,2,52,0|0|2,3:2|0:0|0:1,0:0:0:0:
180,232,31935,1,10,0:2:0:0:
236,116,32322,1,2,3:2:0:0:
308,224,32709,2,0,P|305:249|298:274,2,52,0|0|2,3:2|0:0|0:1,0:0:0:0:
360,104,33483,1,10,1:2:0:0:
236,116,33870,1,2,1:2:0:0:
184,252,34258,6,0,B|156:236|156:236|56:248,1,104,0|0,3:2|0:0,0:0:0:0:
24,180,34838,2,0,B|15:108|15:108|31:80,1,104,0|0,3:2|0:0,0:0:0:0:
108,32,35419,2,0,P|172:64|284:28,1,156,0|0,3:2|3:2,0:0:0:0:
336,20,36193,1,0,3:2:0:0:
396,148,36580,6,0,L|460:140,5,34.6666666666667,8|8|8|8|4|4,1:3|0:3|0:3|0:3|0:3|0:3,0:0:0:0:
464,172,37354,6,0,P|484:216|452:312,1,116.999996429443,4|2,3:2|0:2,0:0:0:0:
472,300,37838,1,2,0:2:0:0:
468,320,37935,1,2,0:2:0:0:
392,272,38128,1,10,0:2:0:0:
320,332,38322,1,2,0:2:0:0:
232,236,38516,2,0,L|228:160,2,58.4999982147217,0|0|0,3:2|0:0|3:2,0:0:0:0:
164,296,39096,1,0,0:0:0:0:
76,260,39290,6,0,P|64:220|76:180,1,58.4999982147217,2|0,0:1|0:0,0:0:0:0:
144,144,39677,2,0,P|154:170|154:200,1,58.4999982147217,8|0,0:2|0:0,0:0:0:0:
64,112,40064,2,0,P|53:85|53:55,1,58.4999982147217,0|8,0:0|0:2,0:0:0:0:
200,72,40451,6,0,L|268:76,2,58.4999982147217,0|0|2,3:2|0:0|0:2,0:0:0:0:
136,8,41032,1,2,3:2:0:0:
53,55,41225,2,0,L|65:191,2,116.999996429443,10|0|0,0:2|3:2|0:0,0:0:0:0:
132,104,42193,2,0,L|140:176,1,58.4999982147217,0|0,3:2|3:2,0:0:0:0:
272,232,42774,6,0,L|292:236,4,14.6249995536804,8|8|8|8|0,0:2|0:2|0:2|0:2|0:0,0:0:0:0:
304,148,43161,2,0,L|324:152,4,14.6249995536804,8|8|8|8|8,0:2|0:2|0:2|0:2|0:2,0:0:0:0:
332,68,43548,6,0,B|404:88|404:88|424:164|424:164|512:188,1,233.999992858887,0|10,0:0|0:2,0:0:0:0:
452,268,44516,1,10,0:2:0:0:
400,344,44709,1,10,0:2:0:0:
380,340,44806,1,10,0:2:0:0:
360,336,44903,1,10,0:2:0:0:
340,332,44999,1,10,0:2:0:0:
320,328,45096,6,0,L|184:344,1,116.999996429443,0|2,3:2|0:1,0:0:0:0:
120,296,45677,1,0,0:0:0:0:
176,216,45870,2,0,L|260:224,1,58.4999982147217,8|0,0:2|0:0,0:0:0:0:
352,148,46258,2,0,L|268:156,1,58.4999982147217,0|8,0:0|0:2,0:0:0:0:
220,44,46645,6,0,P|212:80|224:120,1,58.4999982147217,0|0,3:2|0:0,0:0:0:0:
132,140,47032,1,2,0:2:0:0:
68,68,47225,1,2,3:2:0:0:
64,204,47419,2,0,P|112:232|192:212,1,116.999996429443,10|0,0:2|3:2,0:0:0:0:
392,128,48967,6,0,L|400:80,5,38.9999988098145,8|8|8|4|4|4,0:3|0:3|0:3|0:3|0:3|0:3,0:0:0:0:
376,56,49741,5,4,0:2:0:0:
204,156,55935,6,0,P|188:192|192:256,2,87.7499973220826,0|8|8,3:2|0:2|0:2,0:0:0:0:
288,112,56709,1,0,3:2:0:0:
284,208,56903,1,0,0:0:0:0:
368,160,57097,1,8,3:2:0:0:
364,264,57290,1,8,0:2:0:0:
364,264,57483,6,0,B|416:260|416:260|464:280,2,87.7499973220826,8|8|8,3:2|0:2|0:2,0:0:0:0:
288,324,58258,2,0,L|216:312,1,58.4999982147217,0|0,3:2|0:0,0:0:0:0:
156,256,58645,2,0,L|98:265,1,58.4999982147217,8|8,3:2|0:2,0:0:0:0:
256,192,59032,12,0,60580,3:2:0:0:
200,132,61354,6,0,L|192:204,3,58.4999982147217,0|0|0|0,3:2|3:2|3:2|0:0,0:0:0:0:
236,312,62128,6,0,P|300:280|364:288,1,130,4|0,3:1|0:0,0:0:0:0:
452,184,62903,1,8,0:2:0:0:
408,104,63096,1,0,0:0:0:0:
336,164,63290,2,0,L|264:168,1,65,0|0,0:0|3:2,0:0:0:0:
184,124,63677,2,0,P|172:164|184:212,1,65
124,320,64064,2,0,P|124:287|113:257,1,65,0|0,0:0|3:2,0:0:0:0:
36,204,64451,1,8,0:2:0:0:
72,48,64838,2,0,L|144:40,1,65
216,96,65225,5,0,3:2:0:0:
312,64,65419,2,0,L|308:136,1,65
368,208,65806,1,0,0:0:0:0:
272,288,65999,2,0,P|236:272|196:276,2,65,8|0|0,0:2|3:2|0:0,0:0:0:0:
148,332,66580,2,0,P|128:292|160:208,1,130,0|0,3:2|0:0,0:0:0:0:
196,84,67161,2,0,P|208:116|192:168,1,65,0|0,0:0|3:2,0:0:0:0:
112,124,67548,1,8,0:2:0:0:
112,124,67741,1,0,0:0:0:0:
52,48,67935,1,0,0:0:0:0:
52,48,68128,1,0,0:0:0:0:
24,180,68322,6,0,L|40:340,1,130,0|0,3:2|3:2,0:0:0:0:
168,208,69096,2,0,B|188:232|188:232|176:344,1,130,14|0,3:2|3:2,0:0:0:0:
264,284,69677,1,0,0:0:0:0:
348,320,69870,2,0,L|428:312,1,65,0|0,3:2|0:0,0:0:0:0:
480,196,70258,2,0,P|424:208|360:140,1,130,0|14,3:2|3:2,0:0:0:0:
460,36,71032,5,0,3:2:0:0:
460,36,71225,1,0,0:0:0:0:
368,68,71419,2,0,L|280:64,1,65,0|0,3:2|3:2,0:0:0:0:
216,100,71806,2,0,L|128:96,1,65,0|0,3:2|3:2,0:0:0:0:
72,40,72193,1,0,3:2:0:0:
64,56,72290,1,0,0:0:0:0:
56,72,72387,1,0,3:2:0:0:
4,152,72580,1,0,3:2:0:0:
112,228,72774,1,6,3:2:0:0:
344,136,73741,5,0,3:2:0:0:
344,136,73838,1,0,3:2:0:0:
344,136,73935,1,0,3:2:0:0:
288,220,74128,2,0,B|240:220|240:220|224:228|224:228|160:228,1,116.999996429443,4|0,0:2|0:0,0:0:0:0:
136,248,74516,6,0,P|92:256|24:192,1,130,8|8,3:2|3:2,0:0:0:0:
32,108,75096,1,0,0:0:0:0:
112,56,75290,2,0,L|196:56,1,65,8|0,3:2|0:0,0:0:0:0:
264,108,75677,1,8,3:2:0:0:
352,64,75870,2,0,P|364:104|348:152,1,65,0|8,0:0|3:2,0:0:0:0:
304,260,76258,2,0,P|292:220|308:172,1,65,0|8,0:0|3:2,0:0:0:0:
388,300,76645,2,0,P|344:352|272:348,1,130
204,304,77225,2,0,L|140:312,1,65,8|0,3:2|0:0,0:0:0:0:
48,216,77612,6,0,B|92:204|92:204|200:224,1,130,8|8,3:2|3:2,0:0:0:0:
252,160,78193,1,0,0:0:0:0:
324,224,78387,2,0,L|316:296,1,65,8|0,3:2|0:0,0:0:0:0:
416,264,78774,1,8,3:2:0:0:
368,144,78967,2,0,P|352:80|384:8,1,130
280,52,79548,2,0,L|184:44,1,65,8|0,3:2|0:0,0:0:0:0:
116,144,79935,2,0,L|245:131,1,130,8|8,3:2|3:2,0:0:0:0:
196,284,80709,6,0,P|144:272|48:288,1,130,12|8,3:2|3:2,0:0:0:0:
4,204,81290,1,0,0:0:0:0:
68,128,81483,2,0,L|71:63,1,65,8|0,3:2|0:0,0:0:0:0:
160,16,81870,1,8,3:2:0:0:
224,92,82064,2,0,P|256:84|308:88,1,65,0|8,0:0|3:2,0:0:0:0:
424,136,82451,2,0,P|392:144|340:140,1,65,0|8,0:0|3:2,0:0:0:0:
262,215,82838,2,0,P|288:172|374:145,1,130
312,276,83419,2,0,P|272:296|240:288,1,65,8|0,3:2|0:0,0:0:0:0:
136,352,83806,6,0,L|128:212,1,130,8|8,3:2|3:2,0:0:0:0:
96,132,84387,1,0,0:0:0:0:
188,144,84580,2,0,L|252:140,1,65,8|0,3:2|0:0,0:0:0:0:
312,64,84967,1,8,3:2:0:0:
384,168,85161,1,4,0:2:0:0:
68,320,86903,6,0,B|88:284|92:256|92:256|128:268|160:256|160:256|168:296|140:336,1,208,4|8,0:2|0:2,0:0:0:0:
128,160,88064,2,0,P|168:148|212:160,1,78,0|0,3:2|0:0,0:0:0:0:
240,172,88451,2,0,B|344:160|344:160|400:192,1,156,0|0,3:2|0:0,0:0:0:0:
428,272,89225,1,10,1:2:0:0:
300,368,89612,1,2,1:2:0:0:
180,260,89999,6,0,L|56:244,1,104,0|0,3:2|0:0,0:0:0:0:
20,164,90580,2,0,L|123:150,1,104,0|0,3:2|0:0,0:0:0:0:
192,32,91161,2,0,B|216:48|216:48|208:184,1,156,0|0,3:2|3:2,0:0:0:0:
296,124,91935,1,0,3:2:0:0:
408,248,92322,6,0,L|428:252,4,13,8|8|8|8|0,0:2|0:2|0:2|0:2|0:0,0:0:0:0:
360,332,92709,2,0,L|380:336,4,13,8|8|8|8|8,0:2|0:2|0:2|0:2|0:2,0:0:0:0:
252,264,93096,6,0,P|184:256|140:284,1,104,0|0,3:2|0:0,0:0:0:0:
16,184,93870,2,0,L|0:60,2,104,10|2|2,0:2|3:2|3:2,0:0:0:0:
80,28,95032,1,2,0:1:0:0:
144,180,95419,2,0,L|160:56,1,104,10|2,1:2|1:2,0:0:0:0:
228,200,96193,6,0,P|204:248|144:268,1,104,2|0,3:2|0:0,0:0:0:0:
72,236,96774,2,0,P|50:186|73:127,1,104,0|0,3:2|0:0,0:0:0:0:
136,76,97354,2,0,B|200:52|228:100|292:72,1,156,0|0,3:2|3:2,0:0:0:0:
308,68,98032,1,0,3:2:0:0:
324,64,98128,1,0,3:2:0:0:
476,136,98516,6,0,L|480:184,5,34.6666666666667,8|8|8|8|4|4,1:3|0:3|0:3|0:3|0:3|0:3,0:0:0:0:
116,296,100451,5,0,3:2:0:0:
148,204,100645,1,0,3:2:0:0:
224,264,100838,2,0,L|216:300,2,26,0|0|0,3:2|0:0|0:0,0:0:0:0:
272,180,101225,2,0,L|280:144,2,26,2|0|0,0:1|0:0|0:0,0:0:0:0:
240,64,101612,2,0,P|292:56|308:60,2,52,8|0|0,0:2|0:0|0:0,0:0:0:0:
168,124,102193,1,8,0:2:0:0:
56,52,102387,6,0,L|44:116,1,52,0|0,3:2|0:0,0:0:0:0:
32,120,102677,1,0,0:0:0:0:
16,136,102774,2,0,L|24:180,3,26,2|2|2|0,0:2|0:2|3:2|0:0,0:0:0:0:
16,180,103161,2,0,P|60:188|80:180,1,52,10|2,0:2|0:2,0:0:0:0:
152,240,103548,1,0,3:2:0:0:
156,260,103645,1,0,0:0:0:0:
160,280,103741,1,0,0:0:0:0:
164,300,103838,1,0,0:0:0:0:
168,320,103935,2,0,L|220:312,1,52,0|0,0:0|3:2,0:0:0:0:
296,256,104322,1,0,3:2:0:0:
452,304,104709,6,0,B|484:280|484:280|492:88,1,208,2|0,0:2|3:2,0:0:0:0:
340,40,105870,1,2,0:2:0:0:
328,48,105967,1,2,0:2:0:0:
340,56,106064,1,2,0:2:0:0:
252,80,106258,2,0,B|220:104|220:104|212:296,1,208,2|0,0:2|3:2,0:0:0:0:
280,340,107225,1,0,0:0:0:0:
360,288,107419,2,0,P|408:280|420:284,1,52,2|0,0:1|0:0,0:0:0:0:
496,176,107806,6,0,P|496:124|468:81,1,104,8|0,0:2|0:0,0:0:0:0:
380,40,108387,2,0,L|348:48,1,26,8|0,0:2|0:0,0:0:0:0:
336,76,108580,2,0,L|228:68,1,104,0|2,3:2|0:2,0:0:0:0:
220,56,109064,1,2,0:2:0:0:
208,44,109161,1,2,3:2:0:0:
124,92,109354,2,0,P|80:96|52:88,1,52,10|2,0:2|0:2,0:0:0:0:
48,188,109741,2,0,P|108:192|168:176,1,104,0|0,3:2|0:0,0:0:0:0:
443,233,110903,6,0,L|440:268,5,34.6666666666667,8|8|8|4|4|4,0:3|0:3|0:3|0:3|0:3|0:3,0:0:0:0:
416,304,111677,5,4,0:2:0:0:
320,272,117870,6,0,P|376:296|428:288,2,87.7499973220826,0|8|8,3:2|0:2|0:2,0:0:0:0:
296,180,118645,1,0,3:2:0:0:
212,220,118838,1,0,0:0:0:0:
212,128,119032,1,8,3:2:0:0:
292,88,119226,1,8,0:2:0:0:
292,88,119419,6,0,B|352:96|352:96|392:80,2,87.7499973220826,8|8|8,3:2|0:2|0:2,0:0:0:0:
212,36,120193,2,0,L|132:52,1,58.4999982147217,0|0,3:2|0:0,0:0:0:0:
60,24,120580,2,0,L|33:101,1,58.4999982147217,8|8,3:2|0:2,0:0:0:0:
256,192,120967,12,0,122516,3:2:0:0:
376,234,123290,6,0,L|384:176,3,58.4999982147217,0|0|0|0,3:2|3:2|3:2|0:0,0:0:0:0:
316,60,124064,6,0,P|256:48|188:76,1,130,4|0,3:1|0:0,0:0:0:0:
64,56,124839,1,8,0:2:0:0:
8,136,125032,1,0,0:0:0:0:
100,160,125226,2,0,L|108:232,1,65,0|0,0:0|3:2,0:0:0:0:
68,312,125613,2,0,P|112:324|148:316,1,65
260,260,126000,2,0,P|216:248|180:256,1,65,0|0,0:0|3:2,0:0:0:0:
220,344,126387,1,8,0:2:0:0:
344,296,126774,2,0,L|424:304,1,65
484,240,127161,5,0,3:2:0:0:
420,176,127355,2,0,L|340:184,1,65
288,112,127742,1,0,0:0:0:0:
196,208,127935,2,0,P|188:260|200:296,2,65,8|0|0,0:2|3:2|0:0,0:0:0:0:
268,320,128516,2,0,P|216:360|140:344,1,130,0|0,3:2|0:0,0:0:0:0:
24,304,129097,2,0,P|64:296|100:312,1,65,0|0,0:0|3:2,0:0:0:0:
108,212,129484,1,8,0:2:0:0:
108,212,129677,1,0,0:0:0:0:
44,148,129871,1,0,0:0:0:0:
44,148,130064,1,0,0:0:0:0:
160,80,130258,6,0,L|312:88,1,130,0|0,3:2|3:2,0:0:0:0:
448,32,131032,2,0,B|468:72|468:72|440:172,1,130,14|0,3:2|3:2,0:0:0:0:
472,248,131613,1,0,0:0:0:0:
380,224,131806,2,0,L|308:232,1,65,0|0,3:2|0:0,0:0:0:0:
404,320,132193,2,0,L|268:336,1,130,0|14,3:2|3:2,0:0:0:0:
116,304,132968,5,0,3:2:0:0:
116,304,133161,1,0,0:0:0:0:
184,240,133355,2,0,L|188:168,1,65,0|0,3:2|3:2,0:0:0:0:
100,120,133742,2,0,L|96:48,1,65,0|0,3:2|3:2,0:0:0:0:
196,16,134129,1,0,3:2:0:0:
192,40,134226,1,0,0:0:0:0:
188,64,134323,1,0,3:2:0:0:
284,44,134516,1,0,3:2:0:0:
400,116,134710,1,6,3:2:0:0:
76,96,142645,6,0,B|128:112|172:92|172:92|212:72|268:96,1,195.00000743866,2|2,0:2|0:3,0:0:0:0:
340,144,143613,2,0,P|332:172|332:204,2,48.750001859665,2|2|2,0:2|0:2|0:2,0:0:0:0:
376,268,144193,2,0,B|324:284|280:264|280:264|240:244|184:268,1,195.00000743866,0|2,0:0|0:3,0:0:0:0:
100,256,145161,2,0,P|100:288|108:312,2,48.750001859665,2|2|2,0:2|0:2|0:2,0:0:0:0:
24,208,145742,6,0,P|92:168|168:200,1,146.250005578995
200,200,146516,2,0,P|236:184|304:196,1,97.50000371933,2|0,0:3|0:0,0:0:0:0:
392,248,147290,2,0,B|432:260|432:260|436:148|436:148|388:160,1,195.00000743866,0|2,0:0|0:3,0:0:0:0:
316,68,148452,1,0,0:0:0:0:
316,68,148645,1,0,0:0:0:0:
316,68,148839,6,0,L|268:116,1,52,0|0,3:2|0:0,0:0:0:0:
184,80,149226,2,0,L|178:147,1,52,0|0,3:2|0:0,0:0:0:0:
92,168,149613,2,0,L|130:223,1,52,2|0,3:3|0:0,0:0:0:0:
88,300,150000,2,0,L|153:317,1,52,0|0,3:2|0:0,0:0:0:0:
256,360,150387,6,0,P|280:332|284:300,1,52,0|0,3:2|0:0,0:0:0:0:
372,292,150774,2,0,P|372:255|354:228,1,52,0|0,3:2|0:0,0:0:0:0:
424,168,151161,2,0,P|400:139|369:130,1,52,2|0,3:3|0:0,0:0:0:0:
380,40,151548,2,0,P|343:33|314:45,1,52,0|0,3:2|0:0,0:0:0:0:
244,92,151935,6,0,B|200:108|200:108|128:92,1,104,0|0,3:2|3:2,0:0:0:0:
56,76,152516,1,0,0:0:0:0:
40,168,152710,2,0,B|84:184|84:184|156:168,1,104,2|0,3:3|3:2,0:0:0:0:
228,208,153290,1,0,0:0:0:0:
200,300,153484,1,0,3:2:0:0:
292,276,153677,2,0,P|344:272|360:276,1,52,0|0,0:0|3:2,0:0:0:0:
432,308,154064,1,0,0:0:0:0:
496,204,154258,2,0,L|492:136,1,52,2|0,3:3|0:0,0:0:0:0:
424,52,154645,2,0,L|420:120,1,52,0|0,3:2|0:0,0:0:0:0:
352,168,155032,6,0,B|320:156|320:156|252:164,2,87.7499973220826,8|8|8,3:2|0:2|0:2,0:0:0:0:
404,244,155806,1,2,3:3:0:0:
364,328,156000,1,0,0:0:0:0:
268,336,156193,1,8,3:2:0:0:
220,256,156387,1,8,0:2:0:0:
220,256,156581,6,0,P|172:284|128:280,2,87.7499973220826,8|8|8,3:2|0:2|0:2,0:0:0:0:
152,196,157355,2,0,P|116:196|80:224,1,58.4999982147217,2|0,3:3|0:0,0:0:0:0:
8,136,157742,2,0,P|44:136|80:108,1,58.4999982147217,8|8,3:2|0:2,0:0:0:0:
128,56,158129,5,8,3:2:0:0:
128,56,158323,1,8,3:2:0:0:
208,104,158516,1,8,3:2:0:0:
208,104,158710,1,8,3:2:0:0:
296,64,158903,2,0,L|312:60,12,14.6249995536804,8|8|8|8|8|8|8|8|8|8|8|8|8,3:2|0:2|0:2|0:2|3:2|0:2|0:2|0:2|3:2|0:2|0:2|0:2|3:2,0:0:0:0:
284,160,159677,2,0,B|288:216|288:216|252:264|252:264|308:244|328:292|372:260,1,233.999992858887,4|0,0:1|0:0,0:0:0:0:
132,72,162774,5,4,3:2:0:0:
228,88,162968,1,4,3:2:0:0:
232,112,164323,5,4,3:2:0:0:
136,96,164517,1,4,3:2:0:0:
72,248,165871,6,0,P|128:228|212:260,1,130,4|0,3:2|0:0,0:0:0:0:
268,312,166452,2,0,P|329:329|390:309,1,130,4|0,3:2|0:0,0:0:0:0:
464,240,167032,2,0,L|468:124,1,97.5,4|0,3:2|0:0,0:0:0:0:
456,112,167419,5,0,3:2:0:0:
376,56,167613,1,0,3:2:0:0:
288,88,167806,1,0,3:2:0:0:
272,180,168000,1,0,3:2:0:0:
200,240,168193,2,0,L|144:232,7,32.5
132,204,168968,6,0,P|64:216|16:160,1,130,0|0,3:2|3:2,0:0:0:0:
104,36,169742,2,0,B|144:40|144:40|192:24|192:24|240:32,1,130,14|0,3:2|3:2,0:0:0:0:
312,84,170323,1,0,0:0:0:0:
404,44,170516,2,0,L|496:32,1,65,0|0,3:2|0:0,0:0:0:0:
396,144,170903,2,0,P|336:184|256:164,1,130,0|14,3:2|3:2,0:0:0:0:
108,208,171677,5,0,3:2:0:0:
108,208,171871,1,0,0:0:0:0:
192,264,172064,2,0,L|268:256,1,65,0|0,3:2|3:2,0:0:0:0:
332,320,172452,2,0,L|396:326,1,65,0|0,3:2|3:2,0:0:0:0:
476,264,172839,1,0,3:2:0:0:
484,236,172935,1,0,0:0:0:0:
492,208,173032,1,0,3:2:0:0:
456,120,173226,1,0,3:2:0:0:
328,152,173419,1,6,3:2:0:0:
88,52,174387,5,0,3:2:0:0:
88,52,174484,1,0,3:2:0:0:
88,52,174581,1,0,3:2:0:0:
32,140,174774,2,0,B|60:160|60:160|116:160|116:160|160:128,1,126.749994197846,4|0,0:2|0:0,0:0:0:0:
188,104,175161,6,0,P|260:104|308:160,1,143.000004364014,8|8,3:2|3:2,0:0:0:0:
304,256,175742,1,0,0:0:0:0:
228,332,175935,2,0,L|152:328,1,71.5000021820069,8|0,3:2|0:0,0:0:0:0:
104,240,176323,1,8,3:2:0:0:
0,268,176516,2,0,P|0:220|16:188,1,71.5000021820069,0|8,0:0|3:2,0:0:0:0:
8,96,176903,2,0,P|56:96|88:112,1,71.5000021820069,0|8,0:0|3:2,0:0:0:0:
192,24,177290,2,0,P|176:104|240:156,1,143.000004364014
316,168,177871,2,0,L|396:160,1,71.5000021820069,8|0,3:2|0:0,0:0:0:0:
332,288,178258,6,0,B|296:312|296:312|188:304,1,143.000004364014,8|8,3:2|3:2,0:0:0:0:
124,236,178839,1,0,0:0:0:0:
20,260,179032,2,0,L|16:176,1,71.5000021820069,8|0,3:2|0:0,0:0:0:0:
56,92,179419,1,8,3:2:0:0:
176,156,179613,2,0,P|248:156|304:96,1,143.000004364014
352,24,180193,2,0,L|424:28,1,71.5000021820069,8|0,3:2|0:0,0:0:0:0:
504,136,180581,2,0,L|488:296,1,143.000004364014,8|8,3:2|3:2,0:0:0:0:
328,340,181355,6,0,P|304:280|320:196,1,143.000004364014,12|8,3:2|3:2,0:0:0:0:
368,116,181935,1,0,0:0:0:0:
312,32,182129,2,0,L|232:44,1,71.5000021820069,8|0,3:2|0:0,0:0:0:0:
164,112,182516,1,8,3:2:0:0:
60,96,182710,2,0,P|60:148|76:176,1,71.5000021820069,0|8,0:0|3:2,0:0:0:0:
64,268,183097,2,0,P|116:268|144:252,1,71.5000021820069,0|8,0:0|3:2,0:0:0:0:
228,334,183484,2,0,P|201:272|121:264,1,143.000004364014
208,184,184064,2,0,P|252:204|284:244,1,71.5000021820069,8|0,3:2|0:0,0:0:0:0:
360,324,184452,6,0,P|396:280|496:268,1,143.000004364014,8|8,3:2|3:2,0:0:0:0:
512,164,185032,1,0,0:0:0:0:
452,76,185226,2,0,L|380:84,1,71.5000021820069,8|0,3:2|0:0,0:0:0:0:
296,24,185613,1,8,3:2:0:0:
208,128,185806,1,4,0:1:0:0:
