osu file format v14

[General]
AudioFilename: audio.mp3
AudioLeadIn: 0
PreviewTime: 60580
Countdown: 0
SampleSet: Soft
StackLeniency: 0.2
Mode: 0
LetterboxInBreaks: 0
WidescreenStoryboard: 1

[Editor]
DistanceSpacing: 1.6
BeatDivisor: 4
GridSize: 4
TimelineZoom: 2.5

[Metadata]
Title:My Pace
TitleUnicode:My Pace
Artist:Stray Kids
ArtistUnicode:스트레이 키즈
Creator:Fragmented
Version:HASTE MAKES WASTE
Source:
Tags:
BeatmapID:2078057
BeatmapSetID:971076

[Difficulty]
HPDrainRate:6
CircleSize:4
OverallDifficulty:7
ApproachRate:9
SliderMultiplier:1.9
SliderTickRate:1

[Events]
//Background and Video events
0,0,"rsz_seungmin-stray-kids-my-pace-i-am-who-z7211.jpg",0,0
//Break Periods
2,49941,54561
2,111877,116496
//Storyboard Layer 0 (Background)
//Storyboard Layer 1 (Fail)
//Storyboard Layer 2 (Pass)
//Storyboard Layer 3 (Foreground)
//Storyboard Layer 4 (Overlay)
//Storyboard Sound Samples

[TimingPoints]
193.503184713376,387.096774193548,4,2,2,70,1,0
12580,-111.111111111111,4,2,2,70,0,0
18387,-66.6666666666667,4,2,2,70,0,0
18677,-66.6666666666667,4,2,2,20,0,0
18774,-100,4,2,2,70,0,0
23225,-100,4,2,3,70,0,0
23612,-133.333333333333,4,2,3,70,0,0
24967,-200,4,2,3,60,0,0
25741,-66.6666666666667,4,2,3,60,0,0
26516,-200,4,2,3,60,0,0
27290,-66.6666666666667,4,2,3,60,0,0
28064,-200,4,2,3,60,0,0
30411,-200,4,2,3,40,0,0
30967,-200,4,2,3,60,0,0
31838,-200,4,2,3,20,0,0
31935,-66.6666666666667,4,2,3,60,0,0
32709,-200,4,2,3,60,0,0
33387,-200,4,2,3,20,0,0
33483,-66.6666666666667,4,2,3,60,0,0
34258,-200,4,2,3,60,0,0
36580,-200,4,2,22,60,0,0
37354,-133.333333333333,4,2,33,60,0,0
42774,-200,4,2,33,40,0,0
43354,-200,4,2,33,60,0,0
44322,-200,4,2,33,40,0,0
45096,-133.333333333333,4,2,33,60,0,0
47806,-83.3333333333333,4,2,33,60,0,0
48096,-83.3333333333333,4,2,2,5,0,0
48193,-200,4,2,2,70,0,0
48967,-200,4,2,22,70,0,0
49741,-200,4,2,70,70,0,0
55161,-200,4,2,3,70,0,0
55935,-133.333333333333,4,2,3,55,0,0
59806,-133.333333333333,4,2,3,40,0,0
60580,-200,4,2,3,70,0,0
62128,-100,4,2,4,70,0,1
68709,-80,4,2,4,70,0,1
69096,-66.6666666666667,4,2,4,70,0,1
69483,-100,4,2,4,70,0,1
70258,-80,4,2,4,70,0,1
70645,-66.6666666666667,4,2,4,70,0,1
71419,-100,4,2,4,70,0,1
72774,-100,4,2,4,70,0,0
73161,-100,4,2,4,70,0,0
73741,-100,4,2,4,70,0,0
74128,-50,4,2,50,70,0,0
74419,-50,4,2,2,10,0,0
74516,-100,4,2,2,70,0,1
85161,-100,4,2,3,70,0,0
85935,-133.333333333333,4,2,3,70,0,0
86903,-200,4,2,3,60,0,0
88064,-500,4,2,3,60,0,0
88451,-200,4,2,3,60,0,0
89999,-500,4,2,3,60,0,0
92322,-500,4,2,3,50,0,0
92903,-500,4,2,3,60,0,0
98516,-500,4,2,22,60,0,0
99290,-500,4,2,3,60,0,0
100451,-500,4,2,33,60,0,0
104709,-500,4,2,2,60,0,0
105483,-500,4,2,33,60,0,0
106258,-500,4,2,2,60,0,0
107032,-500,4,2,33,60,0,0
110903,-500,4,2,22,70,0,0
111677,-500,4,2,70,70,0,0
117096,-500,4,2,3,70,0,0
117870,-500,4,2,3,55,0,0
124064,-100,4,2,4,70,0,1
134709,-100,4,2,4,70,0,0
136451,-100,4,2,5,40,0,0
148838,-100,4,2,5,50,0,0
155032,-100,4,2,5,60,0,0
159677,-100,4,2,4,70,0,0
162774,-100,4,2,4,70,0,1
163161,-100,4,2,4,70,0,0
164322,-100,4,2,4,70,0,1
164709,-100,4,2,4,70,0,0
165870,-100,4,2,4,70,0,1
167419,-100,4,2,4,70,0,0
168967,-100,4,2,4,70,0,1
173419,-100,4,2,4,70,0,0
174774,-100,4,2,50,70,0,0
175161,-100,4,2,2,70,0,1
185806,-100,4,2,4,70,0,0

[HitObjects]
154,137,12580,5,8,0:2:0:0:
154,137,12967,5,8,0:2:0:0:
154,137,13354,5,8,0:2:0:0:
154,137,13741,5,8,0:2:0:0:
154,137,14128,5,8,0:2:0:0:
154,137,14515,5,8,0:2:0:0:
154,137,14902,5,8,0:2:0:0:
154,137,15289,5,8,0:2:0:0:
154,137,15677,5,8,0:2:0:0:
154,137,16064,5,8,0:2:0:0:
154,137,16451,5,8,0:2:0:0:
154,137,16838,5,8,0:2:0:0:
154,137,17225,5,8,0:2:0:0:
154,137,17612,5,8,0:2:0:0:
154,137,17999,5,8,0:2:0:0:
154,137,18386,5,8,0:2:0:0:
154,137,18773,5,12,0:2:0:0:
154,137,19161,5,8,0:2:0:0:
154,137,19548,5,8,0:2:0:0:
154,137,19935,5,8,0:2:0:0:
154,137,20322,5,8,0:2:0:0:
154,137,20709,5,8,0:2:0:0:
154,137,21096,5,8,0:2:0:0:
154,137,21483,5,8,0:2:0:0:
154,137,21870,5,8,0:2:0:0:
154,137,22257,5,8,0:2:0:0:
154,137,22644,5,8,0:2:0:0:
154,137,23031,5,8,0:2:0:0:
194,248,23225,1,4,3:2:0:0:
194,248,24967,1,4,3:2:0:0:
70,173,25741,1,10,0:2:0:0:
181,135,26128,1,2,3:2:0:0:
181,135,26516,1,0,3:2:0:0:
70,173,27290,1,10,1:2:0:0:
133,123,27322,1,0,1:2:0:0:
133,123,27354,1,0,1:2:0:0:
133,123,27387,1,0,1:2:0:0:
133,123,27419,1,0,1:2:0:0:
133,123,27451,1,0,1:2:0:0:
133,123,27677,1,2,1:2:0:0:
133,123,27709,1,0,1:2:0:0:
133,123,27741,1,0,1:2:0:0:
133,123,27774,1,0,1:2:0:0:
133,123,27806,1,0,1:2:0:0:
133,123,27838,1,0,1:2:0:0:
70,173,27870,1,8,0:2:0:0:
241,218,28064,1,0,3:2:0:0:
241,218,28645,1,0,3:2:0:0:
241,218,28838,1,8,0:2:0:0:
241,218,29225,1,0,3:2:0:0:
241,218,29806,1,0,3:2:0:0:
241,218,29999,1,0,3:2:0:0:
78,134,30387,1,8,0:2:0:0:
78,134,30435,1,8,0:2:0:0:
78,134,30483,1,8,0:2:0:0:
78,134,30532,1,8,0:2:0:0:
78,134,30774,1,8,0:2:0:0:
78,134,30822,1,8,0:2:0:0:
78,134,30870,1,8,0:2:0:0:
78,134,30919,1,8,0:2:0:0:
78,134,30967,1,8,0:2:0:0:
35,159,31161,1,0,3:2:0:0:
72,200,31548,1,2,0:1:0:0:
72,200,31935,1,10,0:2:0:0:
72,200,32322,1,2,3:2:0:0:
72,200,32709,1,0,3:2:0:0:
72,200,33096,1,2,0:1:0:0:
70,173,33483,1,10,1:2:0:0:
133,123,33515,1,0,1:2:0:0:
133,123,33547,1,0,1:2:0:0:
133,123,33580,1,0,1:2:0:0:
133,123,33612,1,0,1:2:0:0:
133,123,33644,1,0,1:2:0:0:
133,123,33870,1,2,1:2:0:0:
133,123,33902,1,0,1:2:0:0:
133,123,33934,1,0,1:2:0:0:
133,123,33967,1,0,1:2:0:0:
133,123,33999,1,0,1:2:0:0:
133,123,34031,1,0,1:2:0:0:
72,200,34258,1,0,3:2:0:0:
72,200,34838,1,0,3:2:0:0:
72,200,35032,1,8,0:2:0:0:
72,200,35419,1,0,3:2:0:0:
72,200,35999,1,0,3:2:0:0:
72,200,36096,1,0,3:2:0:0:
72,200,36193,1,0,3:2:0:0:
154,118,36580,1,8,1:3:0:0:
153,118,36709,1,8,0:3:0:0:
154,118,36838,1,8,0:3:0:0:
154,118,36967,1,8,0:3:0:0:
154,118,37096,1,4,0:3:0:0:
154,118,37161,1,0,1:3:0:0:
154,118,37225,1,4,0:3:0:0:
155,270,37354,1,4,3:2:0:0:
215,164,37741,1,2,0:2:0:0:
215,164,37838,1,2,0:2:0:0:
214,164,37935,1,2,0:2:0:0:
215,164,38128,1,10,0:2:0:0:
215,164,38322,1,2,0:2:0:0:
77,111,38516,1,0,3:2:0:0:
77,111,38903,1,0,3:2:0:0:
76,111,39290,1,2,0:1:0:0:
77,111,39677,1,8,0:2:0:0:
77,111,40258,1,8,0:2:0:0:
77,111,40451,1,0,3:2:0:0:
118,215,40838,1,2,0:2:0:0:
118,215,40935,1,2,0:2:0:0:
118,215,41032,1,2,3:2:0:0:
118,215,41225,1,10,0:2:0:0:
118,215,41419,1,2,0:2:0:0:
118,215,41612,1,0,3:2:0:0:
118,215,42193,1,0,3:2:0:0:
118,215,42387,1,0,3:2:0:0:
148,126,42774,1,8,0:2:0:0:
148,126,42798,1,8,0:2:0:0:
148,126,42822,1,8,0:2:0:0:
147,126,42846,1,8,0:2:0:0:
148,126,42870,1,8,0:2:0:0:
148,126,42895,1,8,0:2:0:0:
148,126,42919,1,8,0:2:0:0:
148,126,42943,1,8,0:2:0:0:
148,126,43161,1,8,0:2:0:0:
148,126,43185,1,8,0:2:0:0:
148,126,43209,1,8,0:2:0:0:
147,126,43233,1,8,0:2:0:0:
148,126,43257,1,8,0:2:0:0:
148,126,43282,1,8,0:2:0:0:
148,126,43306,1,8,0:2:0:0:
148,126,43330,1,8,0:2:0:0:
148,126,43354,1,8,0:2:0:0:
148,126,44322,1,10,0:2:0:0:
148,126,44346,1,8,0:2:0:0:
148,126,44370,1,8,0:2:0:0:
148,126,44395,1,8,0:2:0:0:
148,126,44516,1,10,0:2:0:0:
148,126,44540,1,8,0:2:0:0:
148,126,44564,1,8,0:2:0:0:
148,126,44588,1,8,0:2:0:0:
339,169,44709,1,10,0:2:0:0:
339,169,44806,1,10,0:2:0:0:
339,169,44903,1,10,0:2:0:0:
339,169,44999,1,10,0:2:0:0:
138,223,45096,1,0,3:2:0:0:
138,223,45483,1,2,0:1:0:0:
138,223,45870,1,8,0:2:0:0:
138,223,46451,1,8,0:2:0:0:
138,223,46645,1,0,3:2:0:0:
138,223,47032,1,2,0:2:0:0:
138,223,47128,1,2,0:2:0:0:
138,223,47225,1,2,3:2:0:0:
137,223,47419,1,10,0:2:0:0:
137,223,47612,1,2,0:2:0:0:
138,223,47806,1,0,3:2:0:0:
153,118,48967,1,8,0:3:0:0:
154,118,49096,1,8,0:3:0:0:
154,118,49225,1,8,0:3:0:0:
154,118,49354,1,4,0:3:0:0:
154,118,49483,1,4,0:3:0:0:
154,118,49612,1,4,0:3:0:0:
154,118,49741,1,4,0:2:0:0:
125,171,55161,5,0,1:2:0:0:
125,171,55258,5,0,1:2:0:0:
125,171,55354,5,0,1:2:0:0:
125,171,55451,5,0,1:2:0:0:
125,171,55548,5,0,1:2:0:0:
125,171,55645,5,0,1:2:0:0:
125,171,55741,5,0,1:2:0:0:
125,171,55838,5,0,1:2:0:0:
125,171,55935,5,0,3:2:0:0:
125,171,56225,5,8,0:2:0:0:
125,171,56322,5,0,3:2:0:0:
125,171,56516,5,8,0:2:0:0:
125,171,56709,5,0,3:2:0:0:
124,171,56806,5,8,0:2:0:0:
125,171,57096,5,8,3:2:0:0:
124,171,57290,5,8,0:2:0:0:
125,171,57483,5,8,3:2:0:0:
125,171,57774,5,8,0:2:0:0:
125,171,57870,5,0,3:2:0:0:
125,171,58064,5,8,0:2:0:0:
125,171,58258,5,0,3:2:0:0:
125,171,58354,5,8,0:2:0:0:
125,171,58645,5,8,3:2:0:0:
125,171,58838,5,8,0:2:0:0:
125,171,59032,5,8,3:2:0:0:
125,171,59128,5,8,0:2:0:0:
125,171,59225,5,8,3:2:0:0:
125,171,59322,5,8,0:2:0:0:
125,171,59419,5,8,3:2:0:0:
125,171,59516,5,8,0:2:0:0:
125,171,59612,5,8,3:2:0:0:
125,171,59709,5,8,0:2:0:0:
125,171,59806,5,8,3:2:0:0:
125,171,59830,5,8,0:2:0:0:
125,171,59854,5,8,0:2:0:0:
125,171,59878,5,8,0:2:0:0:
125,171,59903,5,8,0:2:0:0:
125,171,59927,5,8,0:2:0:0:
125,171,59951,5,8,0:2:0:0:
125,171,59975,5,8,0:2:0:0:
125,171,60000,5,8,3:2:0:0:
125,171,60024,5,8,0:2:0:0:
125,171,60048,5,8,0:2:0:0:
125,171,60072,5,8,0:2:0:0:
125,171,60097,5,8,0:2:0:0:
125,171,60120,5,8,0:2:0:0:
125,171,60144,5,8,0:2:0:0:
125,171,60168,5,8,0:2:0:0:
125,171,60193,5,8,3:2:0:0:
125,171,60217,5,8,0:2:0:0:
125,171,60241,5,8,0:2:0:0:
125,171,60265,5,8,0:2:0:0:
125,171,60290,5,8,0:2:0:0:
125,171,60314,5,8,0:2:0:0:
125,171,60338,5,8,0:2:0:0:
125,171,60362,5,8,0:2:0:0:
125,171,60387,5,8,3:2:0:0:
125,171,60411,5,8,0:2:0:0:
125,171,60435,5,8,0:2:0:0:
125,171,60459,5,8,0:2:0:0:
125,171,60484,5,8,0:2:0:0:
125,171,60508,5,8,0:2:0:0:
125,171,60532,5,8,0:2:0:0:
125,171,60556,5,8,0:2:0:0:
125,171,60580,5,0,3:2:0:0:
125,171,61354,5,0,3:2:0:0:
125,171,61451,5,0,3:2:0:0:
125,171,61547,5,0,3:2:0:0:
125,171,61741,5,0,3:2:0:0:
84,135,62128,1,4,3:1:0:0:
84,135,62903,1,8,0:2:0:0:
84,135,63483,1,0,3:2:0:0:
84,135,64258,1,0,3:2:0:0:
84,135,64451,1,8,0:2:0:0:
84,135,65225,1,0,3:2:0:0:
84,135,65999,1,8,0:2:0:0:
84,135,66193,1,0,3:2:0:0:
84,135,66580,1,0,3:2:0:0:
84,135,67354,1,0,3:2:0:0:
84,135,67548,1,8,0:2:0:0:
84,135,68322,1,0,3:2:0:0:
84,135,68709,1,0,3:2:0:0:
84,135,69096,1,14,3:2:0:0:
84,135,69483,1,0,3:2:0:0:
84,135,69870,1,0,3:2:0:0:
84,135,70258,1,0,3:2:0:0:
84,135,70645,1,14,3:2:0:0:
84,135,71032,1,0,3:2:0:0:
84,135,71419,1,0,3:2:0:0:
84,135,71612,1,0,3:2:0:0:
84,135,71806,1,0,3:2:0:0:
84,135,71999,1,0,3:2:0:0:
84,135,72193,1,0,3:2:0:0:
84,135,72387,1,0,3:2:0:0:
83,135,72580,1,0,3:2:0:0:
83,135,72774,1,6,3:2:0:0:
83,135,73741,1,0,3:2:0:0:
82,135,73838,1,0,3:2:0:0:
83,135,73935,1,0,3:2:0:0:
83,135,74128,1,4,0:2:0:0:
235,181,74516,1,8,3:2:0:0:
235,181,74903,1,8,3:2:0:0:
235,181,75290,1,8,3:2:0:0:
235,181,75677,1,8,3:2:0:0:
235,181,76064,1,8,3:2:0:0:
235,181,76451,1,8,3:2:0:0:
235,181,76838,1,8,3:2:0:0:
235,181,77225,1,8,3:2:0:0:
235,181,77612,1,8,3:2:0:0:
235,181,77999,1,8,3:2:0:0:
235,181,78386,1,8,3:2:0:0:
235,181,78773,1,8,3:2:0:0:
235,181,79160,1,8,3:2:0:0:
235,181,79547,1,8,3:2:0:0:
235,181,79934,1,8,3:2:0:0:
235,181,80322,1,8,3:2:0:0:
235,181,80709,1,12,3:2:0:0:
235,181,81096,1,8,3:2:0:0:
235,181,81483,1,8,3:2:0:0:
235,181,81870,1,8,3:2:0:0:
235,181,82257,1,8,3:2:0:0:
235,181,82645,1,8,3:2:0:0:
235,181,83032,1,8,3:2:0:0:
235,181,83419,1,8,3:2:0:0:
235,181,83806,1,8,3:2:0:0:
235,181,84193,1,8,3:2:0:0:
235,181,84580,1,8,3:2:0:0:
235,181,84967,1,8,3:2:0:0:
235,181,85161,1,4,0:2:0:0:
235,181,86903,1,4,0:2:0:0:
235,181,87677,1,8,0:2:0:0:
235,181,88064,1,0,3:2:0:0:
235,181,88451,1,0,3:2:0:0:
235,181,88838,1,2,0:1:0:0:
70,173,89225,1,10,1:2:0:0:
133,123,89257,1,0,1:2:0:0:
133,123,89289,1,0,1:2:0:0:
133,123,89322,1,0,1:2:0:0:
133,123,89354,1,0,1:2:0:0:
133,123,89386,1,0,1:2:0:0:
133,123,89612,1,2,1:2:0:0:
133,123,89644,1,0,1:2:0:0:
133,123,89676,1,0,1:2:0:0:
133,123,89709,1,0,1:2:0:0:
133,123,89741,1,0,1:2:0:0:
133,123,89773,1,0,1:2:0:0:
70,173,89805,1,8,0:2:0:0:
241,218,89999,1,0,3:2:0:0:
241,218,90580,1,0,3:2:0:0:
241,218,90773,1,8,0:2:0:0:
241,218,91160,1,0,3:2:0:0:
241,218,91741,1,0,3:2:0:0:
241,218,91934,1,0,3:2:0:0:
78,134,92322,1,8,0:2:0:0:
78,134,92370,1,8,0:2:0:0:
78,134,92418,1,8,0:2:0:0:
78,134,92467,1,8,0:2:0:0:
78,134,92709,1,8,0:2:0:0:
78,134,92757,1,8,0:2:0:0:
78,134,92805,1,8,0:2:0:0:
78,134,92854,1,8,0:2:0:0:
78,134,92902,1,8,0:2:0:0:
35,159,93096,1,0,3:2:0:0:
72,200,93870,1,10,0:2:0:0:
72,200,94257,1,2,3:2:0:0:
72,200,94644,1,2,3:2:0:0:
72,200,95032,1,2,0:1:0:0:
70,173,95418,1,10,1:2:0:0:
133,123,95450,1,0,1:2:0:0:
133,123,95482,1,0,1:2:0:0:
133,123,95515,1,0,1:2:0:0:
133,123,95547,1,0,1:2:0:0:
133,123,95579,1,0,1:2:0:0:
133,123,95806,1,2,1:2:0:0:
133,123,95837,1,0,1:2:0:0:
133,123,95869,1,0,1:2:0:0:
133,123,95902,1,0,1:2:0:0:
133,123,95934,1,0,1:2:0:0:
133,123,95966,1,0,1:2:0:0:
72,200,96193,1,2,3:2:0:0:
72,200,96773,1,0,3:2:0:0:
72,200,96967,1,8,0:2:0:0:
72,200,97354,1,0,3:2:0:0:
72,200,97934,1,0,3:2:0:0:
72,200,98031,1,0,3:2:0:0:
72,200,98128,1,0,3:2:0:0:
154,118,98515,1,8,1:3:0:0:
153,118,98644,1,8,0:3:0:0:
154,118,98773,1,8,0:3:0:0:
154,118,98902,1,8,0:3:0:0:
154,118,99031,1,4,0:3:0:0:
154,118,99096,1,0,1:3:0:0:
154,118,99160,1,4,0:3:0:0:
71,200,99290,1,2,0:2:0:0:
72,200,99387,1,2,0:2:0:0:
71,200,99483,1,2,0:2:0:0:
72,200,99677,1,2,0:2:0:0:
72,200,99774,1,2,0:2:0:0:
72,200,99870,1,2,0:2:0:0:
72,200,100064,1,2,0:2:0:0:
72,200,100258,1,2,0:2:0:0:
72,200,100354,1,2,0:2:0:0:
72,200,100451,1,0,3:2:0:0:
72,200,100645,1,0,3:2:0:0:
72,200,100838,1,0,3:2:0:0:
72,200,101225,1,2,0:1:0:0:
71,200,101612,1,8,0:2:0:0:
71,200,102193,1,8,0:2:0:0:
71,200,102387,1,0,3:2:0:0:
71,200,102774,1,2,0:2:0:0:
72,200,102870,1,2,0:2:0:0:
72,200,102967,1,2,3:2:0:0:
72,200,103161,1,10,0:2:0:0:
72,200,103354,1,2,0:2:0:0:
72,200,103548,1,0,3:2:0:0:
72,200,104128,1,0,3:2:0:0:
71,200,104322,1,0,3:2:0:0:
72,200,104709,1,2,0:2:0:0:
72,200,104903,1,2,0:2:0:0:
72,200,104999,1,2,0:2:0:0:
72,200,105193,1,2,0:2:0:0:
72,200,105290,1,2,0:2:0:0:
72,200,105483,1,0,3:2:0:0:
72,200,105870,1,2,0:2:0:0:
72,200,105967,1,2,0:2:0:0:
72,200,106064,1,2,0:2:0:0:
72,200,106258,1,2,0:2:0:0:
72,200,106452,1,2,0:2:0:0:
72,200,106548,1,2,0:2:0:0:
72,200,106742,1,2,0:2:0:0:
72,200,106839,1,2,0:2:0:0:
71,200,107032,1,0,3:2:0:0:
72,200,107419,1,2,0:1:0:0:
72,200,107806,1,8,0:2:0:0:
72,200,108387,1,8,0:2:0:0:
72,200,108580,1,0,3:2:0:0:
72,200,108967,1,2,0:2:0:0:
72,200,109064,1,2,0:2:0:0:
72,200,109161,1,2,3:2:0:0:
72,200,109354,1,10,0:2:0:0:
72,200,109548,1,2,0:2:0:0:
72,200,109741,1,0,3:2:0:0:
153,118,110903,1,8,0:3:0:0:
154,118,111032,1,8,0:3:0:0:
154,118,111161,1,8,0:3:0:0:
154,118,111290,1,4,0:3:0:0:
154,118,111419,1,4,0:3:0:0:
154,118,111548,1,4,0:3:0:0:
154,118,111677,1,4,0:2:0:0:
125,171,117096,5,0,1:2:0:0:
125,171,117193,5,0,1:2:0:0:
125,171,117289,5,0,1:2:0:0:
125,171,117386,5,0,1:2:0:0:
125,171,117483,5,0,1:2:0:0:
125,171,117580,5,0,1:2:0:0:
125,171,117676,5,0,1:2:0:0:
125,171,117773,5,0,1:2:0:0:
125,171,117870,5,0,3:2:0:0:
125,171,118160,5,8,0:2:0:0:
125,171,118257,5,0,3:2:0:0:
125,171,118451,5,8,0:2:0:0:
125,171,118644,5,0,3:2:0:0:
124,171,118741,5,8,0:2:0:0:
125,171,119031,5,8,3:2:0:0:
124,171,119225,5,8,0:2:0:0:
125,171,119418,5,8,3:2:0:0:
125,171,119709,5,8,0:2:0:0:
125,171,119805,5,0,3:2:0:0:
125,171,119999,5,8,0:2:0:0:
125,171,120193,5,0,3:2:0:0:
125,171,120289,5,8,0:2:0:0:
125,171,120580,5,8,3:2:0:0:
125,171,120773,5,8,0:2:0:0:
125,171,120967,5,8,3:2:0:0:
125,171,121063,5,8,0:2:0:0:
125,171,121160,5,8,3:2:0:0:
125,171,121257,5,8,0:2:0:0:
125,171,121354,5,8,3:2:0:0:
125,171,121451,5,8,0:2:0:0:
125,171,121547,5,8,3:2:0:0:
125,171,121644,5,8,0:2:0:0:
125,171,121741,5,8,3:2:0:0:
125,171,121765,5,8,0:2:0:0:
125,171,121789,5,8,0:2:0:0:
125,171,121813,5,8,0:2:0:0:
125,171,121838,5,8,0:2:0:0:
125,171,121862,5,8,0:2:0:0:
125,171,121886,5,8,0:2:0:0:
125,171,121910,5,8,0:2:0:0:
125,171,121935,5,8,3:2:0:0:
125,171,121959,5,8,0:2:0:0:
125,171,121983,5,8,0:2:0:0:
125,171,122007,5,8,0:2:0:0:
125,171,122032,5,8,0:2:0:0:
125,171,122055,5,8,0:2:0:0:
125,171,122079,5,8,0:2:0:0:
125,171,122103,5,8,0:2:0:0:
125,171,122128,5,8,3:2:0:0:
125,171,122152,5,8,0:2:0:0:
125,171,122176,5,8,0:2:0:0:
125,171,122200,5,8,0:2:0:0:
125,171,122225,5,8,0:2:0:0:
125,171,122249,5,8,0:2:0:0:
125,171,122273,5,8,0:2:0:0:
125,171,122297,5,8,0:2:0:0:
125,171,122322,5,8,3:2:0:0:
125,171,122346,5,8,0:2:0:0:
125,171,122370,5,8,0:2:0:0:
125,171,122394,5,8,0:2:0:0:
125,171,122419,5,8,0:2:0:0:
125,171,122443,5,8,0:2:0:0:
125,171,122467,5,8,0:2:0:0:
125,171,122491,5,8,0:2:0:0:
125,171,122515,5,0,3:2:0:0:
125,171,123290,5,0,3:2:0:0:
125,171,123387,5,0,3:2:0:0:
125,171,123483,5,0,3:2:0:0:
125,171,123677,5,0,3:2:0:0:
84,135,124064,1,4,3:1:0:0:
84,135,124839,1,8,0:2:0:0:
84,135,125419,1,0,3:2:0:0:
84,135,126194,1,0,3:2:0:0:
84,135,126387,1,8,0:2:0:0:
84,135,127161,1,0,3:2:0:0:
84,135,127935,1,8,0:2:0:0:
84,135,128129,1,0,3:2:0:0:
84,135,128516,1,0,3:2:0:0:
84,135,129290,1,0,3:2:0:0:
84,135,129484,1,8,0:2:0:0:
84,135,130258,1,0,3:2:0:0:
84,135,130645,1,0,3:2:0:0:
84,135,131032,1,14,3:2:0:0:
84,135,131419,1,0,3:2:0:0:
84,135,131806,1,0,3:2:0:0:
84,135,132193,1,0,3:2:0:0:
84,135,132581,1,14,3:2:0:0:
84,135,132968,1,0,3:2:0:0:
84,135,133355,1,0,3:2:0:0:
84,135,133548,1,0,3:2:0:0:
84,135,133742,1,0,3:2:0:0:
84,135,133935,1,0,3:2:0:0:
84,135,134129,1,0,3:2:0:0:
84,135,134323,1,0,3:2:0:0:
83,135,134516,1,0,3:2:0:0:
83,135,134710,1,6,3:2:0:0:
184,161,136451,1,2,0:2:0:0:
184,161,137225,1,2,0:3:0:0:
183,161,137419,1,2,0:2:0:0:
184,161,137612,1,2,0:2:0:0:
184,161,137806,1,2,0:2:0:0:
184,161,138774,1,2,0:3:0:0:
184,161,138967,1,2,0:2:0:0:
184,161,139161,1,2,0:2:0:0:
184,161,139354,1,2,0:2:0:0:
184,161,140322,1,2,0:3:0:0:
184,161,141870,1,2,0:3:0:0:
184,161,142645,1,2,0:2:0:0:
184,161,143419,1,2,0:3:0:0:
183,161,143613,1,2,0:2:0:0:
184,161,143806,1,2,0:2:0:0:
184,161,144000,1,2,0:2:0:0:
184,161,144967,1,2,0:3:0:0:
184,161,145161,1,2,0:2:0:0:
184,161,145355,1,2,0:2:0:0:
184,161,145548,1,2,0:2:0:0:
184,161,146516,1,2,0:3:0:0:
184,161,148064,1,2,0:3:0:0:
184,161,148838,1,0,3:2:0:0:
184,161,149225,1,0,3:2:0:0:
184,161,149612,1,2,3:3:0:0:
184,161,149999,1,0,3:2:0:0:
184,161,150386,1,0,3:2:0:0:
184,161,150774,1,0,3:2:0:0:
184,161,151161,1,2,3:3:0:0:
184,161,151548,1,0,3:2:0:0:
184,161,151935,1,0,3:2:0:0:
184,161,152322,1,0,3:2:0:0:
184,161,152709,1,2,3:3:0:0:
184,161,153096,1,0,3:2:0:0:
184,161,153483,1,0,3:2:0:0:
184,161,153870,1,0,3:2:0:0:
184,161,154258,1,2,3:3:0:0:
184,161,154645,1,0,3:2:0:0:
184,161,155032,1,8,3:2:0:0:
183,161,155322,1,8,0:2:0:0:
183,161,155419,1,0,3:2:0:0:
183,161,155612,1,8,0:2:0:0:
183,161,155806,1,2,3:3:0:0:
183,161,155903,1,8,0:2:0:0:
183,161,156193,1,8,3:2:0:0:
183,161,156387,1,8,0:2:0:0:
184,161,156580,1,8,3:2:0:0:
183,161,156870,1,8,0:2:0:0:
183,161,156967,1,0,3:2:0:0:
183,161,157160,1,8,0:2:0:0:
183,161,157354,1,2,3:3:0:0:
183,161,157451,1,8,0:2:0:0:
183,161,157741,1,8,3:2:0:0:
183,161,157935,1,8,0:2:0:0:
183,161,158128,1,8,3:2:0:0:
183,161,158322,1,8,3:2:0:0:
183,161,158516,1,8,3:2:0:0:
183,161,158710,1,8,3:2:0:0:
183,161,158733,1,8,0:2:0:0:
183,161,158758,1,8,0:2:0:0:
183,161,158782,1,8,0:2:0:0:
183,161,158806,1,8,0:2:0:0:
183,161,158830,1,8,0:2:0:0:
183,161,158854,1,8,0:2:0:0:
183,161,158878,1,8,0:2:0:0:
183,161,158903,1,8,3:2:0:0:
183,161,158927,1,8,0:2:0:0:
183,161,158951,1,8,0:2:0:0:
183,161,158975,1,8,0:2:0:0:
183,161,158999,1,8,0:2:0:0:
183,161,159024,1,8,0:2:0:0:
183,161,159048,1,8,0:2:0:0:
183,161,159072,1,8,0:2:0:0:
183,161,159096,1,8,3:2:0:0:
183,161,159120,1,8,0:2:0:0:
183,161,159145,1,8,0:2:0:0:
183,161,159169,1,8,0:2:0:0:
183,161,159193,1,8,0:2:0:0:
183,161,159217,1,8,0:2:0:0:
183,161,159241,1,8,0:2:0:0:
183,161,159266,1,8,0:2:0:0:
183,161,159290,1,8,3:2:0:0:
183,161,159314,1,8,0:2:0:0:
183,161,159338,1,8,0:2:0:0:
183,161,159362,1,8,0:2:0:0:
183,161,159387,1,8,0:2:0:0:
183,161,159411,1,8,0:2:0:0:
183,161,159435,1,8,0:2:0:0:
183,161,159459,1,8,0:2:0:0:
183,161,159483,1,8,3:2:0:0:
183,161,159677,1,4,0:1:0:0:
100,138,162774,1,4,3:2:0:0:
100,138,162967,1,4,3:2:0:0:
100,138,164322,1,4,3:2:0:0:
100,138,164516,1,4,3:2:0:0:
100,138,165870,1,4,3:2:0:0:
100,138,166451,1,4,3:2:0:0:
100,138,167032,1,4,3:2:0:0:
100,138,167419,1,0,3:2:0:0:
100,138,167612,1,0,3:2:0:0:
100,138,167806,1,0,3:2:0:0:
100,138,167999,1,0,3:2:0:0:
84,135,168967,1,0,3:2:0:0:
84,135,169354,1,0,3:2:0:0:
84,135,169741,1,14,3:2:0:0:
84,135,170128,1,0,3:2:0:0:
84,135,170515,1,0,3:2:0:0:
84,135,170902,1,0,3:2:0:0:
84,135,171290,1,14,3:2:0:0:
84,135,171677,1,0,3:2:0:0:
84,135,172064,1,0,3:2:0:0:
84,135,172257,1,0,3:2:0:0:
84,135,172451,1,0,3:2:0:0:
84,135,172644,1,0,3:2:0:0:
84,135,172838,1,0,3:2:0:0:
84,135,173032,1,0,3:2:0:0:
83,135,173225,1,0,3:2:0:0:
83,135,173419,1,6,3:2:0:0:
82,135,174387,1,0,3:2:0:0:
83,135,174483,1,0,3:2:0:0:
83,135,174580,1,0,3:2:0:0:
83,135,174774,1,4,0:2:0:0:
235,181,175161,1,8,3:2:0:0:
235,181,175548,1,8,3:2:0:0:
235,181,175935,1,8,3:2:0:0:
235,181,176322,1,8,3:2:0:0:
235,181,176709,1,8,3:2:0:0:
235,181,177096,1,8,3:2:0:0:
235,181,177483,1,8,3:2:0:0:
235,181,177870,1,8,3:2:0:0:
235,181,178257,1,8,3:2:0:0:
235,181,178644,1,8,3:2:0:0:
235,181,179031,1,8,3:2:0:0:
235,181,179418,1,8,3:2:0:0:
235,181,179805,1,8,3:2:0:0:
235,181,180192,1,8,3:2:0:0:
235,181,180579,1,8,3:2:0:0:
235,181,180967,1,8,3:2:0:0:
235,181,181354,1,12,3:2:0:0:
235,181,181741,1,8,3:2:0:0:
235,181,182128,1,8,3:2:0:0:
235,181,182515,1,8,3:2:0:0:
235,181,182902,1,8,3:2:0:0:
235,181,183290,1,8,3:2:0:0:
235,181,183677,1,8,3:2:0:0:
235,181,184064,1,8,3:2:0:0:
235,181,184451,1,8,3:2:0:0:
235,181,184838,1,8,3:2:0:0:
235,181,185225,1,8,3:2:0:0:
235,181,185612,1,8,3:2:0:0:
235,181,185806,1,4,0:1:0:0:
