osu file format v14

[General]
AudioFilename: audio.mp3
AudioLeadIn: 0
PreviewTime: 68555
Countdown: 0
SampleSet: Soft
StackLeniency: 0.4
Mode: 0
LetterboxInBreaks: 0
WidescreenStoryboard: 0

[Editor]
DistanceSpacing: 1
BeatDivisor: 4
GridSize: 4
TimelineZoom: 2.7

[Metadata]
Title:MIROH
TitleUnicode:MIROH
Artist:Stray Kids
ArtistUnicode:스트레이 키즈
Creator:DeRandom Otaku
Version:Ascend
Source:
Tags:JYP Entertainment Clé 1: Miroh k-pop kpop 방찬 우진 리노 창빈 현진 한 필릭스 승민 아이엔 Bang Chan Woojin Lee Know Minho Changbin Han Felix Seungmin I.N [_L_u_k_a_s_] alphabet regraz ren
BeatmapID:1981785
BeatmapSetID:949028

[Difficulty]
HPDrainRate:6
CircleSize:3.6
OverallDifficulty:8.5
ApproachRate:9.2
SliderMultiplier:2.2
SliderTickRate:1

[Events]
//Background and Video events
0,0,"bg.jpeg",0,0
//Break Periods
2,15183,21556
2,129469,136556
//Storyboard Layer 0 (Background)
//Storyboard Layer 1 (Fail)
//Storyboard Layer 2 (Pass)
//Storyboard Layer 3 (Foreground)
//Storyboard Sound Samples

[TimingPoints]
5698,476.190476190476,4,2,0,60,1,0
5698,-181.818181818182,4,2,0,60,0,0
9507,-153.846153846154,4,2,0,70,0,0
14031,-153.846153846154,4,2,0,60,0,0
14269,-181.818181818182,4,2,0,50,0,0
14745,-51.2820512820513,4,2,0,80,0,0
14864,-76.9230769230769,4,2,0,5,0,0
22126,-76.9230769230769,4,2,0,55,0,0
22840,-125,4,2,0,55,0,0
30459,-200,4,2,0,55,0,0
38078,-100,4,2,0,70,0,0
52840,-47.6190476190476,4,2,0,82,0,0
53317,-86.9565217391304,4,2,0,82,0,0
64748,-68.9655172413793,4,2,0,82,0,0
68078,-30.3030303030303,4,2,0,100,0,0
68197,-30.3030303030303,4,2,0,5,0,0
68555,-400,4,2,0,100,0,1
69031,-62.5,4,2,0,100,0,1
70459,-250,4,2,0,100,0,1
70936,-58.8235294117647,4,2,0,100,0,1
71412,-50,4,2,0,100,0,1
71590,-50,4,2,0,5,0,1
71650,-50,4,2,0,100,0,1
71828,-50,4,2,0,5,0,1
71888,-50,4,2,0,100,0,1
72364,-31.25,4,2,0,100,0,1
72840,-58.8235294117647,4,2,0,100,0,1
75221,-166.666666666667,4,2,0,60,0,1
76174,-35.0877192982456,4,2,0,100,0,1
76531,-35.0877192982456,4,2,0,5,0,1
76650,-58.8235294117647,4,2,0,100,0,1
78078,-250,4,2,0,100,0,1
78555,-58.8235294117647,4,2,0,100,0,1
79031,-45.4545454545455,4,2,0,100,0,1
79209,-45.4545454545455,4,2,0,5,0,1
79269,-45.4545454545455,4,2,0,100,0,1
79447,-45.4545454545455,4,2,0,5,0,1
79507,-45.4545454545455,4,2,0,100,0,1
79983,-40,4,2,0,100,0,1
80459,-50,4,2,0,100,0,1
81650,-100,4,2,0,100,0,1
82245,-100,4,2,0,70,0,1
83317,-35.0877192982456,4,2,0,100,0,1
84269,-62.5,4,2,0,100,0,1
85697,-250,4,2,0,100,0,1
86174,-62.5,4,2,0,100,0,1
86650,-54.054054054054,4,2,0,100,0,1
87602,-44.4444444444445,4,2,0,100,0,1
88078,-62.5,4,2,0,100,0,1
90459,-166.666666666667,4,2,0,60,0,1
91412,-35.0877192982456,4,2,0,100,0,1
91888,-60.6060606060606,4,2,0,100,0,1
93317,-71.4285714285714,4,2,0,100,0,1
94269,-54.054054054054,4,2,0,100,0,1
95221,-41.6666666666667,4,2,0,100,0,1
95578,-62.5,4,2,0,100,0,1
97126,-100,4,2,0,70,0,0
98555,-100,4,2,0,70,0,0
99031,-166.666666666667,4,2,0,70,0,0
106650,-100,4,2,0,70,0,0
117602,-55.5555555555556,4,2,0,70,0,0
118078,-100,4,2,0,70,0,0
121412,-55.5555555555556,4,2,0,70,0,0
121888,-100,4,2,0,70,0,0
125221,-55.5555555555556,4,2,0,70,0,0
125697,-100,4,2,0,70,0,0
129031,-55.5555555555556,4,2,0,70,0,0
137126,-83.3333333333333,4,2,0,82,0,0
144269,-33.3333333333333,4,2,0,82,0,0
144745,-400,4,2,0,100,0,1
145221,-62.5,4,2,0,100,0,1
146649,-250,4,2,0,100,0,1
147126,-58.8235294117647,4,2,0,100,0,1
147602,-50,4,2,0,100,0,1
147780,-50,4,2,0,5,0,1
147840,-50,4,2,0,100,0,1
148018,-50,4,2,0,5,0,1
148078,-50,4,2,0,100,0,1
148554,-31.25,4,2,0,100,0,1
149030,-58.8235294117647,4,2,0,100,0,1
151411,-166.666666666667,4,2,0,60,0,1
152364,-35.0877192982456,4,2,0,100,0,1
152721,-35.0877192982456,4,2,0,5,0,1
152840,-58.8235294117647,4,2,0,100,0,1
154268,-250,4,2,0,100,0,1
154745,-58.8235294117647,4,2,0,100,0,1
155221,-45.4545454545455,4,2,0,100,0,1
155399,-45.4545454545455,4,2,0,5,0,1
155459,-45.4545454545455,4,2,0,100,0,1
155637,-45.4545454545455,4,2,0,5,0,1
155697,-45.4545454545455,4,2,0,100,0,1
156173,-40,4,2,0,100,0,1
156649,-50,4,2,0,100,0,1
157840,-100,4,2,0,100,0,1
158435,-100,4,2,0,70,0,1
159507,-100,4,2,0,100,0,1
159983,-31.7460317460317,4,2,0,100,0,1
160459,-62.5,4,2,0,100,0,1
161887,-250,4,2,0,100,0,1
162364,-62.5,4,2,0,100,0,1
162840,-54.054054054054,4,2,0,100,0,1
163792,-44.4444444444445,4,2,0,100,0,1
164268,-62.5,4,2,0,100,0,1
165697,-80,4,2,0,100,0,1
166649,-166.666666666667,4,2,0,60,0,1
167602,-35.0877192982456,4,2,0,100,0,1
168078,-60.6060606060606,4,2,0,100,0,1
169507,-250,4,2,0,100,0,1
169983,-71.4285714285714,4,2,0,100,0,1
170459,-54.054054054054,4,2,0,100,0,1
171411,-41.6666666666667,4,2,0,100,0,1
171768,-62.5,4,2,0,100,0,1
173078,-100,4,2,0,100,0,1
173673,-100,4,2,0,70,0,1
174745,-50,4,2,0,70,0,1
175221,-33.3333333333333,4,2,0,100,0,1
175697,-62.5,4,2,0,100,0,1
177126,-250,4,2,0,100,0,1
177483,-62.5,4,2,0,100,0,1
178078,-55.5555555555556,4,2,0,100,0,1
179031,-34.4827586206897,4,2,0,100,0,1
179388,-62.5,4,2,0,100,0,1
181888,-37.7358490566038,4,2,0,100,0,1
182840,-31.25,4,2,0,100,0,1
183317,-62.5,4,2,0,100,0,1
184745,-71.4285714285714,4,2,0,100,0,1
185697,-55.5555555555556,4,2,0,100,0,1
186650,-39.2156862745098,4,2,0,100,0,1
187007,-62.5,4,2,0,100,0,1
188317,-142.857142857143,4,2,0,70,0,0
188555,-142.857142857143,4,2,0,50,0,0
190459,-200,4,2,0,50,0,0
196174,-200,4,2,0,30,0,0
198078,-250,4,2,0,30,0,0
198555,-250,4,2,0,25,0,0
200221,-250,4,2,0,15,0,0
202126,-250,4,2,0,5,0,0

[Colours]
Combo1 : 255,255,74
Combo2 : 255,128,128
Combo3 : 124,208,32
Combo4 : 0,215,215

[HitObjects]
466,48,5698,6,0,P|446:104|436:164,1,121.000003692627,0|0,1:2|1:2,0:0:0:0:
436,164,6650,2,0,P|457:222|468:302,1,121.000003692627,0|0,1:2|1:2,0:0:0:0:
369,306,7602,6,0,B|304:307|324:351|247:352,1,121.000003692627,0|0,1:2|1:2,0:0:0:0:
250,260,8555,2,0,B|185:261|205:305|128:306,1,121.000003692627,0|0,1:2|1:2,0:0:0:0:
48,209,9507,6,0,P|53:154|55:91,1,107.249995090485,0|0,1:2|0:2,0:0:0:0:
47,67,9983,2,0,P|100:62|141:60,1,71.4999967269899,0|0,1:2|0:2,0:0:0:0:
254,61,10459,2,0,P|215:118|244:180,1,142.99999345398,0|0,1:2|1:2,0:0:0:0:
244,180,11412,6,0,L|232:253,1,71.4999967269899,0|0,1:2|1:2,0:0:0:0:
368,250,11888,2,0,L|356:179,1,71.4999967269899,0|0,1:2|1:2,0:0:0:0:
168,106,12364,2,0,L|156:176,1,71.4999967269899,0|0,1:2|1:2,0:0:0:0:
443,175,12840,2,0,L|432:105,1,71.4999967269899,0|0,1:2|1:2,0:0:0:0:
232,250,13317,5,0,1:2:0:0:
246,295,13436,1,0,1:2:0:0:
273,333,13555,1,0,1:2:0:0:
312,361,13674,1,0,1:2:0:0:
357,376,13793,1,0,1:2:0:0:
404,376,13912,1,0,1:2:0:0:
458,369,14031,1,0,3:2:0:0:
458,369,14150,1,0,3:2:0:0:
458,369,14269,2,0,L|463:313,3,30.2500009231568,0|0|0|0,3:2|3:2|3:2|3:2,3:3:0:0:
474,246,14745,2,0,B|421:209|337:232|337:232|388:293,1,214.500000818253,4|0,0:2|0:2,0:0:0:0:
383,287,22126,5,2,0:2:0:0:
443,226,22364,1,2,0:2:0:0:
443,140,22602,1,2,0:2:0:0:
255,35,22840,6,0,P|211:38|137:53,1,88,6|2,0:2|0:2,0:0:0:0:
86,80,23317,1,10,0:2:0:0:
137,151,23555,1,2,0:2:0:0:
56,186,23793,2,0,P|68:236|75:284,1,88,2|2,0:2|0:2,0:0:0:0:
81,359,24269,1,10,0:2:0:0:
195,303,24507,6,0,B|308:298|247:362|367:353,1,176,2|2,0:2|0:2,0:0:0:0:
366,178,25221,2,0,P|350:219|341:262,1,88,10|2,0:2|0:2,0:0:0:0:
300,120,25697,1,2,0:2:0:0:
232,176,25936,1,2,0:2:0:0:
195,96,26174,2,0,P|152:92|103:91,1,88,10|2,0:2|0:2,0:0:0:0:
48,32,26531,1,2,0:2:0:0:
48,32,26650,6,0,P|71:117|84:213,1,176,2|10,0:2|0:2,0:0:0:0:
79,354,27364,1,0,0:2:0:0:
79,354,27483,2,0,L|172:347,2,88,0|0|0,0:2|0:2|0:2,0:0:0:0:
50,345,28078,1,10,0:2:0:0:
250,302,28317,5,2,0:2:0:0:
220,207,28555,2,0,P|259:210|335:231,1,88,0|0,0:2|0:2,0:0:0:0:
338,234,28912,1,0,0:2:0:0:
338,234,29031,2,0,P|350:185|366:141,1,88,8|0,0:2|0:2,0:0:0:0:
412,319,29507,1,0,0:2:0:0:
220,207,29745,1,10,0:2:0:0:
354,55,29983,2,0,P|395:63|446:101,1,88,10|2,0:2|0:2,0:0:0:0:
143,136,30459,6,0,L|155:4,1,110,2|10,1:2|0:2,0:0:0:0:
50,71,31174,1,2,0:2:0:0:
240,128,31412,2,0,P|268:127|311:128,1,55,2|2,1:2|0:2,0:0:0:0:
423,135,31888,1,10,0:2:0:0:
365,60,32126,1,2,0:2:0:0:
198,222,32364,5,2,1:2:0:0:
256,295,32602,2,0,P|285:296|327:302,1,55,2|10,0:2|0:2,0:0:0:0:
165,304,33078,1,2,0:2:0:0:
457,331,33317,1,2,1:2:0:0:
415,247,33555,1,2,0:2:0:0:
494,197,33793,2,0,P|496:158|498:117,1,55,10|2,0:2|0:2,0:0:0:0:
345,33,34269,6,0,B|290:56|316:88|250:115,1,110,2|8,1:2|0:2,0:0:0:0:
148,44,34983,1,0,0:2:0:0:
148,44,35102,1,0,0:2:0:0:
102,116,35221,1,0,1:2:0:0:
102,116,35340,2,0,P|113:148|120:193,1,55,0|0,0:2|0:2,0:0:0:0:
118,201,35697,1,10,0:2:0:0:
35,38,35936,1,2,0:2:0:0:
224,195,36174,5,0,1:2:0:0:
224,195,36293,2,0,P|272:209|298:224,1,55,0|0,0:2|0:2,0:0:0:0:
301,232,36650,2,0,P|326:242|353:248,1,55,8|0,0:2|0:2,0:0:0:0:
497,210,37126,1,0,0:2:0:0:
399,355,37364,1,8,0:2:0:0:
356,139,37602,2,0,L|366:81,1,55,10|0,0:2|0:2,0:0:0:0:
485,314,38078,5,0,1:2:0:0:
301,232,38317,1,2,0:2:0:0:
185,366,38555,2,0,P|128:351|58:343,1,110,10|0,0:2|0:2,0:0:0:0:
41,350,38912,2,0,P|39:312|31:264,1,55,2|0,0:2|1:2,0:0:0:0:
154,172,39150,2,0,P|150:199|149:226,1,55,2|0,0:2|0:2,0:0:0:0:
35,48,39388,1,2,0:2:0:0:
35,48,39507,2,0,B|96:49|84:89|152:89,1,110,10|2,0:2|0:2,0:0:0:0:
410,80,39983,5,2,1:2:0:0:
326,150,40221,1,2,0:2:0:0:
487,218,40459,2,0,P|470:286|458:365,1,110,8|0,0:2|0:2,0:0:0:0:
464,363,40817,2,0,P|430:355|401:354,1,55,2|0,0:2|1:2,0:0:0:0:
289,259,41055,2,0,P|255:267|226:268,1,55,2|0,0:2|0:2,0:0:0:0:
114,363,41293,1,2,0:2:0:0:
114,363,41412,2,0,P|65:355|0:352,1,110,10|2,0:2|0:2,0:0:0:0:
243,175,41888,5,0,1:2:0:0:
284,359,42126,1,2,0:2:0:0:
357,229,42364,2,0,P|368:182|393:119,1,110,10|0,0:2|0:2,0:0:0:0:
422,106,42721,2,0,P|438:142|445:182,1,55,2|0,0:2|1:2,0:0:0:0:
262,25,42959,2,0,P|250:50|243:77,1,55,2|0,0:2|0:2,0:0:0:0:
237,265,43197,1,2,0:2:0:0:
237,265,43317,2,0,P|195:245|128:222,1,110,10|2,0:2|0:2,0:0:0:0:
441,244,43793,5,2,1:2:0:0:
274,167,44031,1,2,0:2:0:0:
345,371,44269,2,0,P|428:353|486:350,1,110,8|0,0:2|0:2,0:0:0:0:
488,364,44626,2,0,P|493:331|493:279,1,55,2|0,0:2|1:2,0:0:0:0:
361,224,44864,2,0,P|356:191|356:139,1,55,2|8,0:2|0:2,0:0:0:0:
488,84,45102,1,2,0:2:0:0:
488,84,45221,2,0,P|452:44|389:36,1,110,10|2,0:2|0:2,0:0:0:0:
198,46,45697,5,0,1:2:0:0:
412,115,45936,1,2,0:2:0:0:
160,176,46174,2,0,P|179:224|195:308,1,110,10|0,0:2|0:2,0:0:0:0:
196,319,46531,2,0,P|219:289|252:257,1,55,2|0,0:2|1:2,0:0:0:0:
71,210,46769,2,0,P|48:180|15:148,1,55,2|0,0:2|0:2,0:0:0:0:
196,101,47007,1,2,0:2:0:0:
195,101,47126,2,0,P|230:59|271:22,1,110,10|2,0:2|0:2,0:0:0:0:
299,218,47602,5,2,1:2:0:0:
88,77,47840,1,2,0:2:0:0:
348,104,48078,2,0,P|406:95|459:72,1,110,8|0,0:2|0:2,0:0:0:0:
484,55,48436,2,0,P|480:88|478:121,1,55,2|0,0:2|1:2,0:0:0:0:
384,240,48674,2,0,P|381:212|378:185,1,55,2|0,0:2|0:2,0:0:0:0:
483,315,48912,1,2,0:2:0:0:
483,315,49031,2,0,P|435:332|375:355,1,110,10|2,0:2|0:2,0:0:0:0:
240,241,49507,5,0,1:2:0:0:
476,197,49745,1,2,0:2:0:0:
210,224,49983,2,0,P|230:280|241:353,1,110,10|0,0:2|0:2,0:0:0:0:
241,366,50340,2,0,P|214:359|175:353,1,55,2|0,0:2|1:2,0:0:0:0:
302,209,50578,2,0,P|329:202|368:196,1,55,2|0,0:2|0:2,0:0:0:0:
241,52,50817,1,2,0:2:0:0:
241,52,50936,2,0,P|196:41|125:29,1,110,10|2,0:2|0:2,0:0:0:0:
23,268,51412,5,2,1:2:0:0:
167,146,51650,1,2,0:2:0:0:
241,366,51888,2,0,P|297:350|343:315,1,110,8|0,0:2|0:2,0:0:0:0:
365,296,52245,2,0,P|371:328|385:369,1,55,2|0,0:2|1:2,0:0:0:0:
237,225,52483,2,0,P|244:198|249:171,1,55,2|8,0:2|0:2,0:0:0:0:
377,100,52721,1,2,0:2:0:0:
377,100,52840,2,0,B|487:195|401:211|503:299,1,230.99999295044,4|2,0:2|0:2,0:0:0:0:
266,152,53317,6,0,L|275:19,1,126.500002412796,6|0,0:2|0:2,0:0:0:0:
51,117,53793,1,10,0:2:0:0:
51,117,53912,1,2,0:2:0:0:
51,117,54031,1,2,0:2:0:0:
51,117,54150,1,2,0:2:0:0:
51,117,54269,2,0,P|61:151|66:191,1,63.250001206398,10|2,0:2|0:2,0:0:0:0:
159,285,54507,2,0,P|164:253|173:223,1,63.250001206398,2|2,0:2|0:2,0:0:0:0:
214,109,54745,1,10,0:2:0:0:
256,280,54983,1,0,0:2:0:0:
31,261,55221,6,0,P|52:308|64:388,1,126.500002412796,10|0,0:2|0:2,0:0:0:0:
185,205,55697,1,10,0:2:0:0:
185,205,55817,1,2,0:2:0:0:
185,205,55936,1,2,0:2:0:0:
185,205,56055,1,2,0:2:0:0:
185,205,56174,2,0,P|223:193|262:184,1,63.250001206398,10|2,0:2|0:2,0:0:0:0:
338,304,56412,2,0,P|300:292|261:283,1,63.250001206398,2|2,0:2|0:2,0:0:0:0:
164,355,56650,1,10,0:2:0:0:
353,206,56888,1,0,0:2:0:0:
90,158,57126,6,0,B|64:100|64:100|95:26,1,126.500002412796,10|0,0:2|0:2,0:0:0:0:
374,120,57602,1,10,0:2:0:0:
374,120,57721,1,2,0:2:0:0:
374,120,57840,1,2,0:2:0:0:
374,120,57959,1,2,0:2:0:0:
374,120,58078,2,0,P|361:155|356:188,1,63.250001206398,10|2,0:2|0:2,0:0:0:0:
226,79,58317,2,0,P|220:47|208:18,1,63.250001206398,2|2,0:2|0:2,0:0:0:0:
205,203,58555,1,10,0:2:0:0:
319,33,58793,1,2,0:2:0:0:
319,33,58912,1,2,0:2:0:0:
319,33,59031,6,0,L|448:42,1,126.500002412796,10|2,0:2|0:2,0:0:0:0:
488,49,59388,2,0,P|472:109|460:209,1,126.500002412796,2|0,0:2|0:2,0:0:0:0:
463,269,59745,1,2,0:2:0:0:
463,269,59864,1,2,0:2:0:0:
463,269,59983,2,0,P|406:247|337:231,1,126.500002412796,10|10,0:2|0:2,0:0:0:0:
306,268,60340,2,0,P|249:290|180:306,1,126.500002412796,2|0,0:2|0:2,0:0:0:0:
145,286,60697,1,2,0:0:0:0:
488,49,60936,5,6,0:2:0:0:
314,149,61174,1,2,0:2:0:0:
485,236,61412,1,10,0:2:0:0:
483,251,61531,1,2,0:2:0:0:
482,267,61650,1,2,0:2:0:0:
480,283,61769,1,2,0:2:0:0:
479,298,61888,6,0,P|465:343|461:371,1,63.250001206398,10|2,0:2|0:2,0:0:0:0:
380,149,62126,2,0,P|373:118|363:88,1,63.250001206398,2|2,0:2|0:2,0:0:0:0:
182,75,62364,1,10,0:2:0:0:
212,80,62483,1,2,0:2:0:0:
240,95,62602,1,2,0:2:0:0:
261,119,62721,1,2,0:2:0:0:
274,146,62840,6,0,P|255:172|241:200,1,63.250001206398,10|2,0:2|0:2,0:0:0:0:
74,92,63078,2,0,P|59:63|41:38,1,63.250001206398,2|2,0:2|0:2,0:0:0:0:
46,263,63317,1,10,0:2:0:0:
46,263,63436,2,0,P|65:258|113:253,1,63.250001206398,2|0,0:2|0:2,0:0:0:0:
204,355,63674,1,2,0:2:0:0:
204,355,63793,5,10,0:2:0:0:
232,327,63912,1,2,0:2:0:0:
269,315,64031,1,2,0:2:0:0:
308,319,64150,1,2,0:2:0:0:
341,341,64269,1,10,0:2:0:0:
374,363,64388,1,2,0:2:0:0:
413,367,64507,1,2,0:2:0:0:
450,355,64626,1,2,0:2:0:0:
483,332,64745,5,10,0:2:0:0:
483,332,64864,2,0,P|486:287|502:225,1,79.7500024337769,2|0,0:2|0:2,0:0:0:0:
376,106,65102,1,2,0:2:0:0:
376,106,65221,2,0,P|383:145|385:184,1,79.7500024337769,10|0,0:2|0:2,0:0:0:0:
341,341,65459,1,2,0:2:0:0:
269,315,65578,1,2,0:2:0:0:
204,355,65697,5,10,0:2:0:0:
167,367,65817,1,2,0:2:0:0:
128,363,65936,1,2,0:2:0:0:
95,341,66055,1,2,0:2:0:0:
70,309,66174,2,0,P|41:322|4:357,1,79.7500024337769,10|2,0:2|0:2,0:0:0:0:
204,162,66412,2,0,P|240:180|269:208,1,79.7500024337769,2|2,0:2|0:2,0:0:0:0:
36,172,66650,5,8,0:2:0:0:
46,92,66769,2,0,L|56:12,1,79.7500024337769,8|0,0:2|0:2,0:0:0:0:
125,203,67007,5,8,0:2:0:0:
137,105,67126,2,0,L|149:8,1,79.7500024337769,8|0,0:2|0:2,0:0:0:0:
220,235,67364,5,8,0:2:0:0:
235,113,67483,2,0,L|250:-7,1,79.7500024337769,2|0,0:3|0:2,0:0:0:0:
421,260,67721,5,0,3:2:0:0:
299,245,67840,2,0,L|178:229,1,79.7500024337769,8|0,3:2|0:2,0:0:0:0:
54,37,68078,6,0,B|145:16|209:82|209:82|202:92|202:92|210:82|210:82|286:158|403:106|403:106|343:18|272:32,1,544.500005192757,4|0,1:2|0:2,0:0:0:0:
44,266,68555,6,0,L|50:226,1,41.25,6|0,1:2|0:2,0:0:0:0:
121,301,69031,6,0,L|135:214,1,88,10|0,0:2|0:2,0:0:0:0:
37,55,69269,1,2,0:2:0:0:
37,55,69388,1,0,0:2:0:0:
37,55,69507,2,0,L|50:142,1,88,2|0,1:2|0:2,0:0:0:0:
278,334,69745,5,2,0:2:0:0:
215,271,69864,1,2,0:2:0:0:
277,208,69983,2,0,P|288:156|305:111,1,88,10|0,0:2|0:2,0:0:0:0:
27,294,70221,2,0,P|41:335|49:378,1,88,2|0,0:2|0:2,0:0:0:0:
151,114,70459,6,0,P|183:104|210:98,1,44,0|0,1:2|0:2,0:0:0:0:
399,136,70817,1,0,1:2:0:0:
339,65,70936,6,0,P|312:105|309:155,1,93.500001783371,10|0,0:2|0:2,0:0:0:0:
365,267,71174,1,2,0:2:0:0:
365,267,71233,1,2,0:2:0:0:
365,267,71293,1,2,0:2:0:0:
193,203,71412,6,0,B|100:203|143:152|34:152,1,165,2|0,1:2|0:2,0:0:0:0:
41,152,71650,2,0,B|134:152|91:101|200:101,1,165,0|0,0:2|0:2,0:0:0:0:
46,49,71888,1,10,0:2:0:0:
164,302,72126,1,2,0:2:0:0:
193,203,72245,1,2,0:2:0:0:
171,314,72364,6,0,B|215:319|243:349|243:349|271:168|271:168|229:179|199:213,1,352,6|0,1:2|0:2,0:0:0:0:
23,290,72721,1,2,0:2:0:0:
35,200,72840,2,0,B|87:206|71:231|123:246,1,93.500001783371,10|0,0:2|0:2,0:0:0:0:
350,309,73078,1,2,0:2:0:0:
368,195,73197,1,2,0:2:0:0:
243,350,73317,5,0,1:2:0:0:
261,236,73436,2,0,P|257:186|249:133,1,93.500001783371,2|0,0:2|0:2,0:0:0:0:
69,111,73674,1,2,0:2:0:0:
188,68,73793,2,0,P|234:61|280:57,1,93.500001783371,10|0,0:2|0:2,0:0:0:0:
492,202,74031,2,0,P|445:195|399:191,1,93.500001783371,2|0,0:2|0:2,0:0:0:0:
320,383,74269,5,0,1:2:0:0:
367,194,74388,2,0,P|383:237|396:283,1,93.500001783371,2|0,0:2|0:2,0:0:0:0:
261,155,74626,1,2,0:2:0:0:
212,342,74745,2,0,P|196:299|184:254,1,93.500001783371,10|0,0:2|0:2,0:0:0:0:
232,66,74983,2,0,P|248:110|261:155,1,93.500001783371,2|0,0:2|0:2,0:0:0:0:
212,342,75221,6,0,L|179:348,2,32.99999899292,2|0|0,0:2|0:2|0:2,0:0:0:0:
331,270,75697,2,0,L|417:288,1,65.9999979858399,2|0,0:2|0:2,0:0:0:0:
164,182,76174,6,0,B|45:236|5:189|-1:121|51:65|177:132|177:132|243:165|340:136,1,470.250004484654,2|0,0:1|0:2,0:0:0:0:
382,91,76650,6,0,P|343:55|297:51,1,93.500001783371,6|0,1:2|0:2,0:0:0:0:
208,278,76888,1,2,0:2:0:0:
208,278,77007,1,0,0:2:0:0:
208,278,77126,2,0,P|247:242|293:238,1,93.500001783371,2|0,1:2|0:2,0:0:0:0:
501,352,77364,5,2,0:2:0:0:
434,285,77483,1,2,0:2:0:0:
500,218,77602,2,0,P|495:170|470:124,1,93.500001783371,10|0,0:2|0:2,0:0:0:0:
277,13,77840,2,0,P|272:59|251:100,1,93.500001783371,2|0,0:2|0:2,0:0:0:0:
144,310,78078,6,0,P|167:306|202:303,1,44,0|0,1:2|0:2,0:0:0:0:
416,353,78436,1,0,1:2:0:0:
360,280,78555,6,0,P|331:317|328:377,1,93.500001783371,10|0,0:2|0:2,0:0:0:0:
259,218,78793,1,2,0:2:0:0:
259,218,78852,1,2,0:2:0:0:
259,218,78912,1,2,0:2:0:0:
66,364,79031,6,0,B|32:282|32:282|82:191,1,181.500005538941,2|0,1:2|0:2,0:0:0:0:
77,201,79269,2,0,B|111:119|111:119|61:28,1,181.500005538941,0|0,0:2|0:2,0:0:0:0:
8,125,79507,1,8,0:2:0:0:
285,311,79745,1,2,0:2:0:0:
187,303,79864,1,2,0:2:0:0:
290,297,79983,6,0,P|239:194|188:295,1,275,2|0,1:2|0:2,0:0:0:0:
392,362,80340,1,2,0:2:0:0:
394,275,80459,2,0,B|457:275|443:318|502:319,1,110,10|0,0:2|0:2,0:0:0:0:
356,80,80697,1,2,0:2:0:0:
313,193,80817,1,2,0:2:0:0:
156,80,80936,5,2,1:2:0:0:
199,193,81055,2,0,B|156:211|125:204|125:204|82:157,1,110,2|0,0:2|0:2,0:0:0:0:
356,80,81293,1,2,0:2:0:0:
313,193,81412,2,0,B|356:211|387:204|387:204|430:157,1,110,10|0,0:2|0:2,0:0:0:0:
156,80,81650,6,0,B|113:62|68:68|68:68|14:146,1,165,2|2,0:2|0:2,0:0:0:0:
36,362,82245,1,2,0:2:0:0:
36,362,82364,2,0,P|91:363|141:315,1,110,2|2,0:2|0:2,0:0:0:0:
232,136,82840,1,0,3:2:0:0:
279,211,82959,1,0,3:2:0:0:
347,155,83078,1,0,3:2:0:0:
351,159,83317,6,0,B|410:85|410:85|418:190|418:190|423:188|423:188|418:190|418:190|429:317,1,313.500002989769,12|0,0:2|0:2,0:0:0:0:
426,292,83793,1,2,1:2:0:0:
351,159,84031,1,2,0:2:0:0:
213,364,84269,6,0,P|177:344|114:328,1,88,14|0,0:2|0:2,0:0:0:0:
28,182,84507,1,2,0:2:0:0:
28,182,84626,1,0,0:2:0:0:
28,182,84745,2,0,P|70:169|108:148,1,88,2|0,1:2|0:2,0:0:0:0:
351,72,84983,5,2,0:2:0:0:
284,14,85102,1,2,0:2:0:0:
225,79,85221,2,0,P|235:130|242:187,1,88,10|0,0:2|0:2,0:0:0:0:
327,360,85459,2,0,P|333:316|341:273,1,88,2|0,0:2|0:2,0:0:0:0:
369,97,85697,6,0,L|420:108,1,44,0|0,1:2|0:2,0:0:0:0:
242,199,86055,1,0,1:2:0:0:
225,79,86174,6,0,P|235:130|242:187,1,88,10|0,0:2|0:2,0:0:0:0:
213,364,86412,1,2,0:2:0:0:
213,364,86471,1,2,0:2:0:0:
213,364,86531,1,2,0:2:0:0:
71,212,86650,6,0,P|121:213|160:243,1,101.749999611855,2|0,1:2|0:2,0:0:0:0:
239,165,86888,2,0,P|233:115|197:80,1,101.749999611855,0|0,0:2|0:2,0:0:0:0:
380,74,87126,2,0,P|380:124|349:164,1,101.749999611855,10|0,0:2|0:2,0:0:0:0:
92,300,87364,1,2,0:2:0:0:
52,203,87483,1,2,0:2:0:0:
8,345,87602,6,0,B|158:300|96:395|248:359,1,247.500009441376,2|0,1:2|0:2,0:0:0:0:
437,333,87959,1,2,0:2:0:0:
368,272,88078,2,0,P|348:311|350:364,1,88,10|0,0:2|0:2,0:0:0:0:
428,174,88317,1,2,0:2:0:0:
501,238,88436,1,2,0:2:0:0:
325,171,88555,5,2,1:2:0:0:
374,87,88674,2,0,P|327:73|272:88,1,88,2|0,0:2|0:2,0:0:0:0:
104,166,88912,1,2,0:2:0:0:
188,117,89031,2,0,P|202:164|187:219,1,88,10|0,0:2|0:2,0:0:0:0:
268,362,89269,2,0,P|262:318|275:277,1,88,2|0,0:2|0:2,0:0:0:0:
374,87,89507,5,0,1:2:0:0:
428,174,89626,2,0,P|459:153|488:105,1,88,2|0,0:2|0:2,0:0:0:0:
242,30,89864,1,2,0:2:0:0:
188,117,89983,2,0,P|157:96|128:48,1,88,10|0,0:2|0:2,0:0:0:0:
374,87,90221,2,0,P|405:66|434:18,1,88,2|0,0:2|0:2,0:0:0:0:
306,192,90459,6,0,L|309:237,2,32.99999899292,2|0|0,0:2|0:2|0:2,0:0:0:0:
192,51,90936,2,0,L|187:125,1,65.9999979858399,2|0,0:2|0:2,0:0:0:0:
170,346,91412,6,0,B|51:400|11:353|3:280|57:229|183:296|183:296|249:329|346:300,1,470.250004484654,2|0,0:1|0:2,0:0:0:0:
381,260,91888,6,0,P|406:297|381:353,1,90.7500008654595,12|0,0:2|0:2,0:0:0:0:
317,146,92126,1,2,0:2:0:0:
317,146,92245,1,2,0:2:0:0:
250,227,92364,5,2,1:2:0:0:
169,159,92483,2,0,L|78:179,1,90.7500008654595,2|0,0:2|0:2,0:0:0:0:
332,292,92721,1,2,0:2:0:0:
398,214,92840,2,0,L|486:194,1,90.7500008654595,10|0,0:2|0:2,0:0:0:0:
250,227,93078,2,0,L|159:247,1,90.7500008654595,2|0,0:2|0:2,0:0:0:0:
11,35,93317,5,0,1:2:0:0:
62,105,93436,2,0,P|79:140|77:187,1,76.9999976501466,2|0,0:2|0:2,0:0:0:0:
148,332,93674,1,2,0:2:0:0:
161,246,93793,2,0,P|173:209|208:177,1,76.9999976501466,10|0,0:2|0:2,0:0:0:0:
29,269,94031,1,2,0:2:0:0:
29,269,94090,1,2,0:2:0:0:
29,269,94150,1,2,0:2:0:0:
263,119,94269,6,0,P|248:77|185:60,1,101.749999611855,2|0,1:2|0:2,0:0:0:0:
342,187,94507,2,0,P|370:153|354:89,1,101.749999611855,0|0,0:2|0:2,0:0:0:0:
322,289,94745,2,0,P|365:297|412:250,1,101.749999611855,10|0,0:2|0:2,0:0:0:0:
176,144,94983,1,2,0:2:0:0:
158,247,95102,1,2,0:2:0:0:
83,122,95221,6,0,B|246:124|152:42|337:53,1,263.99999194336,2|0,1:2|0:2,0:0:0:0:
505,84,95578,1,2,0:2:0:0:
434,25,95697,2,0,P|414:63|415:107,1,88,10|0,0:2|0:2,0:0:0:0:
459,297,95936,1,2,0:2:0:0:
491,212,96055,1,2,0:2:0:0:
328,212,96174,5,2,1:2:0:0:
360,297,96293,2,0,P|356:334|341:384,1,88,2|0,0:2|0:2,0:0:0:0:
491,212,96531,1,2,0:2:0:0:
459,297,96650,2,0,P|464:340|477:382,1,88,10|0,0:2|0:2,0:0:0:0:
328,212,96888,2,0,P|341:170|346:126,1,88,2|0,0:2|0:2,0:0:0:0:
166,15,97126,6,0,L|177:202,1,165,8|0,0:2|0:2,0:0:0:0:
179,208,97543,1,8,0:2:0:0:
179,208,97602,2,0,P|140:199|106:191,2,55,8|8|8,0:2|0:2|0:2,0:0:0:0:
35,182,97959,1,8,0:2:0:0:
35,182,98555,6,0,P|91:233|35:278,1,165,2|0,0:1|0:2,0:0:0:0:
17,292,99031,6,0,B|190:283|104:362|265:361,1,263.99999194336,6|8,1:2|0:2,0:0:0:0:
263,361,100697,1,0,1:2:0:0:
230,267,100936,2,0,P|334:220|348:340,1,263.99999194336,0|8,1:2|0:2,0:0:0:0:
154,151,102840,6,0,B|220:92|220:92|230:267,1,263.99999194336,4|8,1:2|0:2,0:0:0:0:
230,267,104507,1,0,1:2:0:0:
263,173,104745,2,0,B|406:206|327:286|475:317,1,263.99999194336,0|8,1:2|0:2,0:0:0:0:
473,316,106650,5,4,1:2:0:0:
463,201,106888,1,2,0:2:0:0:
344,366,107126,2,0,P|291:348|237:341,1,110,10|0,0:2|0:2,0:0:0:0:
200,351,107483,2,0,P|166:346|140:333,1,55,2|0,0:2|1:2,0:0:0:0:
19,257,107721,2,0,P|53:252|79:239,1,55,2|0,0:2|0:2,0:0:0:0:
197,167,107959,1,2,0:2:0:0:
197,167,108078,2,0,P|187:121|182:51,1,110,10|2,0:2|0:2,0:0:0:0:
226,253,108555,5,2,1:2:0:0:
27,169,108793,1,2,0:2:0:0:
287,183,109031,2,0,P|328:165|376:109,1,110,8|0,0:2|0:2,0:0:0:0:
385,81,109388,2,0,P|412:87|450:96,1,55,2|0,0:2|1:2,0:0:0:0:
235,22,109626,2,0,P|208:28|170:37,1,55,2|8,0:2|0:2,0:0:0:0:
115,164,109864,1,2,0:2:0:0:
115,164,109983,2,0,P|101:114|70:61,1,110,10|2,0:2|0:2,0:0:0:0:
98,336,110459,5,4,1:2:0:0:
287,183,110697,1,2,0:2:0:0:
115,164,110936,2,0,P|65:178|13:212,1,110,10|0,0:2|0:2,0:0:0:0:
16,247,111293,2,0,P|59:257|98:262,1,55,2|0,0:2|1:2,0:0:0:0:
233,171,111531,2,0,P|260:176|287:183,1,55,2|0,0:2|0:2,0:0:0:0:
208,371,111769,1,2,0:2:0:0:
208,371,111888,2,0,P|218:309|241:258,1,110,10|2,0:2|0:2,0:0:0:0:
343,85,112364,5,2,1:2:0:0:
377,286,112602,1,2,0:2:0:0:
343,85,112840,2,0,P|406:98|464:141,1,110,8|0,0:2|0:2,0:0:0:0:
474,146,113197,2,0,P|484:108|498:69,1,55,2|0,0:2|1:2,0:0:0:0:
362,233,113436,2,0,P|370:259|376:285,1,55,2|8,0:2|0:2,0:0:0:0:
240,124,113674,1,2,0:2:0:0:
240,124,113793,1,10,0:2:0:0:
276,280,114031,1,2,0:2:0:0:
343,85,114269,6,0,L|457:94,1,110,6|2,1:2|0:2,0:0:0:0:
240,124,114745,2,0,L|130:115,1,110,10|2,0:2|0:2,0:0:0:0:
359,63,115221,2,0,L|503:74,1,110,2|2,1:2|0:2,0:0:0:0:
224,146,115697,1,10,0:2:0:0:
228,150,115936,2,0,L|83:138,1,110,2|0,0:2|1:2,0:0:0:0:
399,223,116412,5,2,0:2:0:0:
403,227,116650,2,0,P|375:284|370:341,1,110,10|2,0:2|0:2,0:0:0:0:
319,170,117126,1,2,1:2:0:0:
475,309,117364,1,10,0:2:0:0:
223,259,117602,2,0,B|177:258|134:281|134:281|130:276|130:276|133:281|133:281|82:313|16:314,1,197.99999395752,14|2,0:2|0:2,0:0:0:0:
220,125,118078,6,0,P|273:140|319:170,1,110,2|0,1:2|0:2,0:0:0:0:
475,309,118555,2,0,P|422:323|376:353,1,110,10|0,0:2|0:2,0:0:0:0:
344,374,118912,2,0,B|340:341|338:295,1,55,2|0,0:2|1:2,0:0:0:0:
223,259,119150,2,0,B|222:280|218:313,1,55,2|0,0:2|0:2,0:0:0:0:
324,197,119388,1,2,0:2:0:0:
324,197,119507,1,10,0:2:0:0:
147,192,119745,1,2,0:2:0:0:
300,65,119983,5,2,1:2:0:0:
223,259,120221,1,2,0:2:0:0:
190,27,120459,2,0,P|131:50|77:57,1,110,10|0,0:2|0:2,0:0:0:0:
49,40,120817,2,0,L|55:103,1,55,2|0,0:2|1:2,0:0:0:0:
61,238,121055,1,2,0:2:0:0:
61,238,121174,1,10,0:2:0:0:
217,139,121412,2,0,B|291:105|352:149|352:149|319:204,1,197.99999395752,14|0,0:2|0:2,0:0:0:0:
80,345,121888,6,0,P|75:291|61:238,1,110,6|2,1:2|0:2,0:0:0:0:
217,139,122364,2,0,P|202:192|197:246,1,110,10|0,0:2|0:2,0:0:0:0:
28,126,122840,1,2,1:2:0:0:
60,237,123078,1,2,0:2:0:0:
249,28,123317,1,10,0:2:0:0:
217,138,123555,2,0,P|202:191|196:246,1,110,2|0,0:2|1:2,0:0:0:0:
362,355,124031,5,2,0:2:0:0:
366,359,124269,2,0,P|316:352|248:349,1,110,10|2,0:2|0:2,0:0:0:0:
110,350,124745,1,2,1:2:0:0:
283,258,124983,1,10,0:2:0:0:
100,203,125221,2,0,B|185:216|185:216|206:243|206:243|283:258,1,197.99999395752,14|2,0:2|0:2,0:0:0:0:
479,180,125697,5,0,1:2:0:0:
483,184,125936,1,0,1:2:0:0:
301,105,126174,1,8,1:2:0:0:
305,109,126413,1,0,1:2:0:0:
460,332,126650,1,0,1:2:0:0:
282,257,126888,1,0,1:2:0:0:
244,267,127007,1,0,3:2:0:0:
210,285,127126,1,8,1:2:0:0:
464,336,127364,1,0,1:2:0:0:
301,105,127602,5,0,1:2:0:0:
247,93,127721,1,0,1:2:0:0:
197,113,127840,1,0,1:2:0:0:
165,157,127959,1,0,1:2:0:0:
163,211,128078,1,0,1:2:0:0:
160,265,128197,1,0,1:2:0:0:
128,309,128316,1,0,3:2:0:0:
88,327,128435,1,0,3:2:0:0:
51,319,128555,2,0,P|48:277|33:230,3,55,0|0|0|0,3:2|3:2|3:2|3:2,3:3:0:0:
34,155,129031,2,0,B|146:154|102:246|211:247,1,197.99999395752,4|0,0:2|0:2,0:0:0:0:
199,246,137126,6,0,P|239:232|297:223,1,65.9999979858399,6|0,0:2|0:2,0:0:0:0:
403,266,137364,1,2,0:2:0:0:
404,244,137483,1,2,0:2:0:0:
407,222,137602,1,10,0:2:0:0:
413,201,137721,1,2,0:2:0:0:
421,180,137840,1,2,0:2:0:0:
431,161,137959,1,2,0:2:0:0:
443,142,138078,6,0,P|411:127|381:97,1,65.9999979858399,10|0,0:2|0:2,0:0:0:0:
277,36,138317,1,2,0:2:0:0:
277,36,138436,2,0,P|262:68|232:98,1,65.9999979858399,2|8,0:2|0:2,0:0:0:0:
171,202,138674,1,2,0:2:0:0:
171,202,138793,2,0,P|203:217|233:247,1,65.9999979858399,2|2,0:2|0:2,0:0:0:0:
337,308,139031,5,10,0:2:0:0:
337,308,139150,2,0,P|352:276|382:246,1,65.9999979858399,2|0,0:2|0:2,0:0:0:0:
443,142,139388,1,2,0:2:0:0:
443,142,139507,2,0,P|464:166|478:196,1,65.9999979858399,10|0,0:2|0:2,0:0:0:0:
304,171,139745,1,2,0:2:0:0:
304,171,139864,1,2,0:2:0:0:
304,171,139983,5,10,0:2:0:0:
260,148,140102,1,2,0:2:0:0:
211,141,140221,2,0,P|222:177|226:215,1,65.9999979858399,2|0,0:2|0:2,0:0:0:0:
148,351,140459,1,10,0:2:0:0:
148,351,140578,2,0,P|152:318|162:286,2,65.9999979858399,2|0|0,0:2|0:2|0:2,0:0:0:0:
90,204,140936,5,10,0:2:0:0:
90,204,141055,1,2,0:2:0:0:
90,204,141174,2,0,P|41:224|12:248,1,65.9999979858399,2|0,0:2|0:2,0:0:0:0:
249,288,141412,2,0,P|298:308|327:332,1,65.9999979858399,10|0,0:2|0:2,0:0:0:0:
209,127,141650,2,0,P|229:78|253:49,1,65.9999979858399,2|0,0:2|0:2,0:0:0:0:
363,206,141888,5,10,0:2:0:0:
416,217,142007,1,2,0:2:0:0:
466,191,142126,1,2,0:2:0:0:
486,139,142245,1,2,0:2:0:0:
463,93,142364,2,0,L|484:16,1,65.9999979858399,10|2,0:2|0:2,0:0:0:0:
318,131,142602,2,0,L|334:194,1,65.9999979858399,2|2,0:2|0:2,0:0:0:0:
392,353,142840,5,8,0:2:0:0:
308,315,142959,2,0,P|269:322|225:337,1,65.9999979858399,8|0,0:2|0:2,0:0:0:0:
433,234,143197,5,8,0:2:0:0:
334,194,143316,2,0,P|295:201|251:216,1,65.9999979858399,8|0,0:2|0:2,0:0:0:0:
464,108,143555,5,8,0:2:0:0:
353,64,143674,2,0,P|314:71|270:86,1,65.9999979858399,2|0,0:3|0:0,0:0:0:0:
40,174,143912,5,0,3:2:0:0:
159,123,144031,2,0,P|198:130|242:145,1,65.9999979858399,8|0,3:2|0:0,0:0:0:0:
459,228,144269,6,0,B|517:315|440:374|440:374|339:279|468:199|466:138|428:27,1,495.000018882752,4|0,1:2|0:2,0:0:0:0:
267,318,144745,6,0,L|308:315,1,41.25,6|0,1:2|0:2,0:0:0:0:
237,231,145221,6,0,L|324:224,1,88,10|0,0:2|0:2,0:0:0:0:
106,344,145459,1,2,0:2:0:0:
106,344,145578,1,0,0:2:0:0:
106,344,145697,2,0,L|18:337,1,88,2|0,1:2|0:2,0:0:0:0:
182,73,145936,5,2,0:2:0:0:
233,144,146055,1,2,0:2:0:0:
191,221,146174,2,0,P|204:261|207:319,1,88,10|0,0:2|0:2,0:0:0:0:
42,137,146412,2,0,P|45:93|58:51,1,88,2|0,0:2|0:2,0:0:0:0:
311,66,146650,6,0,P|287:72|262:73,1,44,0|0,1:2|0:2,0:0:0:0:
104,248,147007,1,0,1:2:0:0:
191,221,147126,6,0,P|235:227|302:254,1,93.500001783371,10|0,0:2|0:2,0:0:0:0:
414,336,147364,1,2,0:2:0:0:
414,336,147424,1,2,0:2:0:0:
414,336,147483,1,2,0:2:0:0:
420,73,147602,6,0,P|390:138|370:231,1,165,2|0,1:2|0:2,0:0:0:0:
370,229,147840,2,0,P|327:158|269:99,1,165,0|0,0:2|0:2,0:0:0:0:
203,41,148078,1,10,0:2:0:0:
80,331,148317,1,2,0:2:0:0:
207,317,148436,1,2,0:2:0:0:
89,315,148555,6,0,B|136:254|129:146|129:146|137:253|195:304,1,352,6|0,1:2|0:2,0:0:0:0:
394,329,148912,1,2,0:2:0:0:
329,264,149031,2,0,P|304:304|304:350,1,93.500001783371,10|0,0:2|0:2,0:0:0:0:
453,178,149269,1,2,0:2:0:0:
355,176,149388,1,2,0:2:0:0:
452,78,149507,5,0,1:2:0:0:
354,79,149626,2,0,P|304:91|267:137,1,93.500001783371,2|0,0:2|0:2,0:0:0:0:
128,243,149864,1,2,0:2:0:0:
129,146,149983,2,0,P|179:158|216:204,1,93.500001783371,10|0,0:2|0:2,0:0:0:0:
340,57,150221,2,0,P|290:69|253:115,1,93.500001783371,2|0,0:2|0:2,0:0:0:0:
121,267,150459,5,0,1:2:0:0:
100,151,150578,2,0,P|92:104|65:42,1,93.500001783371,2|0,0:2|0:2,0:0:0:0:
211,323,150817,1,2,0:2:0:0:
232,207,150936,2,0,P|240:160|267:98,1,93.500001783371,10|0,0:2|0:2,0:0:0:0:
52,68,151174,2,0,P|68:111|76:157,1,93.500001783371,2|0,0:2|0:2,0:0:0:0:
63,354,151412,6,0,L|16:347,2,32.99999899292,2|0|0,0:2|0:2|0:2,0:0:0:0:
211,323,151888,2,0,L|284:312,1,65.9999979858399,2|0,0:2|0:2,0:0:0:0:
482,103,152364,6,0,B|440:143|427:203|427:203|385:148|385:148|356:176|356:176|322:153|322:153|289:211|289:211|270:142|198:93,1,470.250004484654,2|0,0:1|0:2,0:0:0:0:
119,68,152840,6,0,P|140:19|190:24,1,93.500001783371,6|0,1:2|0:2,0:0:0:0:
135,185,153078,1,2,0:2:0:0:
135,185,153197,1,0,0:2:0:0:
135,185,153317,2,0,P|85:204|53:165,1,93.500001783371,2|0,1:2|0:2,0:0:0:0:
345,75,153555,5,2,0:2:0:0:
404,146,153674,1,2,0:2:0:0:
345,218,153793,2,0,P|361:260|362:312,1,93.500001783371,10|0,0:2|0:2,0:0:0:0:
414,126,154031,2,0,P|432:84|468:47,1,93.500001783371,2|0,0:2|0:2,0:0:0:0:
272,278,154269,6,0,L|221:273,1,44,0|0,1:2|0:2,0:0:0:0:
458,298,154626,1,0,1:2:0:0:
392,361,154745,6,0,P|367:315|372:267,1,93.500001783371,10|0,0:2|0:2,0:0:0:0:
506,139,154983,1,2,0:2:0:0:
506,139,155043,1,2,0:2:0:0:
506,139,155102,1,2,0:2:0:0:
272,62,155221,6,0,B|173:90|227:142|101:180,1,181.500005538941,2|0,1:2|0:2,0:0:0:0:
131,170,155459,2,0,B|230:198|176:250|302:288,1,181.500005538941,0|0,0:2|0:2,0:0:0:0:
121,264,155697,1,8,0:2:0:0:
347,174,155936,1,2,0:2:0:0:
355,272,156055,1,2,0:2:0:0:
361,169,156174,6,0,P|464:220|363:271,1,275,2|0,1:2|0:2,0:0:0:0:
292,91,156531,1,2,0:2:0:0:
387,66,156650,2,0,P|443:73|501:105,1,110,10|0,0:2|0:2,0:0:0:0:
280,227,156888,1,2,0:2:0:0:
361,168,157007,1,2,0:2:0:0:
450,333,157126,5,2,1:2:0:0:
369,275,157245,2,0,P|346:325|361:380,1,110,2|0,0:2|0:2,0:0:0:0:
189,184,157483,1,2,0:2:0:0:
270,126,157602,2,0,P|293:176|278:231,1,110,10|0,0:2|0:2,0:0:0:0:
69,307,157840,6,0,B|159:306|123:366|228:367,1,165,2|2,0:2|0:2,0:0:0:0:
391,256,158436,1,2,0:2:0:0:
391,256,158555,2,0,P|345:226|287:226,1,110,2|2,0:2|0:2,0:0:0:0:
69,307,159031,1,0,3:2:0:0:
131,244,159150,1,0,3:2:0:0:
68,181,159269,1,0,3:2:0:0:
71,184,159507,6,0,P|101:129|176:174,1,165,2|0,0:3|0:2,0:0:0:0:
47,214,159983,6,0,P|99:86|197:206,1,346.500010243893,2|2,1:2|0:2,0:0:0:0:
150,360,160459,6,0,P|134:328|133:275,1,88,14|0,0:2|0:2,0:0:0:0:
295,165,160697,1,2,0:2:0:0:
295,165,160817,1,0,0:2:0:0:
295,165,160936,2,0,P|295:208|277:248,1,88,2|0,1:2|0:2,0:0:0:0:
47,214,161174,5,2,0:2:0:0:
12,133,161293,1,2,0:2:0:0:
46,52,161412,2,0,P|101:46|158:42,1,88,10|0,0:2|0:2,0:0:0:0:
330,74,161650,2,0,P|286:77|242:82,1,88,2|0,0:2|0:2,0:0:0:0:
47,214,161888,6,0,P|51:237|52:260,1,44,0|0,1:2|0:2,0:0:0:0:
172,359,162245,1,0,1:2:0:0:
248,311,162364,6,0,P|215:276|171:266,1,88,10|0,0:2|0:2,0:0:0:0:
26,361,162602,1,2,0:2:0:0:
26,361,162662,1,2,0:2:0:0:
26,361,162721,1,2,0:2:0:0:
96,147,162840,6,0,B|148:147|148:147|182:189,1,101.749999611855,2|0,1:2|0:2,0:0:0:0:
279,188,163078,2,0,B|298:142|298:142|272:97,1,101.749999611855,0|0,0:2|0:2,0:0:0:0:
403,224,163317,2,0,B|377:269|377:269|323:277,1,101.749999611855,10|0,0:2|0:2,0:0:0:0:
106,234,163555,1,2,0:2:0:0:
179,186,163674,1,2,0:2:0:0:
58,130,163793,6,0,B|83:241|83:241|67:264|67:264|89:370,1,247.500009441376,2|0,1:2|0:2,0:0:0:0:
179,186,164150,1,2,0:2:0:0:
241,236,164269,2,0,P|259:197|252:154,1,88,10|0,0:2|0:2,0:0:0:0:
38,42,164507,1,2,0:2:0:0:
58,130,164626,1,2,0:2:0:0:
272,65,164745,5,2,1:2:0:0:
252,153,164864,2,0,P|296:151|334:131,1,88,2|0,0:2|0:2,0:0:0:0:
472,20,165102,1,2,0:2:0:0:
492,108,165221,2,0,P|448:106|410:86,1,88,10|0,0:2|0:2,0:0:0:0:
256,177,165459,2,0,P|300:175|338:155,1,88,2|0,0:2|0:2,0:0:0:0:
120,28,165697,5,0,1:2:0:0:
140,116,165817,2,0,P|137:151|111:195,1,68.75,2|0,0:2|0:2,0:0:0:0:
276,265,166055,1,2,0:2:0:0:
256,177,166175,2,0,P|259:142|285:98,1,68.75,10|0,0:2|0:2,0:0:0:0:
189,301,166412,2,0,P|203:332|206:366,1,68.75,2|0,0:2|0:2,0:0:0:0:
348,165,166650,6,0,L|392:170,2,32.99999899292,2|0|0,0:2|0:2|0:2,0:0:0:0:
188,301,167126,2,0,L|254:294,1,65.9999979858399,2|0,0:2|0:2,0:0:0:0:
380,168,167602,6,0,B|320:127|303:65|303:65|268:116|268:116|234:93|234:93|205:121|205:121|163:66|163:66|145:136|98:176,1,470.250004484654,2|0,0:1|0:2,0:0:0:0:
19,220,168078,6,0,P|33:257|88:258,1,90.7500008654595,6|0,1:2|0:2,0:0:0:0:
245,208,168317,1,2,0:2:0:0:
245,208,168436,1,2,0:2:0:0:
245,208,168555,2,0,P|288:211|305:251,1,90.7500008654595,2|2,1:2|0:2,0:0:0:0:
100,174,168793,5,0,0:2:0:0:
124,86,168912,1,2,0:2:0:0:
185,19,169031,2,0,P|230:28|268:63,1,90.7500008654595,10|0,0:2|0:2,0:0:0:0:
100,174,169269,2,0,P|55:165|17:130,1,90.7500008654595,2|0,0:2|0:2,0:0:0:0:
246,208,169507,6,0,L|240:261,1,44,0|0,1:2|0:2,0:0:0:0:
334,362,169864,1,2,0:2:0:0:
400,316,169983,6,0,P|365:286|323:282,1,76.9999976501466,10|0,0:2|0:2,0:0:0:0:
173,349,170221,1,2,0:2:0:0:
173,349,170281,1,2,0:2:0:0:
173,349,170340,1,2,0:2:0:0:
189,137,170459,6,0,P|233:160|245:208,1,101.749999611855,2|0,1:2|0:2,0:0:0:0:
350,145,170697,2,0,P|365:191|339:233,1,101.749999611855,0|0,0:2|0:2,0:0:0:0:
458,263,170936,2,0,P|435:307|387:318,1,101.749999611855,10|0,0:2|0:2,0:0:0:0:
153,224,171174,1,2,0:2:0:0:
189,138,171293,1,2,0:2:0:0:
245,208,171412,6,0,B|215:133|215:133|233:74|233:74|212:5|212:5|186:63,1,263.99999194336,2|0,1:2|0:2,0:0:0:0:
149,313,171769,1,2,0:2:0:0:
76,257,171888,2,0,P|115:227|158:224,1,88,10|0,0:2|0:2,0:0:0:0:
379,348,172126,1,2,0:2:0:0:
403,238,172245,1,2,0:2:0:0:
276,348,172364,5,2,1:2:0:0:
252,238,172483,2,0,P|259:195|286:150,1,88,2|0,0:2|0:2,0:0:0:0:
55,55,172721,1,2,0:2:0:0:
123,141,172840,2,0,P|144:179|152:223,1,88,10|0,0:2|0:2,0:0:0:0:
2,298,173078,6,0,B|98:299|65:368|161:368,1,165,2|2,0:2|0:2,0:0:0:0:
329,276,173674,1,2,0:2:0:0:
329,276,173793,2,0,P|378:284|425:320,1,110,2|2,0:2|0:2,0:0:0:0:
152,269,174269,1,2,0:2:0:0:
167,193,174388,1,2,0:2:0:0:
182,117,174507,1,2,0:2:0:0:
185,120,174745,6,0,B|123:126|123:126|119:117|119:117|118:126|118:126|40:133|40:133|97:182,1,220,2|0,0:3|0:2,0:0:0:0:
165,350,175221,6,0,B|261:340|261:340|266:353|266:353|269:339|269:339|391:329|391:329|302:253,1,330.000012588501,6|0,1:2|0:2,0:0:0:0:
328,275,175697,6,0,P|350:242|403:224,1,88,14|0,0:2|0:2,0:0:0:0:
503,210,175936,1,2,0:2:0:0:
291,24,176174,2,0,P|275:70|275:125,1,88,2|0,1:2|0:2,0:0:0:0:
325,300,176412,5,2,0:2:0:0:
247,259,176531,1,2,0:2:0:0:
191,327,176650,2,0,P|152:315|100:324,1,88,10|0,0:2|0:2,0:0:0:0:
322,212,176888,2,0,P|361:200|413:209,1,88,2|0,0:2|0:2,0:0:0:0:
84,129,177126,6,0,L|86:173,1,44,0|0,1:2|0:2,0:0:0:0:
189,31,177483,1,0,1:2:0:0:
256,89,177602,6,0,P|305:73|370:67,1,88,10|0,0:2|0:2,0:0:0:0:
498,236,177840,1,2,0:2:0:0:
498,236,177900,1,2,0:2:0:0:
498,236,177959,1,2,0:2:0:0:
234,357,178078,6,0,L|247:259,1,98.9999969787599,2|0,1:2|0:2,0:0:0:0:
85,129,178317,2,0,L|97:227,1,98.9999969787599,0|0,0:2|0:2,0:0:0:0:
261,369,178555,2,0,L|273:270,1,98.9999969787599,10|0,0:2|0:2,0:0:0:0:
256,89,178793,1,2,0:2:0:0:
316,165,178912,1,2,0:2:0:0:
253,66,179031,6,0,B|314:7|400:37|400:37|422:124|343:174,1,319.000009735108,6|0,1:2|0:2,0:0:0:0:
154,302,179388,1,2,0:2:0:0:
202,224,179507,2,0,P|239:266|245:308,1,88,10|0,0:2|0:2,0:0:0:0:
84,129,179745,1,2,0:2:0:0:
135,35,179864,1,2,0:2:0:0:
184,208,179983,5,0,1:2:0:0:
119,294,180102,2,0,L|23:287,1,88,2|0,0:2|0:2,0:0:0:0:
272,214,180340,1,2,0:2:0:0:
207,300,180459,2,0,L|111:293,1,88,10|0,0:2|0:2,0:0:0:0:
14,104,180697,2,0,L|101:110,1,88,2|0,0:2|0:2,0:0:0:0:
353,158,180936,5,0,1:2:0:0:
272,214,181055,2,0,P|242:243|221:306,1,88,2|0,0:2|0:2,0:0:0:0:
223,31,181293,1,2,0:2:0:0:
304,87,181412,2,0,P|334:116|355:179,1,88,10|0,0:2|0:2,0:0:0:0:
393,355,181650,2,0,P|410:314|441:284,1,88,2|0,0:2|0:2,0:0:0:0:
511,83,181888,6,0,B|339:87|457:220|253:213,1,291.500012231827,2|2,0:2|0:2,0:0:0:0:
492,187,182364,1,2,0:2:0:0:
302,107,182602,1,2,0:2:0:0:
130,363,182840,6,0,B|72:328|19:324|19:324|119:244|259:304,1,352,6|0,0:2|0:2,0:0:0:0:
239,296,183317,6,0,P|222:258|223:202,1,88,6|0,1:2|0:2,0:0:0:0:
231,18,183555,1,2,0:2:0:0:
180,90,183674,1,2,0:2:0:0:
353,179,183793,5,2,1:2:0:0:
302,107,183912,2,0,P|342:91|401:106,1,88,2|0,0:2|0:2,0:0:0:0:
495,288,184150,1,2,0:2:0:0:
423,237,184269,2,0,P|407:277|422:336,1,88,10|0,0:2|0:2,0:0:0:0:
302,107,184507,2,0,P|308:63|292:23,1,88,2|0,0:2|0:2,0:0:0:0:
83,213,184745,5,2,1:2:0:0:
159,169,184864,2,0,P|194:179|234:215,1,76.9999976501466,2|0,0:2|0:2,0:0:0:0:
335,358,185102,1,2,0:2:0:0:
291,282,185221,2,0,P|301:247|337:207,1,76.9999976501466,10|0,0:2|0:2,0:0:0:0:
216,73,185459,1,2,0:2:0:0:
216,73,185519,1,2,0:2:0:0:
216,73,185578,1,2,0:2:0:0:
83,213,185697,6,0,P|57:176|78:124,1,98.9999969787599,2|0,1:2|0:2,0:0:0:0:
169,306,185936,2,0,P|149:347|94:354,1,98.9999969787599,2|0,0:2|0:2,0:0:0:0:
206,185,186174,2,0,P|251:180|285:225,1,98.9999969787599,10|0,0:2|0:2,0:0:0:0:
335,358,186412,1,2,0:2:0:0:
397,287,186531,1,2,0:2:0:0:
471,353,186650,6,0,B|492:285|492:285|466:223|466:223|511:160|466:80,1,280.499996254921,6|0,1:2|0:2,0:0:0:0:
310,209,187007,1,2,0:2:0:0:
308,116,187126,2,0,P|351:126|384:154,1,88,10|0,0:2|0:2,0:0:0:0:
187,167,187364,1,2,0:2:0:0:
185,74,187483,1,2,0:2:0:0:
309,116,187602,5,2,1:2:0:0:
307,23,187721,2,0,P|349:33|382:61,1,88,2|0,0:2|0:2,0:0:0:0:
476,220,187959,1,2,0:2:0:0:
477,127,188078,2,0,P|434:137|401:165,1,88,10|0,0:2|0:2,0:0:0:0:
335,358,188317,6,0,B|297:338|286:302|286:302|201:377|124:301|124:301|174:225|232:249,1,384.999988250733,2|2,0:2|0:2,0:0:0:0:
374,274,189745,1,2,0:2:0:0:
307,159,189983,1,2,0:2:0:0:
286,302,190221,1,2,0:2:0:0:
229,45,190459,6,0,B|99:86|181:133|41:172,1,220,2|2,0:2|0:2,0:0:0:0:
54,168,192126,2,0,P|54:293|195:308,1,275,2|2,0:2|0:2,0:0:0:0:
180,317,194269,6,0,B|308:275|260:360|408:316,1,220,2|2,0:2|0:2,0:0:0:0:
393,320,195936,2,0,P|319:231|405:117,1,275,2|2,0:2|0:2,0:0:0:0:
400,118,198078,6,0,B|328:66|328:66|243:109,1,176,2|2,0:2|0:2,0:0:0:0:
250,105,199745,2,0,B|158:44|158:44|70:117,1,220,2|2,0:2|0:2,0:0:0:0:
73,114,201888,5,2,0:2:0:0:
256,192,202126,12,0,204983,0:2:0:0:
