osu file format v14

[General]
AudioFilename: audio.mp3
AudioLeadIn: 0
PreviewTime: 68555
Countdown: 0
SampleSet: Soft
StackLeniency: 0.4
Mode: 0
LetterboxInBreaks: 0
WidescreenStoryboard: 1

[Editor]
Bookmarks: 96683,127159,134778
DistanceSpacing: 1.2
BeatDivisor: 4
GridSize: 4
TimelineZoom: 2.7

[Metadata]
Title:MIROH
TitleUnicode:MIROH
Artist:Stray Kids
ArtistUnicode:스트레이 키즈
Creator:DeRandom Otaku
Version:Alphabet's Insane
Source:
Tags:JYP Entertainment Clé 1: Miroh k-pop kpop 방찬 우진 리노 창빈 현진 한 필릭스 승민 아이엔 Bang Chan Woojin Lee Know Minho Changbin Han Felix Seungmin I.N [_L_u_k_a_s_] alphabet regraz ren
BeatmapID:2021081
BeatmapSetID:949028

[Difficulty]
HPDrainRate:5.5
CircleSize:4
OverallDifficulty:8.2
ApproachRate:9
SliderMultiplier:1.9
SliderTickRate:1

[Events]
//Background and Video events
0,0,"bg.jpeg",0,0
//Break Periods
2,15421,21526
2,129707,136526
//Storyboard Layer 0 (Background)
//Storyboard Layer 1 (Fail)
//Storyboard Layer 2 (Pass)
//Storyboard Layer 3 (Foreground)
//Storyboard Sound Samples

[TimingPoints]
5698,476.190476190476,4,2,0,55,1,0
5698,-166.666666666667,4,2,0,55,0,0
14745,-66.6666666666667,4,2,0,55,0,0
22126,-133.333333333333,4,2,0,50,0,0
26650,-166.666666666667,4,2,0,55,0,0
30459,-117.647058823529,4,2,0,55,0,0
34269,-133.333333333333,4,2,0,55,0,0
38078,-111.111111111111,4,2,0,60,0,0
52840,-66.6666666666667,4,2,0,85,0,0
53317,-100,4,2,0,85,0,0
68078,-333.333333333333,4,2,0,85,0,0
68555,-66.6666666666667,4,2,0,100,0,1
72126,-50,4,2,0,100,0,1
72721,-66.6666666666667,4,2,0,100,0,1
75221,-133.333333333333,4,2,0,100,0,1
76174,-50,4,2,0,100,0,1
76650,-66.6666666666667,4,2,0,100,0,1
81888,-100,4,2,0,60,0,1
82840,-80,4,2,0,60,0,1
83078,-66.6666666666667,4,2,0,70,0,1
83317,-57.1428571428571,4,2,0,100,0,1
83793,-100,4,2,0,100,0,1
84269,-66.6666666666667,4,2,0,100,0,1
91412,-50,4,2,0,100,0,1
91888,-66.6666666666667,4,2,0,100,0,1
97126,-66.6666666666667,4,2,0,70,0,0
99031,-100,4,2,0,60,0,0
106650,-100,4,2,0,60,0,0
117602,-66.6666666666667,4,2,0,65,0,0
118078,-100,4,2,0,65,0,0
121412,-66.6666666666667,4,2,0,65,0,0
121888,-100,4,2,0,65,0,0
125221,-66.6666666666667,4,2,0,65,0,0
125697,-100,4,2,0,65,0,0
129031,-66.6666666666667,4,2,0,65,0,0
137126,-100,4,2,0,82,0,0
144269,-66.6666666666667,4,2,0,82,0,0
144745,-66.6666666666667,4,2,0,100,0,1
148317,-50,4,2,0,100,0,1
149031,-66.6666666666667,4,2,0,100,0,1
151412,-100,4,2,0,100,0,1
152364,-50,4,2,0,100,0,1
152840,-66.6666666666667,4,2,0,100,0,1
158078,-66.6666666666667,4,2,0,70,0,1
159983,-50,4,2,0,100,0,1
160459,-66.6666666666667,4,2,0,100,0,1
167602,-50,4,2,0,80,0,1
168078,-66.6666666666667,4,2,0,100,0,1
173317,-133.333333333333,4,2,0,70,0,1
174269,-100,4,2,0,100,0,1
174507,-66.6666666666667,4,2,0,70,0,1
174745,-50,4,2,0,100,0,1
175697,-66.6666666666667,4,2,0,100,0,1
179031,-50,4,2,0,100,0,1
179388,-66.6666666666667,4,2,0,100,0,1
180936,-66.6666666666667,4,2,0,80,0,1
182364,-133.333333333333,4,2,0,100,0,1
182840,-50,4,2,0,100,0,1
183317,-66.6666666666667,4,2,0,100,0,1
186650,-50,4,2,0,100,0,1
187007,-66.6666666666667,4,2,0,100,0,1
188555,-66.6666666666667,4,2,0,60,0,0

[Colours]
Combo1 : 255,255,74
Combo2 : 255,128,128
Combo3 : 124,208,32
Combo4 : 0,215,215

[HitObjects]
91,82,5698,6,0,P|79:129|74:206,1,113.999996520996,0|0,1:2|1:2,0:0:0:0:
66,204,6650,2,0,P|78:251|83:328,1,113.999996520996,0|0,1:2|1:2,0:0:0:0:
240,338,7602,6,0,P|220:299|214:218,1,113.999996520996,0|0,1:2|1:2,0:0:0:0:
204,217,8555,2,0,P|227:180|294:134,1,113.999996520996,0|0,1:2|1:2,0:0:0:0:
419,202,9507,6,0,L|436:333,1,113.999996520996,0|0,1:2|1:2,0:0:0:0:
419,322,10459,2,0,L|402:191,1,113.999996520996,0|0,1:2|1:2,0:0:0:0:
319,47,11412,6,0,P|323:90|319:120,1,56.9999982604981,0|0,1:2|1:2,0:0:0:0:
205,47,11888,2,0,P|201:90|205:120,1,56.9999982604981,0|0,1:2|1:2,0:0:0:0:
345,124,12364,2,0,P|343:157|351:194,1,56.9999982604981,0|0,1:2|1:2,0:0:0:0:
175,123,12840,2,0,P|177:156|169:193,1,56.9999982604981,0|0,1:2|1:2,0:0:0:0:
248,351,13317,5,0,1:2:0:0:
260,325,13436,1,0,1:2:0:0:
263,296,13555,1,0,1:2:0:0:
257,268,13674,1,0,1:2:0:0:
242,243,13793,1,0,1:2:0:0:
237,214,13912,1,0,1:2:0:0:
247,187,14031,1,0,3:2:0:0:
263,163,14150,1,0,3:2:0:0:
268,135,14269,2,0,P|273:113|271:95,3,28.4999991302491,0|0|0|0,3:2|3:2|3:2|3:2,3:3:0:0:
212,55,14745,6,0,L|70:68,1,142.500005435944,4|0,0:2|0:2,0:0:0:0:
14,135,15221,1,2,0:0:0:0:
32,266,22126,6,0,P|21:243|25:187,2,71.2500027179719,2|2|2,0:2|0:2|0:2,0:0:0:0:
103,327,22840,2,0,B|184:308|164:369|266:341,1,142.500005435944,6|10,0:2|0:2,0:0:0:0:
325,310,23555,1,2,0:2:0:0:
223,256,23793,2,0,P|231:221|229:162,1,71.2500027179719,2|2,0:2|0:2,0:0:0:0:
191,109,24269,1,10,0:2:0:0:
300,38,24507,6,0,P|350:41|448:70,1,142.500005435944,2|2,0:2|0:2,0:0:0:0:
383,150,25221,2,0,P|336:163|302:186,1,71.2500027179719,10|2,0:2|0:2,0:0:0:0:
439,305,25697,1,2,0:2:0:0:
485,165,25936,1,2,0:2:0:0:
343,270,26174,1,10,0:2:0:0:
512,361,26412,1,2,0:2:0:0:
325,258,26650,6,0,B|256:248|173:275|173:275|213:262|240:215,1,227.999993041992,2|0,0:2|0:0,0:0:0:0:
230,230,28078,1,10,0:2:0:0:
139,181,28317,6,0,B|343:195|343:195|297:183|279:137,1,284.999991302491,2|0,0:2|0:2,0:0:0:0:
381,89,29745,1,10,0:2:0:0:
250,35,29983,1,10,0:2:0:0:
411,92,30221,1,2,0:2:0:0:
206,154,30459,6,0,P|152:148|123:137,1,80.750001540184,2|0,1:2|0:0,0:0:0:0:
28,48,30936,2,0,P|66:35|106:33,1,80.750001540184,10|2,0:2|0:2,0:0:0:0:
219,161,31412,2,0,P|211:207|215:248,1,80.750001540184,2|2,1:2|0:2,0:0:0:0:
251,367,31888,1,10,0:2:0:0:
303,205,32126,1,2,0:2:0:0:
239,384,32364,6,0,P|238:332|248:292,1,80.750001540184,2|2,1:2|0:2,0:0:0:0:
312,117,32840,2,0,P|317:167|306:212,1,80.750001540184,10|2,0:2|0:2,0:0:0:0:
171,310,33317,1,2,1:2:0:0:
230,151,33555,1,2,0:2:0:0:
183,332,33793,1,10,0:2:0:0:
89,164,34031,1,2,0:2:0:0:
100,374,34269,6,0,B|75:352|43:354|43:354|97:309|191:319|272:381,1,285.000010871888,2|0,1:2|1:2,0:0:0:0:
179,337,35697,1,10,0:2:0:0:
300,231,35936,1,2,0:2:0:0:
264,372,36174,6,0,B|225:266|305:278|252:146,1,213.750008153916,0|0,1:2|0:2,0:0:0:0:
214,100,37126,1,0,0:2:0:0:
422,92,37364,1,8,0:2:0:0:
266,14,37602,1,10,0:2:0:0:
337,128,37840,1,0,0:2:0:0:
178,191,38078,6,0,P|132:183|88:155,1,85.4999973907472,0|2,1:2|0:2,0:0:0:0:
245,290,38555,2,0,P|291:282|335:254,1,85.4999973907472,10|0,0:2|0:2,0:0:0:0:
346,254,38912,2,0,P|353:285|349:317,1,42.7499986953736,2|0,0:2|1:2,0:0:0:0:
440,372,39150,2,0,P|428:314|435:270,1,85.4999973907472,2|2,0:2|0:2,0:0:0:0:
443,267,39507,2,0,P|444:224|433:183,1,85.4999973907472,10|2,0:2|0:2,0:0:0:0:
322,102,39983,5,2,1:2:0:0:
492,64,40221,1,2,0:2:0:0:
309,120,40459,2,0,P|251:114|209:93,1,85.4999973907472,8|0,0:2|0:2,0:0:0:0:
200,85,40817,2,0,P|196:108|199:140,1,42.7499986953736,2|0,0:2|1:2,0:0:0:0:
136,202,41055,2,0,L|41:194,1,85.4999973907472,2|2,0:2|0:2,0:0:0:0:
33,206,41412,1,10,0:2:0:0:
250,189,41650,1,2,0:2:0:0:
195,360,41888,6,0,P|181:307|186:266,1,85.4999973907472,0|2,1:2|0:2,0:0:0:0:
336,181,42364,2,0,P|337:223|324:264,1,85.4999973907472,10|0,0:2|0:2,0:0:0:0:
317,289,42721,2,0,P|328:290|364:281,1,42.7499986953736,2|0,0:2|1:2,0:0:0:0:
452,332,42959,2,0,P|442:281|452:235,1,85.4999973907472,2|2,0:2|0:2,0:0:0:0:
464,219,43317,2,0,P|468:176|459:135,1,85.4999973907472,10|2,0:2|0:2,0:0:0:0:
358,33,43793,5,2,1:2:0:0:
317,197,44031,1,2,0:2:0:0:
345,25,44269,2,0,P|295:25|232:55,1,85.4999973907472,8|0,0:2|0:2,0:0:0:0:
242,50,44626,2,0,P|229:25|227:2,1,42.7499986953736,2|0,0:2|1:2,0:0:0:0:
149,79,44864,1,2,0:2:0:0:
149,79,44983,2,0,L|139:148,1,42.7499986953736,8|2,0:2|0:2,0:0:0:0:
72,171,45221,2,0,L|82:255,1,85.4999973907472,10|2,0:2|0:2,0:0:0:0:
192,353,45697,6,0,P|200:308|186:253,1,85.4999973907472,0|2,1:2|0:2,0:0:0:0:
278,156,46174,2,0,P|273:200|285:252,1,85.4999973907472,10|0,0:2|0:2,0:0:0:0:
290,262,46531,1,2,0:2:0:0:
299,285,46650,2,0,P|304:329|292:381,1,85.4999973907472,0|0,1:2|0:2,0:0:0:0:
378,201,47126,2,0,P|373:157|385:105,1,85.4999973907472,10|2,0:2|0:2,0:0:0:0:
485,295,47602,6,0,L|394:285,1,85.4999973907472,2|2,1:2|0:2,0:0:0:0:
280,240,48078,2,0,L|189:250,1,85.4999973907472,8|0,0:2|0:2,0:0:0:0:
176,262,48436,1,2,0:2:0:0:
156,273,48555,2,0,L|65:263,1,85.4999973907472,0|0,1:2|0:2,0:0:0:0:
21,147,49031,2,0,L|112:137,1,85.4999973907472,10|2,0:2|0:2,0:0:0:0:
197,33,49507,6,0,P|193:85|207:134,1,85.4999973907472,0|2,1:2|0:2,0:0:0:0:
296,267,49983,2,0,P|300:215|286:166,1,85.4999973907472,10|0,0:2|0:2,0:0:0:0:
284,160,50340,1,2,0:2:0:0:
270,140,50459,2,0,P|322:144|371:130,1,85.4999973907472,0|0,1:2|0:2,0:0:0:0:
488,218,50936,2,0,P|446:210|404:215,1,85.4999973907472,10|2,0:2|0:2,0:0:0:0:
288,352,51412,6,0,L|298:249,1,85.4999973907472,2|2,1:2|0:2,0:0:0:0:
169,316,51888,2,0,L|159:213,1,85.4999973907472,8|0,0:2|0:2,0:0:0:0:
159,206,52245,1,2,0:2:0:0:
156,181,52364,1,0,1:2:0:0:
41,91,52602,1,8,0:2:0:0:
204,35,52840,6,0,L|432:64,1,213.750008153916,4|0,0:2|0:0,0:0:0:0:
440,80,53317,5,6,0:2:0:0:
350,226,53555,1,0,0:2:0:0:
495,157,53793,2,0,L|373:162,1,95,10|2,0:2|0:2,0:0:0:0:
197,214,54269,2,0,P|251:234|281:277,1,95,10|2,0:2|0:2,0:0:0:0:
287,285,54626,1,2,0:2:0:0:
290,311,54745,2,0,P|257:345|212:358,1,95,10|0,0:2|0:2,0:0:0:0:
42,252,55221,5,10,0:2:0:0:
100,363,55459,1,0,0:2:0:0:
165,227,55697,2,0,L|170:120,1,95,10|2,0:2|0:2,0:0:0:0:
48,15,56174,2,0,P|23:63|42:119,1,95,10|2,0:2|0:2,0:0:0:0:
48,121,56531,1,2,0:2:0:0:
72,132,56650,2,0,L|189:122,1,95,10|0,0:2|0:2,0:0:0:0:
334,65,57126,5,10,0:2:0:0:
203,13,57364,1,0,0:2:0:0:
285,163,57602,2,0,P|334:177|400:170,1,95,10|2,0:2|0:2,0:0:0:0:
493,291,58078,2,0,P|427:266|381:264,1,95,10|2,0:2|0:2,0:0:0:0:
376,267,58436,1,2,0:2:0:0:
349,272,58555,2,0,L|363:382,1,95,10|2,0:2|0:2,0:0:0:0:
249,201,59031,5,10,0:2:0:0:
202,328,59269,1,2,0:2:0:0:
104,191,59507,2,0,P|94:148|100:80,1,95,8|2,0:0|0:2,0:0:0:0:
268,23,59983,1,10,0:2:0:0:
194,154,60221,1,10,0:2:0:0:
194,154,60340,1,2,0:2:0:0:
194,154,60459,1,8,0:0:0:0:
143,6,60697,1,2,0:2:0:0:
294,106,60936,6,0,P|325:117|347:131,3,47.5,6|0|2|0,0:2|0:0|0:2|0:0,0:0:0:0:
398,191,61412,2,0,P|367:202|345:216,3,47.5,10|2|2|2,0:2|0:2|0:2|0:2,0:0:0:0:
313,276,61888,6,0,L|259:270,1,47.5,10|2,0:2|0:2,0:0:0:0:
193,236,62126,2,0,L|139:242,1,47.5,2|2,0:2|0:2,0:0:0:0:
318,281,62364,2,0,L|264:275,1,47.5,10|2,0:2|0:2,0:0:0:0:
198,241,62602,2,0,L|144:247,1,47.5,2|2,0:2|0:2,0:0:0:0:
55,301,62840,6,0,P|52:324|57:368,3,47.5,10|2|2|2,0:2|0:2|0:2|0:2,0:0:0:0:
3,233,63317,2,0,P|0:210|5:166,3,47.5,10|2|0|2,0:2|0:2|0:2|0:2,0:0:0:0:
73,93,63793,5,10,0:2:0:0:
96,80,63912,1,2,0:2:0:0:
123,79,64031,1,2,0:2:0:0:
148,89,64150,1,2,0:2:0:0:
194,117,64269,1,10,0:2:0:0:
219,127,64388,1,2,0:2:0:0:
246,126,64507,1,2,0:2:0:0:
269,113,64626,1,2,0:2:0:0:
311,81,64745,6,0,L|306:41,6,23.75,10|0|2|0|0|0|2,0:2|0:0|0:2|0:0|0:2|0:0|0:2,0:0:0:0:
385,123,65221,2,0,L|417:98,6,23.75,10|0|0|0|2|0|2,0:2|0:0|0:2|0:0|0:2|0:0|0:2,0:0:0:0:
398,209,65697,2,0,L|435:224,6,23.75,10|0|2|0|2|0|2,0:2|0:0|0:2|0:0|0:2|0:0|0:2,0:0:0:0:
324,252,66173,2,0,L|329:291,6,23.75,10|0|2|0|2|0|2,0:2|0:0|0:2|0:0|0:2|0:0|0:2,0:0:0:0:
250,199,66650,5,8,0:2:0:0:
217,210,66769,1,8,0:2:0:0:
86,310,67007,1,8,0:2:0:0:
39,294,67126,1,8,0:2:0:0:
201,359,67364,5,8,0:2:0:0:
277,339,67483,1,2,0:3:0:0:
151,28,67840,1,8,3:2:0:0:
151,28,68078,6,0,L|146:80,1,42.7499986953736,4|0,1:2|0:2,0:0:0:0:
69,109,68555,6,0,B|218:119|218:119|156:155,1,213.750008153916,6|0,1:2|0:2,0:0:0:0:
156,155,69031,1,10,0:2:0:0:
0,212,69269,1,2,0:2:0:0:
86,365,69507,2,0,B|105:320|105:320|84:216,1,142.500005435944,2|2,1:2|0:2,0:0:0:0:
156,155,69864,1,2,0:2:0:0:
156,155,69983,2,0,L|183:308,1,142.500005435944,10|2,0:2|0:2,0:0:0:0:
368,132,70459,6,0,P|291:117|238:187,1,142.500005435944,0|0,1:2|0:2,0:0:0:0:
274,265,70817,1,0,1:2:0:0:
318,199,70936,2,0,P|394:175|467:168,1,142.500005435944,10|2,0:2|0:2,0:0:0:0:
267,30,71412,6,0,P|265:70|246:100,1,71.2500027179719,2|0,1:2|0:0,0:0:0:0:
216,100,71650,2,0,P|180:118|144:116,1,71.2500027179719,0|0,0:2|0:0,0:0:0:0:
82,73,71888,1,10,0:2:0:0:
82,73,72126,6,0,L|94:185,1,95,2|2,0:2|0:2,0:0:0:0:
20,276,72364,6,0,B|112:244|104:340|202:311,1,190,6|0,1:2|0:2,0:0:0:0:
297,359,72721,1,2,0:2:0:0:
346,297,72840,2,0,P|418:305|474:355,1,142.500005435944,10|2,0:2|0:2,0:0:0:0:
485,368,73197,1,2,0:2:0:0:
503,249,73317,1,0,1:2:0:0:
497,239,73436,2,0,L|503:96,1,142.500005435944,2|2,0:2|0:2,0:0:0:0:
398,25,73793,2,0,B|429:71|429:71|425:183,1,142.500005435944,10|2,0:2|0:2,0:0:0:0:
200,74,74269,5,0,1:2:0:0:
200,74,74388,2,0,P|281:72|326:136,1,142.500005435944,2|2,0:2|0:2,0:0:0:0:
241,149,74745,2,0,P|160:151|115:87,1,142.500005435944,10|2,0:2|0:2,0:0:0:0:
21,321,75221,6,0,P|10:278|16:248,1,71.2500027179719,2|0,0:2|0:2,0:0:0:0:
14,252,75697,2,0,P|25:295|19:325,1,71.2500027179719,2|0,0:2|0:2,0:0:0:0:
21,320,76174,6,0,B|78:316|78:316|79:313|79:313|78:316|78:316|117:314|117:314|151:336|151:336|151:343|151:343|158:342|158:342|192:363|192:363|234:360|234:360|241:368|241:368|244:360|244:360|294:355,1,285,2|0,0:1|0:2,0:0:0:0:
272,223,76650,6,0,L|296:375,1,142.500005435944,6|2,1:2|0:2,0:0:0:0:
396,265,77126,1,2,1:2:0:0:
190,188,77364,2,0,L|176:104,1,71.2500027179719,2|2,0:2|0:2,0:0:0:0:
214,47,77602,2,0,L|187:205,1,142.500005435944,10|2,0:2|0:2,0:0:0:0:
103,309,78078,6,0,P|155:325|229:254,1,142.500005435944,0|0,1:2|0:2,0:0:0:0:
189,187,78436,1,0,1:2:0:0:
266,211,78555,2,0,L|419:230,1,142.500005435944,10|2,0:2|0:2,0:0:0:0:
462,44,79031,6,0,P|419:49|388:79,1,71.2500027179719,2|0,1:2|0:0,0:0:0:0:
360,137,79269,2,0,P|357:101|373:70,1,71.2500027179719,0|0,0:2|0:0,0:0:0:0:
474,53,79507,1,8,0:2:0:0:
312,9,79745,2,0,L|222:15,1,71.2500027179719,2|2,0:2|0:2,0:0:0:0:
105,86,79983,6,0,B|135:75|135:75|251:96,1,142.500005435944,2|0,1:2|0:2,0:0:0:0:
320,119,80340,1,2,0:2:0:0:
320,119,80459,2,0,L|279:265,1,142.500005435944,10|2,0:2|0:2,0:0:0:0:
278,265,80817,1,2,0:2:0:0:
304,367,80936,1,2,1:2:0:0:
312,379,81055,2,0,P|247:337|152:341,1,142.500005435944,2|2,0:2|0:2,0:0:0:0:
111,309,81412,2,0,P|108:349|127:387,1,71.2500027179719,10|0,0:2|0:2,0:0:0:0:
173,232,81650,1,2,0:2:0:0:
173,232,82007,6,0,L|49:215,1,95,2|2,0:2|0:2,0:0:0:0:
54,200,82364,2,0,L|6:208,1,47.5,2|0,0:2|0:0,0:0:0:0:
50,191,82602,2,0,L|2:199,1,47.5,2|0,0:2|0:0,0:0:0:0:
108,129,82840,6,0,L|184:136,1,59.375,0|0,3:2|3:2,0:0:0:0:
61,34,83078,6,0,L|-12:42,1,71.2500027179719,0|0,3:2|0:0,0:0:0:0:
190,152,83317,6,0,B|250:147|250:147|288:160|288:160|361:149|361:149|317:107|317:107|306:135,1,249.375002378225,12|0,0:2|0:0,0:0:0:0:
241,225,83793,6,0,P|230:291|262:369,1,142.5,2|0,1:2|0:0,0:0:0:0:
270,375,84269,6,0,P|284:322|380:275,1,142.500005435944,14|2,0:2|0:2,0:0:0:0:
458,135,84745,2,0,L|473:211,1,71.2500027179719,2|0,1:2|0:2,0:0:0:0:
467,311,84983,2,0,L|452:235,1,71.2500027179719,2|2,0:2|0:2,0:0:0:0:
464,126,85221,2,0,L|479:202,1,71.2500027179719,10|0,0:2|0:2,0:0:0:0:
461,319,85459,1,2,0:2:0:0:
335,176,85697,6,0,P|267:164|183:186,1,142.500005435944,0|0,1:2|0:2,0:0:0:0:
133,235,86055,1,0,1:2:0:0:
127,244,86174,2,0,L|139:341,1,71.2500027179719,10|0,0:2|0:2,0:0:0:0:
30,200,86412,2,0,L|18:103,1,71.2500027179719,2|2,0:2|0:2,0:0:0:0:
93,33,86650,5,2,1:2:0:0:
93,33,86888,2,0,L|174:42,1,71.2500027179719,0|0,0:2|0:2,0:0:0:0:
262,131,87126,2,0,L|181:140,1,71.2500027179719,10|0,0:2|0:2,0:0:0:0:
87,21,87364,2,0,L|168:30,1,71.2500027179719,2|2,0:2|0:2,0:0:0:0:
315,198,87602,6,0,B|371:192|371:192|401:204|401:204|468:198,1,142.500005435944,2|0,1:2|0:2,0:0:0:0:
502,277,87959,1,2,0:2:0:0:
445,347,88078,2,0,L|281:312,1,142.500005435944,10|2,0:2|0:2,0:0:0:0:
291,312,88436,1,2,0:2:0:0:
203,234,88555,1,2,1:2:0:0:
195,223,88674,2,0,P|178:293|208:367,1,142.500005435944,2|2,0:2|0:2,0:0:0:0:
93,384,89031,2,0,P|103:351|97:293,1,71.2500027179719,10|0,0:2|0:2,0:0:0:0:
12,257,89269,1,2,0:2:0:0:
89,108,89507,5,0,1:2:0:0:
98,118,89626,2,0,L|250:109,1,142.500005435944,2|2,0:2|0:2,0:0:0:0:
324,24,89983,2,0,L|239:36,1,71.2500027179719,10|0,0:2|0:2,0:0:0:0:
263,182,90221,2,0,L|333:191,1,71.2500027179719,2|0,0:2|0:2,0:0:0:0:
411,104,90459,1,2,0:2:0:0:
411,104,90697,1,0,0:2:0:0:
490,236,90936,1,2,0:2:0:0:
392,362,91174,1,0,0:2:0:0:
263,182,91412,6,0,B|219:164|219:164|184:172|184:172|182:168|182:168|182:173|182:173|157:180|157:180|124:169|124:169|119:171|119:171|118:166|118:166|91:153|91:153|70:125|70:125|47:112|47:112|45:116|45:116|47:112|47:112|15:93,1,285,2|0,0:1|0:2,0:0:0:0:
22,189,91888,2,0,L|38:347,1,142.500005435944,14|2,0:2|0:2,0:0:0:0:
129,247,92245,1,2,0:2:0:0:
129,247,92364,2,0,L|114:328,1,71.2500027179719,2|2,1:2|0:2,0:0:0:0:
219,371,92602,2,0,L|207:301,1,71.2500027179719,0|2,0:2|0:2,0:0:0:0:
118,232,92840,2,0,L|105:302,1,71.2500027179719,10|0,1:2|0:2,0:0:0:0:
231,380,93078,1,2,0:2:0:0:
282,188,93317,5,0,1:2:0:0:
293,178,93436,2,0,P|340:176|407:243,1,142.500005435944,2|2,0:2|0:2,0:0:0:0:
290,328,93793,2,0,P|275:242|283:182,1,142.500005435944,10|2,0:2|0:2,0:0:0:0:
385,86,94269,2,0,L|472:78,1,71.2500027179719,2|0,1:2|0:2,0:0:0:0:
286,25,94507,2,0,L|199:33,1,71.2500027179719,0|0,0:2|0:2,0:0:0:0:
396,97,94745,2,0,L|483:89,1,71.2500027179719,10|0,0:2|0:2,0:0:0:0:
276,16,94983,1,2,0:2:0:0:
202,43,95102,1,2,0:2:0:0:
130,12,95221,6,0,B|100:41|100:41|112:157,1,142.500005435944,2|0,1:2|0:2,0:0:0:0:
75,212,95578,1,2,0:2:0:0:
19,269,95697,2,0,P|73:292|152:226,1,142.500005435944,10|2,0:2|0:2,0:0:0:0:
149,239,96055,1,2,0:2:0:0:
213,171,96174,1,2,1:2:0:0:
227,183,96293,2,0,L|374:213,1,142.500005435944,2|2,0:2|0:2,0:0:0:0:
412,321,96650,2,0,L|347:282,1,71.2500027179719,10|0,0:2|0:2,0:0:0:0:
371,135,96888,2,0,L|441:128,1,71.2500027179719,2|0,0:2|0:2,0:0:0:0:
488,238,97126,5,8,0:2:0:0:
488,238,97483,2,0,L|523:245,2,35.625001358986,0|8|8,0:2|0:2|0:2,0:0:0:0:
416,202,97721,1,8,0:2:0:0:
344,232,97840,1,8,0:2:0:0:
273,195,97959,1,8,0:2:0:0:
273,195,98555,2,0,P|214:199|48:275,1,213.750008153916,2|0,0:1|0:2,0:0:0:0:
59,274,99031,6,0,P|54:312|60:382,1,95,6|0,1:2|0:0,0:0:0:0:
186,231,99507,1,0,0:0:0:0:
186,231,99745,2,0,P|186:200|180:172,1,47.5,0|0,0:0|0:0,0:0:0:0:
134,91,99983,1,8,0:2:0:0:
122,79,100102,2,0,L|244:92,1,95,0|0,0:0|0:0,0:0:0:0:
247,109,100459,2,0,L|358:100,1,95,0|0,0:0|1:2,0:0:0:0:
456,161,100936,5,0,1:2:0:0:
360,18,101174,1,0,0:0:0:0:
312,185,101412,1,0,0:0:0:0:
312,185,101650,2,0,L|319:242,1,47.5,0|0,0:0|0:0,0:0:0:0:
373,332,101888,1,8,0:2:0:0:
381,343,102007,2,0,P|319:334|282:344,1,95,0|0,0:0|0:0,0:0:0:0:
260,323,102364,2,0,P|198:332|161:322,1,95,0|0,0:0|0:0,0:0:0:0:
52,216,102840,5,4,1:2:0:0:
35,360,103078,1,0,0:0:0:0:
71,199,103317,1,0,0:0:0:0:
71,198,103555,2,0,L|68:138,1,47.5,0|0,0:0|0:0,0:0:0:0:
22,70,103793,1,8,0:2:0:0:
31,59,103912,2,0,P|104:56|140:86,1,95,0|0,0:0|0:0,0:0:0:0:
149,87,104269,2,0,P|192:103|238:93,1,95,0|0,0:0|1:2,0:0:0:0:
335,18,104745,5,0,1:2:0:0:
454,116,104983,1,0,0:0:0:0:
315,171,105221,1,0,0:0:0:0:
315,171,105459,2,0,L|247:183,1,47.5,0|0,0:0|0:0,0:0:0:0:
415,213,105697,1,8,0:2:0:0:
424,225,105817,2,0,P|437:285|419:343,1,95,0|0,0:0|0:0,0:0:0:0:
415,344,106174,2,0,P|368:338|322:351,1,95,0|0,0:0|0:0,0:0:0:0:
172,284,106650,5,4,1:2:0:0:
232,377,106888,1,2,0:2:0:0:
198,187,107126,2,0,P|190:136|190:77,1,95,10|0,0:2|0:2,0:0:0:0:
196,59,107483,2,0,P|170:62|145:70,1,47.5,2|0,0:2|1:2,0:0:0:0:
292,105,107721,2,0,P|348:111|413:99,1,95,2|2,0:2|0:2,0:0:0:0:
418,92,108078,2,0,P|419:146|403:207,1,95,10|2,0:2|0:2,0:0:0:0:
355,338,108555,5,2,1:2:0:0:
493,289,108793,1,2,0:2:0:0:
340,253,109031,2,0,P|292:263|239:287,1,95,8|0,0:2|0:2,0:0:0:0:
221,295,109388,2,0,P|212:272|212:248,1,47.5,2|0,0:2|1:2,0:0:0:0:
245,156,109626,1,2,0:2:0:0:
245,156,109745,2,0,P|244:132|235:110,1,47.5,8|2,0:2|0:2,0:0:0:0:
74,164,109983,2,0,L|173:180,1,95,10|2,0:2|0:2,0:0:0:0:
309,42,110459,5,4,1:2:0:0:
155,85,110697,1,2,0:2:0:0:
342,124,110936,2,0,P|401:127|460:141,1,95,10|0,0:2|0:2,0:0:0:0:
466,143,111293,2,0,P|463:122|456:95,1,47.5,2|0,0:2|1:2,0:0:0:0:
363,212,111531,2,0,P|368:266|387:309,1,95,2|2,0:2|0:2,0:0:0:0:
402,335,111888,2,0,P|340:339|308:325,1,95,10|2,0:2|0:2,0:0:0:0:
213,228,112364,5,2,1:2:0:0:
143,350,112602,1,2,0:2:0:0:
237,221,112840,2,0,P|231:167|211:120,1,95,8|0,0:2|0:2,0:0:0:0:
196,97,113197,2,0,P|210:96|246:105,1,47.5,2|0,0:2|1:2,0:0:0:0:
120,36,113436,1,2,0:2:0:0:
120,36,113555,2,0,P|97:29|73:29,1,47.5,8|2,0:2|0:2,0:0:0:0:
17,145,113793,2,0,P|77:139|127:115,1,95,10|2,0:2|0:2,0:0:0:0:
284,31,114269,6,0,L|278:148,1,95,6|2,1:2|0:2,0:0:0:0:
359,253,114745,2,0,L|354:158,1,95,10|2,0:2|0:2,0:0:0:0:
372,127,115102,1,0,0:0:0:0:
372,127,115221,1,2,1:2:0:0:
484,208,115459,2,0,L|414:201,1,47.5,2|0,0:2|0:0,0:0:0:0:
359,253,115697,2,0,L|289:260,1,47.5,10|0,0:2|0:0,0:0:0:0:
231,214,115936,1,2,0:2:0:0:
134,338,116174,5,0,1:2:0:0:
134,338,116412,2,0,P|133:307|139:280,1,47.5,2|0,0:2|0:0,0:0:0:0:
65,232,116650,2,0,P|69:181|57:130,1,95,10|2,0:2|0:2,0:0:0:0:
37,112,117007,1,0,0:0:0:0:
37,112,117126,1,2,1:2:0:0:
124,25,117364,1,10,0:2:0:0:
198,130,117602,6,0,B|306:97|298:178|410:156,1,213.750008153916,14|0,0:2|0:0,0:0:0:0:
438,149,118078,6,0,P|429:218|440:270,1,95,2|0,1:2|0:2,0:0:0:0:
352,350,118555,2,0,P|359:291|352:237,1,95,10|0,0:2|0:2,0:0:0:0:
343,224,118912,2,0,P|311:222|284:234,1,47.5,2|0,0:2|1:2,0:0:0:0:
204,291,119150,2,0,P|154:288|101:256,1,95,2|2,0:2|0:2,0:0:0:0:
91,239,119507,2,0,P|41:242|-12:274,1,95,10|2,0:2|0:2,0:0:0:0:
188,172,119983,5,2,1:2:0:0:
61,111,120221,1,2,0:2:0:0:
209,71,120459,2,0,P|268:85|320:88,1,95,10|0,0:2|0:2,0:0:0:0:
333,84,120817,2,0,P|328:114|315:138,1,47.5,2|0,0:2|1:2,0:0:0:0:
430,42,121055,1,2,0:2:0:0:
430,42,121174,2,0,P|435:72|448:96,1,47.5,10|0,0:2|0:0,0:0:0:0:
512,186,121412,6,0,B|413:155|417:250|300:209,1,213.750008153916,14|0,0:2|0:0,0:0:0:0:
271,227,121888,6,0,P|218:237|173:259,1,95,6|2,1:2|0:2,0:0:0:0:
80,358,122364,2,0,P|98:305|92:260,1,95,10|0,0:2|0:2,0:0:0:0:
81,232,122721,2,0,P|51:247|36:269,1,47.5,0|2,0:0|1:2,0:0:0:0:
142,138,122959,2,0,P|194:146|257:138,1,95,0|0,0:0|0:0,0:0:0:0:
272,154,123317,2,0,P|324:146|387:154,1,95,10|2,0:2|0:2,0:0:0:0:
459,234,123793,5,0,1:2:0:0:
354,307,124031,1,2,0:2:0:0:
383,153,124269,2,0,P|393:98|384:38,1,95,10|2,0:2|0:2,0:0:0:0:
374,29,124626,1,0,0:0:0:0:
374,29,124745,1,2,1:2:0:0:
254,81,124983,2,0,L|265:135,1,47.5,10|0,0:2|0:0,0:0:0:0:
209,223,125221,6,0,B|108:193|108:293|-11:248,1,213.750008153916,14|0,0:2|0:0,0:0:0:0:
49,174,125697,6,0,P|60:111|59:52,1,95,0|0,1:2|1:2,0:0:0:0:
200,243,126174,2,0,P|202:290|211:336,1,95,8|0,1:2|1:2,0:0:0:0:
290,309,126531,1,0,0:0:0:0:
303,299,126650,2,0,P|356:308|403:335,1,95,0|0,1:2|1:2,0:0:0:0:
498,293,127007,1,0,3:2:0:0:
485,283,127126,2,0,P|438:289|395:310,1,95,8|0,1:2|1:2,0:0:0:0:
177,189,127602,5,0,1:2:0:0:
212,165,127721,1,0,1:2:0:0:
254,159,127840,1,0,1:2:0:0:
295,170,127959,1,0,1:2:0:0:
331,192,128078,1,0,1:2:0:0:
372,200,128197,1,0,1:2:0:0:
413,188,128317,1,0,3:2:0:0:
439,167,128436,1,0,3:2:0:0:
450,140,128555,2,0,P|442:118|438:79,1,47.5,0|0,3:2|3:2,3:3:0:0:
324,13,128793,2,0,P|316:35|312:74,1,47.5,0|0,3:2|3:2,0:0:0:0:
174,189,129031,6,0,B|18:172|18:172|58:224,1,213.750008153916,4|0,0:2|0:0,0:0:0:0:
64,233,129507,1,0,0:0:0:0:
36,221,137126,6,0,P|62:240|97:248,3,47.5,6|0|2|2,0:2|0:2|0:2|0:2,0:0:0:0:
165,163,137602,2,0,P|191:144|226:136,3,47.5,10|2|2|2,0:2|0:2|0:2|0:2,0:0:0:0:
297,222,138078,2,0,L|290:275,1,47.5,10|0,0:2|0:2,0:0:0:0:
401,174,138317,1,2,0:2:0:0:
401,174,138436,2,0,L|394:227,1,47.5,2|8,0:2|0:2,0:0:0:0:
282,237,138674,1,2,0:2:0:0:
282,237,138793,2,0,L|275:290,1,47.5,2|2,0:2|0:2,0:0:0:0:
406,361,139031,5,10,0:2:0:0:
441,347,139150,1,2,0:2:0:0:
467,319,139269,1,0,0:2:0:0:
480,283,139388,1,2,0:2:0:0:
475,245,139507,1,10,0:2:0:0:
450,216,139626,1,0,0:2:0:0:
420,191,139745,1,2,0:2:0:0:
404,156,139864,1,2,0:2:0:0:
406,118,139983,2,0,P|410:97|409:60,3,47.5,10|2|2|0,0:2|0:2|0:2|0:2,0:0:0:0:
289,190,140459,2,0,P|285:169|286:132,3,47.5,10|2|0|0,0:2|0:2|0:2|0:2,0:0:0:0:
221,44,140936,6,0,L|226:4,6,23.75,10|0|2|0|2|0|0,0:2|0:0|0:2|0:0|0:2|0:0|0:2,0:0:0:0:
168,150,141412,2,0,L|165:126,6,23.75,10|0|0|0|2|0|0,0:2|0:0|0:2|0:0|0:2|0:0|0:2,0:0:0:0:
296,192,141888,2,0,L|301:152,6,23.75,10|0|2|0|2|0|2,0:2|0:0|0:2|0:0|0:2|0:0|0:2,0:0:0:0:
243,298,142364,2,0,L|240:274,6,23.75,10|0|2|0|2|0|2,0:2|0:0|0:2|0:0|0:2|0:0|0:2,0:0:0:0:
168,150,142840,5,8,0:2:0:0:
114,156,142959,1,8,0:2:0:0:
241,275,143198,1,8,0:2:0:0:
315,300,143317,1,8,0:2:0:0:
459,151,143555,5,8,0:2:0:0:
351,174,143674,2,0,L|342:67,1,95,2|0,0:3|3:2,0:0:0:0:
364,59,144031,2,0,L|368:112,1,47.5,8|0,3:2|0:0,0:0:0:0:
291,211,144269,6,0,B|191:172|182:259|76:222,1,213.750008153916,4|0,1:2|0:2,0:0:0:0:
128,142,144745,6,0,L|154:370,1,213.750008153916,6|0,1:2|0:2,0:0:0:0:
243,384,145221,2,0,L|255:302,1,71.2500027179719,10|0,0:2|0:2,0:0:0:0:
210,166,145459,2,0,L|218:237,1,71.2500027179719,2|0,0:2|0:2,0:0:0:0:
339,308,145697,2,0,P|407:288|433:207,1,142.500005435944,2|2,1:2|0:2,0:0:0:0:
369,121,146055,1,2,0:2:0:0:
307,164,146174,2,0,L|223:152,1,71.2500027179719,10|0,0:2|0:2,0:0:0:0:
433,80,146412,2,0,L|517:68,1,71.2500027179719,2|0,0:2|0:2,0:0:0:0:
259,20,146650,6,0,B|223:10|223:10|117:33,1,142.500005435944,0|0,1:2|0:2,0:0:0:0:
34,93,147007,1,0,1:2:0:0:
44,106,147126,2,0,L|34:193,1,71.2500027179719,10|0,0:2|0:2,0:0:0:0:
99,323,147364,2,0,L|90:252,1,71.2500027179719,2|2,0:2|0:2,0:0:0:0:
214,94,147602,6,0,P|203:132|170:151,1,71.2500027179719,2|0,1:2|0:0,0:0:0:0:
327,209,147840,2,0,P|299:180|299:142,1,71.2500027179719,0|0,0:2|0:0,0:0:0:0:
170,249,148078,2,0,P|208:239|241:258,1,71.2500027179719,10|0,0:2|0:0,0:0:0:0:
320,354,148317,6,0,L|202:342,1,95,2|2,0:2|0:2,0:0:0:0:
456,303,148555,6,0,B|479:277|479:277|388:269|388:269|356:253|356:253|322:262|322:262|196:247,1,285,6|2,1:2|0:2,0:0:0:0:
101,331,149031,2,0,P|180:366|242:322,1,142.500005435944,10|2,0:2|0:2,0:0:0:0:
239,333,149388,1,2,0:2:0:0:
168,159,149507,1,0,1:2:0:0:
156,147,149626,2,0,L|169:305,1,142.500005435944,2|2,0:2|0:2,0:0:0:0:
31,361,149983,2,0,P|24:328|42:283,1,71.2500027179719,10|0,0:2|0:2,0:0:0:0:
78,150,150221,2,0,L|91:236,1,71.2500027179719,2|0,0:2|0:2,0:0:0:0:
241,263,150459,5,0,1:2:0:0:
254,252,150578,2,0,L|409:262,1,142.500005435944,2|2,0:2|0:2,0:0:0:0:
481,180,150936,2,0,L|402:186,1,71.2500027179719,10|0,0:2|0:2,0:0:0:0:
416,337,151174,2,0,L|487:342,1,71.2500027179719,2|0,0:2|0:2,0:0:0:0:
352,126,151412,6,0,P|326:174|345:237,1,95,2|0,0:2|0:2,0:0:0:0:
321,210,151888,2,0,P|318:163|342:123,1,95,2|0,0:2|0:2,0:0:0:0:
196,35,152364,6,0,B|230:25|230:25|224:71|224:71|154:46|154:46|128:50|128:50|103:40|103:40|16:45,1,285,2|0,0:1|0:2,0:0:0:0:
29,150,152840,6,0,P|80:133|107:103,1,71.2500027179719,6|0,1:2|0:2,0:0:0:0:
196,35,153078,2,0,P|225:55|259:62,1,71.2500027179719,2|0,0:2|0:2,0:0:0:0:
361,187,153317,2,0,L|194:161,1,142.500005435944,2|2,1:2|0:2,0:0:0:0:
122,234,153674,1,2,0:2:0:0:
185,282,153793,2,0,L|201:369,1,71.2500027179719,10|0,0:2|0:2,0:0:0:0:
62,183,154031,2,0,L|74:112,1,71.2500027179719,2|0,0:2|0:2,0:0:0:0:
214,24,154269,6,0,B|241:56|241:56|216:186,1,142.500005435944,0|0,1:2|0:2,0:0:0:0:
292,264,154626,1,0,1:2:0:0:
302,253,154745,2,0,L|293:165,1,71.2500027179719,10|0,0:2|0:2,0:0:0:0:
350,90,154983,2,0,L|362:42,2,35.625001358986,2|2|2,0:2|0:2|0:2,0:0:0:0:
484,157,155221,6,0,P|443:172|395:160,1,71.2500027179719,2|0,1:2|0:0,0:0:0:0:
283,203,155459,2,0,P|318:201|350:215,1,71.2500027179719,0|0,0:2|0:0,0:0:0:0:
491,261,155697,2,0,P|450:276|402:264,1,71.2500027179719,8|0,0:2|0:0,0:0:0:0:
313,355,155936,2,0,L|231:341,1,71.2500027179719,2|2,0:2|0:2,0:0:0:0:
96,226,156174,6,0,B|66:239|66:239|191:263,1,142.500005435944,2|0,1:2|0:2,0:0:0:0:
242,218,156531,1,2,0:2:0:0:
191,157,156650,2,0,L|203:81,1,71.2500027179719,10|0,0:2|0:2,0:0:0:0:
86,31,156888,2,0,L|97:101,1,71.2500027179719,2|2,0:2|0:2,0:0:0:0:
272,114,157126,1,2,1:2:0:0:
283,103,157245,2,0,P|282:59|197:2,1,142.500005435944,2|2,0:2|0:2,0:0:0:0:
148,156,157602,2,0,P|187:170|231:158,1,71.2500027179719,10|0,0:2|0:2,0:0:0:0:
371,71,157840,1,2,0:2:0:0:
371,71,158197,6,0,L|512:84,1,142.500005435944,2|2,0:2|0:2,0:0:0:0:
475,113,158555,2,0,L|383:105,1,71.2500027179719,2|0,0:2|0:0,0:0:0:0:
237,19,158793,2,0,L|329:27,1,71.2500027179719,2|0,0:2|0:0,0:0:0:0:
359,170,159031,6,0,P|355:209|327:239,1,71.2500027179719,0|0,3:2|3:2,0:0:0:0:
256,238,159269,2,0,P|259:203|280:175,1,71.2500027179719,0|0,3:2|0:0,0:0:0:0:
464,264,159507,2,0,P|388:269|329:223,1,142.500005435944,2|0,0:3|0:0,0:0:0:0:
6,66,159983,6,0,B|114:72|114:72|135:88|135:88|291:101,1,285,2|0,1:2|0:0,0:0:0:0:
386,10,160459,6,0,P|364:32|357:82,1,71.2500027179719,14|0,0:2|0:2,0:0:0:0:
415,228,160697,1,2,0:2:0:0:
429,150,160817,1,0,0:2:0:0:
444,73,160936,2,0,L|528:86,1,71.2500027179719,2|0,1:2|0:2,0:0:0:0:
402,239,161174,2,0,L|331:249,1,71.2500027179719,2|2,0:2|0:2,0:0:0:0:
434,58,161412,2,0,L|518:71,1,71.2500027179719,10|0,0:2|0:2,0:0:0:0:
318,260,161650,1,2,0:2:0:0:
160,100,161888,5,0,1:2:0:0:
108,158,162007,2,0,P|196:168|236:100,1,142.500005435944,0|0,0:0|1:2,0:0:0:0:
160,31,162364,2,0,P|153:74|167:112,1,71.2500027179719,10|0,0:2|0:2,0:0:0:0:
286,60,162602,2,0,P|304:54|329:54,2,35.625001358986,2|2|2,0:2|0:2|0:2,0:0:0:0:
182,202,162840,6,0,L|198:272,1,71.2500027179719,2|0,1:2|0:2,0:0:0:0:
304,384,163078,2,0,L|288:314,1,71.2500027179719,0|0,0:2|0:2,0:0:0:0:
340,227,163317,2,0,L|270:243,1,71.2500027179719,10|0,0:2|0:2,0:0:0:0:
151,362,163555,2,0,L|221:346,1,71.2500027179719,2|2,0:2|0:2,0:0:0:0:
418,227,163793,6,0,B|448:192|448:192|273:233,1,213.750008153916,2|2,1:2|0:2,0:0:0:0:
186,108,164269,2,0,P|180:156|197:190,1,71.2500027179719,10|0,0:2|0:2,0:0:0:0:
317,92,164507,1,2,0:2:0:0:
328,83,164626,1,2,0:2:0:0:
244,29,164745,1,2,1:2:0:0:
186,108,164864,2,0,L|15:96,1,142.500005435944,2|2,0:2|0:2,0:0:0:0:
71,250,165221,2,0,P|81:233|80:161,1,71.2500027179719,10|0,0:2|0:2,0:0:0:0:
24,19,165459,6,0,L|0:173,1,142.500005435944,2|0,0:2|1:2,0:0:0:0:
84,244,165817,2,0,L|60:398,1,142.500005435944,2|2,0:2|0:2,0:0:0:0:
161,330,166174,2,0,L|176:233,1,71.2500027179719,10|0,0:2|0:2,0:0:0:0:
10,165,166412,2,0,L|25:68,1,71.2500027179719,2|0,0:2|0:2,0:0:0:0:
170,27,166650,2,0,L|155:124,1,71.2500027179719,2|0,0:2|0:2,0:0:0:0:
279,212,166888,2,0,L|294:115,1,71.2500027179719,0|0,0:2|0:0,0:0:0:0:
446,34,167126,2,0,B|378:6|377:65|294:35,1,142.500005435944,2|0,0:2|0:2,0:0:0:0:
425,271,167602,6,0,B|431:293|431:293|431:297|431:297|434:300|434:300|447:338|447:338|452:290|452:290|459:273|459:273|454:258|454:258|461:204|461:204|472:183|472:183|475:121,1,285,2|0,0:1|0:2,0:0:0:0:
348,62,168078,2,0,L|367:148,1,71.2500027179719,6|0,1:2|0:2,0:0:0:0:
284,282,168317,1,2,0:2:0:0:
223,232,168436,1,2,0:2:0:0:
156,274,168555,2,0,P|144:303|147:357,1,71.2500027179719,2|2,1:2|0:2,0:0:0:0:
300,197,168793,2,0,P|299:161|287:128,1,71.2500027179719,0|2,0:2|0:2,0:0:0:0:
143,267,169031,2,0,P|131:296|134:350,1,71.2500027179719,10|0,0:2|0:2,0:0:0:0:
313,206,169269,1,2,0:2:0:0:
107,37,169507,6,0,L|81:190,1,142.500005435944,0|0,1:2|0:2,0:0:0:0:
126,355,169864,1,2,0:2:0:0:
172,291,169983,2,0,L|264:307,1,71.2500027179719,10|0,0:2|0:2,0:0:0:0:
373,366,170221,2,0,L|410:354,2,35.625001358986,2|2|2,0:2|0:2|0:2,0:0:0:0:
291,165,170459,6,0,L|274:248,1,71.2500027179719,2|0,1:2|0:2,0:0:0:0:
438,185,170697,2,0,L|421:268,1,71.2500027179719,0|0,0:2|0:2,0:0:0:0:
288,73,170936,2,0,L|271:156,1,71.2500027179719,10|0,0:2|0:2,0:0:0:0:
481,105,171174,2,0,L|464:188,1,71.2500027179719,2|2,0:2|0:2,0:0:0:0:
299,313,171412,6,0,P|250:300|165:354,1,142.500005435944,2|0,1:2|0:2,0:0:0:0:
80,218,171769,1,2,0:2:0:0:
12,258,171888,2,0,P|0:221|16:171,1,71.2500027179719,10|0,0:2|0:2,0:0:0:0:
148,178,172126,2,0,P|160:215|144:265,1,71.2500027179719,2|2,0:2|0:2,0:0:0:0:
214,86,172364,1,2,1:2:0:0:
278,130,172483,2,0,P|347:134|423:60,1,142.500005435944,2|2,0:2|0:2,0:0:0:0:
485,142,172840,2,0,P|455:173|420:182,1,71.2500027179719,10|0,0:2|0:2,0:0:0:0:
330,49,173078,2,0,P|360:18|395:9,1,71.2500027179719,2|0,0:2|0:0,0:0:0:0:
386,9,173436,6,0,L|476:16,1,71.2500027179719,2|2,0:2|0:2,0:0:0:0:
392,19,173793,2,0,L|437:22,1,35.625001358986,2|0,0:2|0:0,0:0:0:0:
255,87,174031,2,0,L|209:83,1,35.625001358986,2|0,0:2|0:0,0:0:0:0:
381,210,174269,6,0,L|374:154,1,47.5,2|2,0:2|0:2,0:0:0:0:
201,266,174507,6,0,L|188:347,1,71.2500027179719,2|0,0:2|0:0,0:0:0:0:
104,98,174745,6,0,B|83:55|94:7|94:7|55:95|53:149|75:225,1,285,2|0,0:3|0:0,0:0:0:0:
187,224,175221,6,0,B|112:191|89:272|4:228,1,190,6|0,1:2|0:2,0:0:0:0:
378,351,175697,1,14,0:2:0:0:
339,282,175817,1,0,0:2:0:0:
346,204,175936,1,2,0:2:0:0:
405,153,176055,1,0,0:0:0:0:
483,154,176174,2,0,P|484:176|448:225,1,71.2500027179719,2|0,1:2|0:2,0:0:0:0:
306,85,176412,2,0,P|308:49|328:21,1,71.2500027179719,2|2,0:2|0:2,0:0:0:0:
490,162,176650,2,0,P|491:184|455:233,1,71.2500027179719,10|0,0:2|0:2,0:0:0:0:
298,78,176888,1,2,0:2:0:0:
153,257,177126,5,0,1:2:0:0:
221,218,177245,2,0,L|203:380,1,142.500005435944,0|0,0:0|1:2,0:0:0:0:
90,210,177602,2,0,L|66:134,1,71.2500027179719,10|0,0:2|0:2,0:0:0:0:
21,313,177840,2,0,L|8:360,2,35.625001358986,2|2|2,0:2|0:2|0:2,0:0:0:0:
162,127,178078,6,0,L|234:133,1,71.2500027179719,2|0,1:2|0:2,0:0:0:0:
380,44,178317,2,0,L|308:50,1,71.2500027179719,0|0,0:2|0:2,0:0:0:0:
136,212,178555,2,0,L|208:218,1,71.2500027179719,10|0,0:2|0:2,0:0:0:0:
431,125,178794,2,0,L|359:131,1,71.2500027179719,2|2,0:2|0:2,0:0:0:0:
134,323,179031,6,0,B|103:309|103:309|281:295,1,190,6|0,1:2|0:2,0:0:0:0:
387,261,179388,1,2,0:2:0:0:
399,337,179507,2,0,P|352:332|315:282,1,71.2500027179719,10|0,0:2|0:2,0:0:0:0:
311,169,179745,2,0,L|320:64,1,71.2500027179719,2|2,0:2|0:2,0:0:0:0:
210,8,179983,1,0,1:2:0:0:
152,61,180102,2,0,L|0:47,1,142.500005435944,2|2,0:2|0:2,0:0:0:0:
11,163,180459,2,0,L|90:150,1,71.2500027179719,10|0,0:2|0:2,0:0:0:0:
170,227,180697,2,0,L|249:214,1,71.2500027179719,2|0,0:2|0:2,0:0:0:0:
427,130,180936,5,0,1:2:0:0:
429,208,181055,2,0,P|368:180|361:85,1,142.500005435944,2|2,0:2|0:2,0:0:0:0:
504,26,181412,2,0,P|507:68|495:102,1,71.2500027179719,10|0,0:2|0:2,0:0:0:0:
335,97,181650,2,0,P|325:62|329:27,1,71.2500027179719,2|0,0:2|0:2,0:0:0:0:
441,230,181888,2,0,L|429:315,1,71.2500027179719,2|0,0:2|0:0,0:0:0:0:
282,252,182126,2,0,L|272:181,1,71.2500027179719,2|0,0:2|0:0,0:0:0:0:
172,336,182364,6,0,L|45:326,1,106.875004076958,2|0,0:2|0:0,0:0:0:0:
34,257,182840,6,0,B|49:289|49:289|134:293|134:293|151:301|151:301|225:305|225:305|214:349|249:383,1,285,6|0,0:2|0:0,0:0:0:0:
298,321,183317,1,6,1:2:0:0:
375,310,183436,1,0,0:2:0:0:
442,269,183555,1,2,0:2:0:0:
477,198,183674,1,2,0:2:0:0:
477,119,183793,2,0,P|447:124|410:167,1,71.2500027179719,2|2,1:2|0:2,0:0:0:0:
272,56,184031,2,0,P|302:61|339:104,1,71.2500027179719,0|2,0:2|0:2,0:0:0:0:
472,112,184269,2,0,P|442:117|405:160,1,71.2500027179719,10|0,0:2|0:2,0:0:0:0:
268,45,184507,1,2,0:2:0:0:
109,155,184745,5,2,1:2:0:0:
75,83,184864,2,0,P|133:78|184:174,1,142.500005435944,2|2,0:2|0:2,0:0:0:0:
74,222,185221,2,0,P|38:190|38:146,1,71.2500027179719,10|0,0:2|0:2,0:0:0:0:
200,144,185459,2,0,L|246:138,2,35.625001358986,2|2|2,0:2|0:2|0:2,0:0:0:0:
79,313,185697,6,0,L|7:297,1,71.2500027179719,2|0,1:2|0:2,0:0:0:0:
218,232,185936,2,0,L|292:227,1,71.2500027179719,2|0,0:2|0:2,0:0:0:0:
154,375,186174,2,0,L|170:273,1,71.2500027179719,10|0,0:2|0:2,0:0:0:0:
292,149,186412,2,0,L|303:219,1,71.2500027179719,2|2,0:2|0:2,0:0:0:0:
458,342,186650,6,0,B|427:379|427:379|440:230,1,190,6|0,1:2|0:2,0:0:0:0:
492,122,187007,1,2,0:2:0:0:
424,161,187126,2,0,L|340:147,1,71.2500027179719,10|0,0:2|0:2,0:0:0:0:
229,56,187364,2,0,L|145:70,1,71.2500027179719,2|2,0:2|0:2,0:0:0:0:
69,195,187602,1,2,1:2:0:0:
12,140,187721,2,0,L|160:159,1,142.500005435944,2|2,0:2|0:2,0:0:0:0:
207,262,188078,2,0,L|115:248,1,71.2500027179719,10|0,0:2|0:2,0:0:0:0:
166,68,188317,2,0,L|236:78,1,71.2500027179719,2|0,0:2|0:0,0:0:0:0:
256,192,188555,12,2,190459,0:2:0:0:
