osu file format v14

[General]
AudioFilename: audio.mp3
AudioLeadIn: 0
PreviewTime: 146786
Countdown: 0
SampleSet: Soft
StackLeniency: 0.7
Mode: 3
LetterboxInBreaks: 0
SpecialStyle: 0
WidescreenStoryboard: 0

[Editor]
Bookmarks: 8413,9604,24843,26747,41984,49604,57223,64842,72461,87699,102937,118175,125794,133413,141032,148651,163889,179127,201984,217223,232461,247699,254842,255021
DistanceSpacing: 0.8
BeatDivisor: 4
GridSize: 4
TimelineZoom: 1.4

[Metadata]
Title:Streamer
TitleUnicode:Streamer
Artist:Strawberry Prince
ArtistUnicode:すとぷり
Creator:Noch Einen
Version:Livecast
Source:
Tags:sutopuri ふるふるふるーつキャンペーン fruits campaign すとろべりーぷりんす ストロベリープリンス sutoroberi purinsu pop japanese jpop ころん さとみ ななもり るぅと ジェル 莉犬 Colon Satomi Nanamori Root Jel Rinu idol utaite
BeatmapID:2626220
BeatmapSetID:1263473

[Difficulty]
HPDrainRate:8
CircleSize:7
OverallDifficulty:8
ApproachRate:5
SliderMultiplier:1.4
SliderTickRate:1

[Events]
//Background and Video events
0,0,"terang anjer.jpg",0,0
//Break Periods
//Storyboard Layer 0 (Background)
//Storyboard Layer 1 (Fail)
//Storyboard Layer 2 (Pass)
//Storyboard Layer 3 (Foreground)
//Storyboard Layer 4 (Overlay)
//Storyboard Sound Samples

[TimingPoints]
2025,476.190476190476,4,2,1,70,1,0
9644,-100,4,2,1,70,0,1
24882,-100,4,2,1,60,0,0
57263,-100,4,2,1,40,0,0
64882,-100,4,2,1,50,0,0
68691,-100,4,2,1,60,0,0
72501,-100,4,2,1,70,0,1
87263,-100,4,2,1,70,0,0
87739,-100,4,2,1,70,0,1
102977,-100,4,2,1,60,0,0
118215,-100,4,2,1,50,0,0
133453,-100,4,2,1,40,0,0
141072,-100,4,2,1,50,0,0
144882,-100,4,2,1,60,0,0
148691,-100,4,2,1,70,0,1
163453,-100,4,2,1,70,0,0
163929,-100,4,2,1,70,0,1
179167,-111.111111111111,4,2,1,40,0,0
186786,-117.647058823529,4,2,1,40,0,0
194405,-108.695652173913,4,2,1,40,0,0
201548,-100,4,2,1,50,0,0
209644,-100,4,2,1,60,0,0
217263,-100,4,2,1,70,0,1
232024,-100,4,2,1,70,0,0
232501,-100,4,2,1,70,0,1
247739,-100,4,2,1,60,0,0

[HitObjects]
402,192,8453,5,2,0:0:0:0:
475,192,8453,1,0,0:0:0:0:
329,192,8572,1,2,0:0:0:0:
36,192,8691,1,2,0:0:0:0:
256,192,8691,1,0,0:0:0:0:
109,192,8929,1,2,0:0:0:0:
329,192,8929,1,0,0:0:0:0:
182,192,9167,1,2,0:0:0:0:
256,192,9167,1,0,0:0:0:70:LR_Clap Normal.wav
475,192,9167,1,0,0:0:0:0:
109,192,9405,1,2,0:0:0:0:
402,192,9405,1,0,0:0:0:0:
36,192,9644,128,2,9882:0:0:0:0:
256,192,9644,1,4,0:0:0:0:
329,192,9644,1,0,0:0:0:0:
402,192,9882,1,0,0:0:0:0:
109,192,9882,1,0,0:0:0:0:
182,192,10120,1,8,0:0:0:0:
475,192,10120,128,0,10358:0:0:0:0:
256,192,10358,1,0,0:0:0:0:
109,192,10596,1,2,0:0:0:0:
329,192,10596,1,0,0:0:0:0:
182,192,10834,1,0,0:0:0:0:
402,192,10953,1,0,0:0:0:0:
36,192,11072,1,8,0:0:0:0:
256,192,11072,1,0,0:0:0:0:
109,192,11310,1,0,0:0:0:0:
182,192,11310,1,0,0:0:0:0:
329,192,11548,1,2,0:0:0:0:
402,192,11548,1,0,0:0:0:0:
36,192,11786,1,0,0:0:0:0:
109,192,11786,1,0,0:0:0:0:
256,192,12024,1,8,0:0:0:0:
475,192,12024,1,0,0:0:0:0:
182,192,12263,1,0,0:0:0:0:
475,192,12382,1,0,0:0:0:0:
36,192,12501,1,2,0:0:0:0:
402,192,12501,1,0,0:0:0:0:
329,192,12620,1,0,0:0:0:0:
182,192,12739,1,0,0:0:0:0:
109,192,12977,1,8,0:0:0:0:
402,192,12977,1,0,0:0:0:0:
36,192,13215,1,0,0:0:0:0:
329,192,13215,1,0,0:0:0:0:
256,192,13453,1,2,0:0:0:0:
475,192,13453,1,0,0:0:0:0:
109,192,13572,1,0,0:0:0:0:
329,192,13691,1,0,0:0:0:0:
36,192,13929,1,8,0:0:0:0:
182,192,13929,1,0,0:0:0:0:
256,192,14167,1,0,0:0:0:0:
402,192,14286,1,0,0:0:0:0:
109,192,14405,1,2,0:0:0:0:
475,192,14405,1,0,0:0:0:0:
182,192,14524,1,0,0:0:0:0:
256,192,14644,1,0,0:0:0:0:
329,192,14763,1,0,0:0:0:0:
36,192,14882,1,8,0:0:0:0:
402,192,14882,1,0,0:0:0:0:
256,192,15120,1,0,0:0:0:0:
402,192,15358,1,2,0:0:0:0:
329,192,15358,1,0,0:0:0:0:
182,192,15477,1,0,0:0:0:0:
36,192,15596,1,0,0:0:0:0:
256,192,15834,1,8,0:0:0:0:
402,192,15834,1,0,0:0:0:0:
109,192,15953,1,0,0:0:0:0:
329,192,16072,1,0,0:0:0:0:
182,192,16191,1,0,0:0:0:0:
36,192,16310,128,2,16786:0:0:0:0:
475,192,16310,1,0,0:0:0:0:
402,192,16548,1,0,0:0:0:0:
109,192,16786,1,8,0:0:0:0:
256,192,16786,1,0,0:0:0:0:
402,192,17024,1,0,0:0:0:0:
475,192,17024,1,0,0:0:0:0:
36,192,17263,128,2,17501:0:0:0:0:
182,192,17263,1,0,0:0:0:0:
329,192,17263,1,0,0:0:0:0:
402,192,17501,1,0,0:0:0:0:
256,192,17739,1,8,0:0:0:0:
475,192,17739,128,0,17977:0:0:0:0:
182,192,17977,1,0,0:0:0:0:
109,192,18215,1,2,0:0:0:0:
402,192,18215,1,0,0:0:0:0:
256,192,18453,1,0,0:0:0:0:
36,192,18572,1,0,0:0:0:0:
182,192,18691,1,8,0:0:0:0:
475,192,18691,1,0,0:0:0:0:
256,192,18929,1,0,0:0:0:0:
402,192,18929,1,0,0:0:0:0:
36,192,19167,1,2,0:0:0:0:
109,192,19167,1,0,0:0:0:0:
329,192,19405,1,0,0:0:0:0:
475,192,19405,1,0,0:0:0:0:
256,192,19644,1,0,0:0:0:0:
182,192,19644,1,8,0:0:0:0:
329,192,19882,1,0,0:0:0:0:
109,192,20001,1,0,0:0:0:0:
36,192,20120,1,2,0:0:0:0:
256,192,20120,1,0,0:0:0:0:
402,192,20239,1,0,0:0:0:0:
182,192,20358,1,0,0:0:0:0:
329,192,20477,1,0,0:0:0:0:
36,192,20596,1,8,0:0:0:0:
475,192,20596,1,0,0:0:0:0:
109,192,20834,1,0,0:0:0:0:
402,192,20834,1,0,0:0:0:0:
256,192,21072,1,2,0:0:0:0:
475,192,21072,1,0,0:0:0:0:
329,192,21310,1,0,0:0:0:0:
182,192,21429,1,0,0:0:0:0:
36,192,21548,1,8,0:0:0:0:
475,192,21548,1,0,0:0:0:0:
36,192,21786,1,0,0:0:0:0:
182,192,21905,1,0,0:0:0:0:
329,192,22024,1,2,0:0:0:0:
475,192,22024,1,0,0:0:0:0:
36,192,22263,1,0,0:0:0:0:
256,192,22263,1,0,0:0:0:0:
109,192,22501,1,8,0:0:0:0:
329,192,22501,1,0,0:0:0:0:
402,192,22501,1,0,0:0:0:0:
182,192,22620,1,0,0:0:0:0:
256,192,22739,1,0,0:0:0:0:
182,192,22858,1,0,0:0:0:0:
109,192,22977,1,2,0:0:0:0:
402,192,22977,1,0,0:0:0:0:
329,192,23096,1,0,0:0:0:0:
256,192,23215,1,0,0:0:0:0:
329,192,23334,1,0,0:0:0:0:
402,192,23453,1,8,0:0:0:0:
475,192,23453,1,0,0:0:0:0:
256,192,23572,1,0,0:0:0:0:
109,192,23691,1,0,0:0:0:0:
256,192,23810,1,0,0:0:0:0:
402,192,23929,1,2,0:0:0:0:
36,192,23929,128,0,24167:0:0:0:0:
329,192,24167,1,0,0:0:0:0:
182,192,24167,128,0,24405:0:0:0:0:
256,192,24405,1,8,0:0:0:0:
36,192,24405,1,0,0:0:0:0:
475,192,24405,128,0,24882:0:0:0:0:
109,192,24882,1,2,0:0:0:0:
402,192,24882,1,0,0:0:0:0:
36,192,25001,1,2,0:0:0:0:
329,192,25001,1,0,0:0:0:0:
256,192,25120,1,0,0:0:0:0:
256,192,25358,1,0,0:0:0:0:
182,192,25596,1,2,0:0:0:0:
475,192,25596,1,0,0:0:0:0:
109,192,25715,1,2,0:0:0:0:
402,192,25715,1,0,0:0:0:0:
329,192,26072,1,2,0:0:0:0:
256,192,26191,1,2,0:0:0:0:
36,192,26310,1,2,0:0:0:0:
182,192,26310,1,0,0:0:0:70:LR_Clap Normal.wav
109,192,26548,1,2,0:0:0:0:
475,192,26548,1,0,0:0:0:0:
402,192,26667,1,0,0:0:0:0:
36,192,26786,1,2,0:0:0:0:
256,192,26786,1,4,0:0:0:0:
329,192,26786,1,0,0:0:0:0:
182,192,27024,1,0,0:0:0:0:
329,192,27144,1,0,0:0:0:0:
256,192,27263,1,8,0:0:0:0:
475,192,27263,1,0,0:0:0:0:
182,192,27382,1,0,0:0:0:0:
402,192,27580,1,0,0:0:0:0:
36,192,27739,1,2,0:0:0:0:
329,192,27739,1,0,0:0:0:0:
109,192,27858,1,0,0:0:0:0:
182,192,27977,1,0,0:0:0:0:
36,192,28215,1,8,0:0:0:0:
256,192,28215,1,0,0:0:0:0:
329,192,28453,1,0,0:0:0:0:
109,192,28691,1,2,0:0:0:0:
402,192,28691,1,0,0:0:0:0:
182,192,28929,1,0,0:0:0:0:
256,192,29048,1,0,0:0:0:0:
329,192,29167,1,8,0:0:0:0:
475,192,29167,1,0,0:0:0:0:
109,192,29286,1,0,0:0:0:0:
182,192,29405,1,0,0:0:0:0:
36,192,29524,1,0,0:0:0:0:
109,192,29644,1,2,0:0:0:0:
402,192,29644,1,0,0:0:0:0:
182,192,29882,1,0,0:0:0:0:
329,192,29882,1,0,0:0:0:0:
256,192,30120,1,8,0:0:0:0:
475,192,30120,1,0,0:0:0:0:
182,192,30358,1,0,0:0:0:0:
109,192,30596,1,2,0:0:0:0:
329,192,30596,1,0,0:0:0:0:
475,192,30834,1,0,0:0:0:0:
329,192,30953,1,0,0:0:0:0:
36,192,31072,1,8,0:0:0:0:
182,192,31072,1,0,0:0:0:0:
256,192,31310,1,0,0:0:0:0:
329,192,31429,1,0,0:0:0:0:
182,192,31548,1,2,0:0:0:0:
475,192,31548,1,0,0:0:0:0:
36,192,31786,1,0,0:0:0:0:
256,192,31786,1,0,0:0:0:0:
329,192,32024,1,8,0:0:0:0:
475,192,32024,1,0,0:0:0:0:
109,192,32144,1,0,0:0:0:0:
256,192,32263,1,0,0:0:0:0:
475,192,32501,1,2,0:0:0:0:
402,192,32501,1,0,0:0:0:0:
256,192,32620,1,0,0:0:0:0:
109,192,32739,1,0,0:0:0:0:
329,192,32858,1,0,0:0:0:0:
36,192,32977,1,8,0:0:0:0:
475,192,32977,1,0,0:0:0:0:
182,192,33096,1,0,0:0:0:0:
256,192,33215,1,0,0:0:0:0:
109,192,33334,1,0,0:0:0:0:
475,192,33453,1,2,0:0:0:0:
329,192,33453,1,0,0:0:0:0:
256,192,33572,1,0,0:0:0:0:
402,192,33691,1,0,0:0:0:0:
182,192,33810,1,0,0:0:0:0:
36,192,33929,1,8,0:0:0:0:
329,192,33929,128,0,34167:0:0:0:0:
182,192,34167,128,0,34405:0:0:0:0:
475,192,34167,1,0,0:0:0:0:
109,192,34405,1,2,0:0:0:0:
402,192,34405,1,0,0:0:0:0:
182,192,34644,128,0,34882:0:0:0:0:
475,192,34644,1,0,0:0:0:0:
36,192,34882,1,8,0:0:0:0:
329,192,34882,128,0,35120:0:0:0:0:
182,192,35120,1,0,0:0:0:0:
109,192,35239,1,0,0:0:0:0:
36,192,35358,1,2,0:0:0:0:
402,192,35358,128,0,35596:0:0:0:0:
256,192,35596,1,0,0:0:0:0:
109,192,35715,1,0,0:0:0:0:
329,192,35834,1,8,0:0:0:0:
475,192,35834,1,0,0:0:0:0:
36,192,36072,1,0,0:0:0:0:
256,192,36072,128,0,36310:0:0:0:0:
109,192,36310,128,2,36548:0:0:0:0:
402,192,36310,1,0,0:0:0:0:
329,192,36548,1,0,0:0:0:0:
256,192,36667,1,0,0:0:0:0:
182,192,36786,1,8,0:0:0:0:
475,192,36786,128,0,37024:0:0:0:0:
36,192,37024,1,0,0:0:0:0:
182,192,37144,1,0,0:0:0:0:
329,192,37263,1,2,0:0:0:0:
475,192,37263,1,0,0:0:0:0:
109,192,37501,1,0,0:0:0:0:
256,192,37620,1,0,0:0:0:0:
36,192,37739,1,8,0:0:0:0:
402,192,37739,1,0,0:0:0:0:
182,192,37977,1,0,0:0:0:0:
329,192,38096,1,0,0:0:0:0:
36,192,38215,1,2,0:0:0:0:
475,192,38215,128,8,38929:0:0:0:0:
182,192,38453,1,0,0:0:0:0:
36,192,38691,1,2,0:0:0:0:
109,192,38691,1,8,0:0:0:0:
329,192,38929,1,0,0:0:0:0:
182,192,39048,1,0,0:0:0:0:
36,192,39167,1,2,0:0:0:0:
475,192,39167,1,8,0:0:0:0:
182,192,39405,1,0,0:0:0:0:
329,192,39405,1,0,0:0:0:0:
402,192,39644,1,2,0:0:0:0:
475,192,39644,1,8,0:0:0:0:
256,192,39763,1,0,0:0:0:0:
109,192,39882,1,0,0:0:0:0:
329,192,40001,1,0,0:0:0:0:
182,192,40120,1,2,0:0:0:0:
475,192,40120,1,0,0:0:0:0:
402,192,40239,1,0,0:0:0:0:
329,192,40358,1,0,0:0:0:0:
109,192,40477,1,0,0:0:0:0:
36,192,40596,1,8,0:0:0:0:
256,192,40596,1,0,0:0:0:0:
402,192,40715,1,0,0:0:0:0:
182,192,40834,1,0,0:0:0:0:
329,192,40953,1,0,0:0:0:0:
36,192,41072,1,2,0:0:0:0:
109,192,41072,1,0,0:0:0:0:
182,192,41310,1,0,0:0:0:0:
329,192,41310,1,0,0:0:0:0:
402,192,41548,1,8,0:0:0:0:
475,192,41548,1,0,0:0:0:0:
329,192,41667,1,0,0:0:0:0:
256,192,41786,1,0,0:0:0:0:
36,192,42024,1,2,0:0:0:0:
182,192,42024,1,0,0:0:0:0:
256,192,42144,1,0,0:0:0:0:
329,192,42263,1,0,0:0:0:0:
36,192,42501,1,2,0:0:0:0:
182,192,42501,1,0,0:0:0:0:
329,192,42858,1,0,0:0:0:0:
36,192,42977,1,2,0:0:0:0:
182,192,42977,1,0,0:0:0:0:
256,192,43215,1,0,0:0:0:0:
402,192,43334,1,0,0:0:0:0:
36,192,43453,1,2,0:0:0:0:
182,192,43453,1,0,0:0:0:0:
256,192,43691,1,0,0:0:0:0:
329,192,43929,1,2,0:0:0:0:
475,192,43929,1,0,0:0:0:0:
182,192,44048,1,0,0:0:0:0:
36,192,44167,1,0,0:0:0:0:
109,192,44286,1,0,0:0:0:0:
329,192,44405,1,2,0:0:0:0:
475,192,44405,1,0,0:0:0:0:
256,192,44524,1,0,0:0:0:0:
182,192,44644,1,0,0:0:0:0:
109,192,44763,1,0,0:0:0:0:
329,192,44882,1,2,0:0:0:0:
475,192,44882,1,0,0:0:0:0:
36,192,45001,1,0,0:0:0:0:
182,192,45120,1,0,0:0:0:0:
256,192,45239,1,0,0:0:0:0:
329,192,45358,1,2,0:0:0:0:
475,192,45358,1,0,0:0:0:0:
182,192,45596,1,0,0:0:0:0:
256,192,45596,1,0,0:0:0:0:
36,192,45834,1,2,0:0:0:0:
109,192,45834,1,0,0:0:0:0:
256,192,45953,1,0,0:0:0:0:
402,192,46072,1,0,0:0:0:0:
36,192,46310,1,2,0:0:0:0:
109,192,46310,1,0,0:0:0:0:
329,192,46548,1,0,0:0:0:0:
475,192,46548,1,0,0:0:0:0:
36,192,46786,1,2,0:0:0:0:
109,192,46786,1,0,0:0:0:0:
256,192,47024,1,0,0:0:0:0:
402,192,47024,1,0,0:0:0:0:
36,192,47263,1,2,0:0:0:0:
109,192,47263,1,0,0:0:0:0:
329,192,47501,1,0,0:0:0:0:
182,192,47620,1,0,0:0:0:0:
402,192,47739,1,2,0:0:0:0:
475,192,47739,1,0,0:0:0:0:
109,192,47977,1,0,0:0:0:0:
256,192,47977,1,0,0:0:0:0:
402,192,48215,1,2,0:0:0:0:
475,192,48215,1,0,0:0:0:0:
109,192,48413,1,0,0:0:0:0:
256,192,48453,1,0,0:0:0:0:
402,192,48691,1,2,0:0:0:0:
475,192,48691,1,0,0:0:0:0:
256,192,48810,1,0,0:0:0:0:
109,192,48929,1,0,0:0:0:0:
36,192,49048,1,0,0:0:0:0:
402,192,49167,1,2,0:0:0:0:
475,192,49167,1,8,0:0:0:0:
256,192,49286,1,0,0:0:0:0:
182,192,49405,128,0,49644:0:0:0:0:
36,192,49644,1,2,0:0:0:0:
475,192,49644,1,0,0:0:0:0:
109,192,49644,1,0,0:0:0:0:
402,192,49763,1,0,0:0:0:0:
329,192,49882,1,0,0:0:0:0:
256,192,50001,1,0,0:0:0:0:
36,192,50120,1,8,0:0:0:0:
475,192,50120,1,0,0:0:0:0:
182,192,50239,1,0,0:0:0:0:
329,192,50358,1,0,0:0:0:0:
256,192,50477,1,0,0:0:0:0:
36,192,50596,1,2,0:0:0:0:
402,192,50596,1,0,0:0:0:0:
109,192,50715,1,0,0:0:0:0:
182,192,50834,1,0,0:0:0:0:
329,192,50953,1,0,0:0:0:0:
36,192,51072,1,8,0:0:0:0:
475,192,51072,1,0,0:0:0:0:
182,192,51191,1,0,0:0:0:0:
329,192,51310,1,0,0:0:0:0:
256,192,51429,1,0,0:0:0:0:
109,192,51548,1,2,0:0:0:0:
475,192,51548,1,0,0:0:0:0:
402,192,51667,1,0,0:0:0:0:
329,192,51786,1,0,0:0:0:0:
182,192,51905,1,0,0:0:0:0:
36,192,52024,1,8,0:0:0:0:
475,192,52024,1,0,0:0:0:0:
109,192,52144,1,0,0:0:0:0:
182,192,52263,1,0,0:0:0:0:
402,192,52501,1,2,0:0:0:0:
475,192,52501,1,0,0:0:0:0:
329,192,52620,1,0,0:0:0:0:
256,192,52739,1,0,0:0:0:0:
36,192,52858,1,0,0:0:0:0:
182,192,52977,1,8,0:0:0:0:
475,192,52977,1,0,0:0:0:0:
256,192,53096,1,0,0:0:0:0:
329,192,53215,1,0,0:0:0:0:
36,192,53453,1,2,0:0:0:0:
475,192,53453,1,0,0:0:0:0:
256,192,53691,1,0,0:0:0:0:
402,192,53691,1,0,0:0:0:0:
36,192,53929,1,8,0:0:0:0:
182,192,53929,1,0,0:0:0:0:
475,192,54167,1,0,0:0:0:0:
329,192,54207,1,0,0:0:0:0:
36,192,54405,1,2,0:0:0:0:
256,192,54405,1,0,0:0:0:0:
329,192,54524,1,0,0:0:0:0:
182,192,54644,1,0,0:0:0:0:
256,192,54763,1,0,0:0:0:0:
36,192,54882,1,8,0:0:0:0:
402,192,54882,1,0,0:0:0:0:
329,192,55001,1,0,0:0:0:0:
182,192,55120,1,0,0:0:0:0:
256,192,55358,1,8,0:0:0:0:
475,192,55358,1,2,0:0:0:0:
182,192,55517,1,0,0:0:0:0:
36,192,55517,1,0,0:0:0:0:
36,192,55715,1,0,0:0:0:0:
182,192,55834,1,8,0:0:0:0:
475,192,55834,1,2,0:0:0:0:
256,192,55953,1,0,0:0:0:0:
36,192,56072,1,2,0:0:0:0:
329,192,56072,1,8,0:0:0:0:
109,192,56310,1,8,0:0:0:0:
475,192,56310,1,2,0:0:0:0:
182,192,56429,1,0,0:0:0:0:
256,192,56548,1,2,0:0:0:0:
329,192,56548,1,8,0:0:0:0:
109,192,56786,128,2,56905:0:0:0:0:
475,192,56786,1,8,0:0:0:0:
182,192,56905,128,0,57024:0:0:0:0:
329,192,57024,128,2,57144:0:0:0:0:
402,192,57144,128,0,57263:0:0:0:0:
36,192,57263,1,2,0:0:0:0:
182,192,57263,1,0,0:0:0:70:LR_Clap Normal.wav
256,192,57263,1,0,0:0:0:0:
329,192,57501,1,0,0:0:0:0:
475,192,57620,1,0,0:0:0:0:
36,192,57739,1,0,0:0:0:70:LR_Clap Normal.wav
182,192,57739,1,0,0:0:0:0:
402,192,57977,1,0,0:0:0:0:
36,192,58215,1,0,0:0:0:70:LR_Clap Normal.wav
182,192,58215,1,0,0:0:0:0:
475,192,58215,1,0,0:0:0:0:
329,192,58334,1,0,0:0:0:0:
36,192,58691,1,0,0:0:0:70:LR_Clap Normal.wav
182,192,58691,1,0,0:0:0:0:
256,192,58691,1,0,0:0:0:0:
36,192,58929,1,2,0:0:0:0:
475,192,58929,1,0,0:0:0:0:
182,192,59048,1,0,0:0:0:0:
329,192,59167,1,2,0:0:0:0:
475,192,59167,1,0,0:0:0:70:LR_Clap Normal.wav
109,192,59286,1,0,0:0:0:0:
256,192,59405,1,0,0:0:0:0:
182,192,59644,1,0,0:0:0:70:LR_Clap Normal.wav
329,192,59644,1,0,0:0:0:0:
475,192,59644,1,0,0:0:0:0:
36,192,59763,1,0,0:0:0:0:
109,192,60001,1,0,0:0:0:0:
256,192,60120,1,0,0:0:0:70:LR_Clap Normal.wav
329,192,60120,1,0,0:0:0:0:
475,192,60120,1,0,0:0:0:0:
182,192,60358,1,0,0:0:0:0:
109,192,60596,1,0,0:0:0:70:LR_Clap Normal.wav
329,192,60596,1,0,0:0:0:0:
475,192,60596,1,0,0:0:0:0:
36,192,60834,1,2,0:0:0:0:
256,192,60834,1,0,0:0:0:0:
36,192,61072,1,2,0:0:0:0:
182,192,61072,1,0,0:0:0:70:LR_Clap Normal.wav
475,192,61072,1,0,0:0:0:0:
256,192,61310,1,0,0:0:0:0:
402,192,61429,1,0,0:0:0:0:
36,192,61548,1,0,0:0:0:70:LR_Clap Normal.wav
182,192,61548,1,0,0:0:0:0:
256,192,61786,1,0,0:0:0:0:
329,192,61786,1,0,0:0:0:0:
36,192,62024,1,0,0:0:0:70:LR_Clap Normal.wav
182,192,62024,1,0,0:0:0:0:
475,192,62024,1,0,0:0:0:0:
402,192,62144,1,0,0:0:0:0:
36,192,62501,1,0,0:0:0:70:LR_Clap Normal.wav
182,192,62501,1,0,0:0:0:0:
256,192,62501,1,0,0:0:0:0:
109,192,62739,1,2,0:0:0:0:
475,192,62739,1,0,0:0:0:0:
182,192,62858,1,0,0:0:0:0:
329,192,62977,1,2,0:0:0:0:
475,192,62977,1,0,0:0:0:70:LR_Clap Normal.wav
36,192,63215,1,0,0:0:0:0:
256,192,63215,1,0,0:0:0:0:
182,192,63453,1,0,0:0:0:70:LR_Clap Normal.wav
329,192,63453,1,0,0:0:0:0:
475,192,63453,1,0,0:0:0:0:
109,192,63572,1,0,0:0:0:0:
182,192,63810,1,0,0:0:0:0:
36,192,63929,1,0,0:0:0:70:LR_Clap Normal.wav
329,192,63929,1,0,0:0:0:0:
475,192,63929,1,0,0:0:0:0:
109,192,64167,1,0,0:0:0:0:
256,192,64167,1,0,0:0:0:0:
36,192,64405,1,8,0:0:0:0:
182,192,64405,1,0,0:0:0:70:LR_Clap Normal.wav
402,192,64405,1,0,0:0:0:0:
256,192,64644,1,2,0:0:0:0:
329,192,64644,1,0,0:0:0:0:
475,192,64882,1,2,0:0:0:0:
402,192,64882,1,0,0:0:0:70:LR_Clap Normal.wav
109,192,65120,1,0,0:0:0:0:
256,192,65120,1,0,0:0:0:0:
182,192,65358,1,2,0:0:0:0:
402,192,65358,1,0,0:0:0:70:LR_Clap Normal.wav
475,192,65358,1,0,0:0:0:0:
36,192,65477,1,0,0:0:0:0:
109,192,65715,1,0,0:0:0:0:
256,192,65834,128,2,66072:0:0:0:0:
402,192,65834,1,0,0:0:0:70:LR_Clap Normal.wav
475,192,65834,1,0,0:0:0:0:
36,192,66072,128,0,66310:0:0:0:0:
182,192,66072,1,0,0:0:0:0:
256,192,66310,1,2,0:0:0:0:
402,192,66310,1,0,0:0:0:70:LR_Clap Normal.wav
475,192,66310,1,0,0:0:0:0:
182,192,66548,1,0,0:0:0:0:
256,192,66548,1,0,0:0:0:0:
36,192,66786,1,2,0:0:0:0:
109,192,66786,1,0,0:0:0:70:LR_Clap Normal.wav
402,192,66786,128,0,67024:0:0:0:0:
36,192,67263,1,2,0:0:0:0:
109,192,67263,1,0,0:0:0:70:LR_Clap Normal.wav
402,192,67263,128,0,67620:0:0:0:0:
475,192,67620,1,0,0:0:0:0:
36,192,67739,1,2,0:0:0:0:
109,192,67739,1,0,0:0:0:70:LR_Clap Normal.wav
329,192,67739,128,0,67977:0:0:0:0:
256,192,67977,1,0,0:0:0:0:
475,192,67977,128,0,68215:0:0:0:0:
36,192,68215,1,2,0:0:0:0:
109,192,68215,1,0,0:0:0:70:LR_Clap Normal.wav
402,192,68215,1,0,0:0:0:0:
256,192,68453,1,0,0:0:0:0:
402,192,68453,1,0,0:0:0:0:
182,192,68691,1,2,0:0:0:0:
475,192,68691,1,0,0:0:0:70:LR_Clap Normal.wav
109,192,68929,1,2,0:0:0:0:
402,192,68929,1,0,0:0:0:0:
36,192,69167,128,2,69405:0:0:0:0:
475,192,69167,1,0,0:0:0:70:LR_Clap Normal.wav
109,192,69405,128,2,69644:0:0:0:0:
402,192,69405,1,0,0:0:0:0:
182,192,69644,1,2,0:0:0:0:
475,192,69644,1,0,0:0:0:70:LR_Clap Normal.wav
109,192,69882,1,2,0:0:0:0:
329,192,69882,1,0,0:0:0:0:
475,192,70120,128,0,70358:0:0:0:70:LR_Clap Normal.wav
182,192,70120,1,2,0:0:0:0:
109,192,70358,1,2,0:0:0:0:
402,192,70358,128,0,70596:0:0:0:0:
36,192,70596,1,0,0:0:0:0:
256,192,70596,1,0,0:0:0:0:
475,192,70834,1,0,0:0:0:0:
402,192,70953,1,0,0:0:0:0:
109,192,71072,1,0,0:0:0:0:
329,192,71072,1,0,0:0:0:0:
182,192,71310,1,0,0:0:0:0:
402,192,71310,1,0,0:0:0:0:
256,192,71548,128,0,72024:0:0:0:0:
475,192,71548,128,0,72024:0:0:0:0:
36,192,72024,1,0,0:0:0:70:LR_Clap Normal.wav
109,192,72024,1,0,0:0:0:0:
329,192,72024,1,0,0:0:0:0:
182,192,72263,128,0,72501:0:0:0:0:
402,192,72263,128,0,72501:0:0:0:0:
36,192,72501,128,2,72739:0:0:0:0:
256,192,72501,1,4,0:0:0:0:
475,192,72501,1,0,0:0:0:0:
182,192,72739,1,0,0:0:0:0:
329,192,72739,1,0,0:0:0:0:
36,192,72977,1,8,0:0:0:0:
475,192,72977,128,0,73215:0:0:0:0:
109,192,73215,1,0,0:0:0:0:
256,192,73453,1,2,0:0:0:0:
475,192,73453,1,0,0:0:0:0:
402,192,73691,1,0,0:0:0:0:
329,192,73810,1,0,0:0:0:0:
36,192,73929,1,8,0:0:0:0:
182,192,73929,1,0,0:0:0:0:
402,192,74167,1,0,0:0:0:0:
475,192,74167,1,0,0:0:0:0:
109,192,74405,1,2,0:0:0:0:
256,192,74405,1,0,0:0:0:0:
329,192,74644,1,0,0:0:0:0:
402,192,74644,1,0,0:0:0:0:
36,192,74882,1,8,0:0:0:0:
182,192,74882,1,0,0:0:0:0:
256,192,75120,1,0,0:0:0:0:
402,192,75239,1,0,0:0:0:0:
36,192,75358,1,2,0:0:0:0:
329,192,75358,1,0,0:0:0:0:
109,192,75477,1,0,0:0:0:0:
182,192,75596,1,0,0:0:0:0:
109,192,75834,1,8,0:0:0:0:
402,192,75834,1,0,0:0:0:0:
256,192,76072,1,0,0:0:0:0:
329,192,76072,1,0,0:0:0:0:
36,192,76310,1,2,0:0:0:0:
182,192,76310,1,0,0:0:0:0:
329,192,76429,1,0,0:0:0:0:
475,192,76548,1,0,0:0:0:0:
256,192,76786,1,8,0:0:0:0:
402,192,76786,1,0,0:0:0:0:
109,192,77024,1,0,0:0:0:0:
256,192,77144,1,0,0:0:0:0:
402,192,77263,1,2,0:0:0:0:
475,192,77263,1,0,0:0:0:0:
182,192,77382,1,0,0:0:0:0:
256,192,77501,1,0,0:0:0:0:
109,192,77620,1,0,0:0:0:0:
36,192,77739,1,8,0:0:0:0:
329,192,77739,1,0,0:0:0:0:
109,192,77977,1,0,0:0:0:0:
256,192,77977,1,0,0:0:0:0:
182,192,78215,1,2,0:0:0:0:
475,192,78215,1,0,0:0:0:0:
402,192,78334,1,0,0:0:0:0:
329,192,78453,1,0,0:0:0:0:
256,192,78691,1,8,0:0:0:0:
475,192,78691,1,0,0:0:0:0:
36,192,78810,1,0,0:0:0:0:
182,192,78929,1,0,0:0:0:0:
329,192,79048,1,0,0:0:0:0:
109,192,79167,1,2,0:0:0:0:
402,192,79167,128,0,79405:0:0:0:0:
182,192,79405,1,0,0:0:0:0:
256,192,79644,1,8,0:0:0:0:
475,192,79644,1,0,0:0:0:0:
182,192,79882,1,0,0:0:0:0:
109,192,79882,1,0,0:0:0:0:
36,192,80120,128,2,80358:0:0:0:0:
329,192,80120,1,0,0:0:0:0:
402,192,80120,1,0,0:0:0:0:
256,192,80358,1,0,0:0:0:0:
182,192,80596,1,8,0:0:0:0:
475,192,80596,128,0,80834:0:0:0:0:
256,192,80834,1,0,0:0:0:0:
36,192,81072,1,2,0:0:0:0:
329,192,81072,1,0,0:0:0:0:
182,192,81310,1,0,0:0:0:0:
402,192,81429,1,0,0:0:0:0:
109,192,81548,1,8,0:0:0:0:
329,192,81548,1,0,0:0:0:0:
182,192,81786,1,0,0:0:0:0:
256,192,81786,1,0,0:0:0:0:
36,192,82024,1,2,0:0:0:0:
475,192,82024,1,0,0:0:0:0:
182,192,82263,1,0,0:0:0:0:
329,192,82263,1,0,0:0:0:0:
109,192,82501,1,8,0:0:0:0:
402,192,82501,1,0,0:0:0:0:
182,192,82739,1,0,0:0:0:0:
402,192,82858,1,0,0:0:0:0:
36,192,82977,1,2,0:0:0:0:
109,192,82977,1,0,0:0:0:0:
256,192,83096,1,0,0:0:0:0:
475,192,83215,1,0,0:0:0:0:
182,192,83334,1,0,0:0:0:0:
36,192,83453,1,8,0:0:0:0:
402,192,83453,1,0,0:0:0:0:
109,192,83691,1,0,0:0:0:0:
329,192,83691,1,0,0:0:0:0:
256,192,83929,1,2,0:0:0:0:
182,192,83929,1,0,0:0:0:0:
329,192,84167,1,0,0:0:0:0:
182,192,84286,1,0,0:0:0:0:
36,192,84405,1,8,0:0:0:0:
475,192,84405,1,0,0:0:0:0:
402,192,84644,1,0,0:0:0:0:
256,192,84763,1,0,0:0:0:0:
36,192,84882,1,2,0:0:0:0:
109,192,84882,1,0,0:0:0:0:
256,192,85120,1,0,0:0:0:0:
402,192,85120,1,0,0:0:0:0:
182,192,85358,1,8,0:0:0:0:
475,192,85358,1,0,0:0:0:0:
256,192,85477,1,0,0:0:0:0:
329,192,85596,1,0,0:0:0:0:
109,192,85715,1,0,0:0:0:0:
256,192,85834,1,2,0:0:0:0:
475,192,85834,1,0,0:0:0:0:
402,192,85953,1,0,0:0:0:0:
329,192,86072,1,0,0:0:0:0:
182,192,86191,1,0,0:0:0:0:
36,192,86310,1,8,0:0:0:0:
402,192,86310,1,0,0:0:0:0:
256,192,86429,1,0,0:0:0:0:
109,192,86548,1,0,0:0:0:0:
329,192,86667,1,0,0:0:0:0:
475,192,86786,128,2,87024:0:0:0:0:
182,192,86786,1,0,0:0:0:0:
36,192,87024,128,0,87263:0:0:0:0:
256,192,87024,1,0,0:0:0:0:
109,192,87263,128,8,87739:0:0:0:0:
329,192,87263,1,0,0:0:0:0:
182,192,87739,1,2,0:0:0:0:
402,192,87739,1,4,0:0:0:0:
475,192,87739,128,0,87977:0:0:0:0:
109,192,87977,1,0,0:0:0:0:
256,192,88215,128,8,88453:0:0:0:0:
402,192,88215,1,0,0:0:0:0:
182,192,88453,1,0,0:0:0:0:
36,192,88691,1,2,0:0:0:0:
329,192,88691,1,0,0:0:0:0:
256,192,88929,1,0,0:0:0:0:
402,192,89048,1,0,0:0:0:0:
182,192,89167,1,8,0:0:0:0:
475,192,89167,1,0,0:0:0:0:
36,192,89405,1,0,0:0:0:0:
329,192,89405,1,0,0:0:0:0:
109,192,89644,1,2,0:0:0:0:
256,192,89644,1,0,0:0:0:0:
402,192,89882,1,0,0:0:0:0:
475,192,89882,1,0,0:0:0:0:
182,192,90120,128,8,90358:0:0:0:0:
329,192,90120,1,0,0:0:0:0:
256,192,90358,1,0,0:0:0:0:
402,192,90477,128,0,90834:0:0:0:0:
36,192,90596,1,2,0:0:0:0:
109,192,90596,1,0,0:0:0:0:
182,192,90834,1,0,0:0:0:0:
329,192,90834,1,0,0:0:0:0:
109,192,91072,1,8,0:0:0:0:
402,192,91072,128,0,91310:0:0:0:0:
182,192,91310,1,0,0:0:0:0:
329,192,91310,1,0,0:0:0:0:
36,192,91548,1,2,0:0:0:0:
256,192,91548,1,0,0:0:0:0:
402,192,91667,1,0,0:0:0:0:
182,192,91786,1,0,0:0:0:0:
329,192,91905,1,0,0:0:0:0:
256,192,92024,1,8,0:0:0:0:
475,192,92024,1,0,0:0:0:0:
182,192,92144,1,0,0:0:0:0:
402,192,92263,1,0,0:0:0:0:
329,192,92382,1,0,0:0:0:0:
36,192,92501,1,2,0:0:0:0:
256,192,92501,1,0,0:0:0:0:
182,192,92739,1,0,0:0:0:0:
329,192,92739,1,0,0:0:0:0:
109,192,92977,1,8,0:0:0:0:
402,192,92977,1,0,0:0:0:0:
475,192,92977,1,0,0:0:0:0:
329,192,93215,1,0,0:0:0:0:
182,192,93334,1,0,0:0:0:0:
36,192,93453,1,2,0:0:0:0:
256,192,93453,1,0,0:0:0:0:
402,192,93572,1,0,0:0:0:0:
329,192,93691,1,0,0:0:0:0:
182,192,93810,1,0,0:0:0:0:
109,192,93929,1,8,0:0:0:0:
475,192,93929,1,0,0:0:0:0:
329,192,94048,1,0,0:0:0:0:
182,192,94167,1,0,0:0:0:0:
256,192,94286,1,0,0:0:0:0:
36,192,94405,1,2,0:0:0:0:
402,192,94405,128,0,94644:0:0:0:0:
182,192,94644,1,0,0:0:0:0:
329,192,94644,1,0,0:0:0:0:
109,192,94882,128,8,95120:0:0:0:0:
256,192,94882,1,0,0:0:0:0:
475,192,94882,1,0,0:0:0:0:
329,192,95120,1,0,0:0:0:0:
402,192,95120,1,0,0:0:0:0:
36,192,95358,128,2,95596:0:0:0:0:
256,192,95358,1,0,0:0:0:0:
475,192,95358,1,0,0:0:0:0:
182,192,95596,1,0,0:0:0:0:
256,192,95834,1,8,0:0:0:0:
475,192,95834,128,0,96072:0:0:0:0:
329,192,96072,1,0,0:0:0:0:
36,192,96310,1,2,0:0:0:0:
402,192,96310,1,0,0:0:0:0:
256,192,96548,1,0,0:0:0:0:
109,192,96667,1,0,0:0:0:0:
182,192,96786,1,8,0:0:0:0:
475,192,96786,1,0,0:0:0:0:
36,192,97024,1,0,0:0:0:0:
402,192,97024,1,0,0:0:0:0:
109,192,97263,1,2,0:0:0:0:
329,192,97263,1,0,0:0:0:0:
256,192,97501,1,0,0:0:0:0:
475,192,97501,1,0,0:0:0:0:
182,192,97739,1,8,0:0:0:0:
402,192,97739,1,0,0:0:0:0:
36,192,97977,1,0,0:0:0:0:
329,192,98096,1,0,0:0:0:0:
182,192,98215,1,2,0:0:0:0:
475,192,98215,1,0,0:0:0:0:
109,192,98453,1,0,0:0:0:0:
256,192,98453,1,0,0:0:0:0:
36,192,98691,1,8,0:0:0:0:
402,192,98691,1,0,0:0:0:0:
329,192,98810,1,0,0:0:0:0:
256,192,98929,1,0,0:0:0:0:
182,192,99167,1,2,0:0:0:0:
475,192,99167,1,0,0:0:0:0:
36,192,99286,1,0,0:0:0:0:
256,192,99405,1,0,0:0:0:0:
109,192,99524,1,0,0:0:0:0:
329,192,99644,1,8,0:0:0:0:
475,192,99644,1,0,0:0:0:0:
182,192,99763,1,0,0:0:0:0:
109,192,99882,1,0,0:0:0:0:
256,192,100001,1,0,0:0:0:0:
36,192,100120,1,2,0:0:0:0:
402,192,100120,1,0,0:0:0:0:
109,192,100358,1,0,0:0:0:0:
256,192,100358,1,0,0:0:0:0:
182,192,100596,1,8,0:0:0:0:
329,192,100596,1,0,0:0:0:0:
475,192,100596,1,0,0:0:0:0:
109,192,100834,1,0,0:0:0:0:
256,192,100953,1,0,0:0:0:0:
36,192,101072,1,2,0:0:0:0:
402,192,101072,1,0,0:0:0:0:
256,192,101310,1,0,0:0:0:0:
475,192,101429,1,0,0:0:0:0:
36,192,101548,1,8,0:0:0:0:
329,192,101548,1,0,0:0:0:0:
182,192,101667,1,0,0:0:0:0:
402,192,101786,1,0,0:0:0:0:
256,192,101905,1,0,0:0:0:0:
109,192,102024,1,2,0:0:0:0:
475,192,102024,1,0,0:0:0:0:
182,192,102263,1,0,0:0:0:0:
402,192,102263,1,0,0:0:0:0:
36,192,102501,1,8,0:0:0:0:
256,192,102501,1,0,0:0:0:0:
475,192,102501,128,0,102977:0:0:0:0:
402,192,102977,1,8,0:0:0:0:
109,192,102977,1,0,0:0:0:0:
182,192,103096,1,2,0:0:0:0:
256,192,103215,1,0,0:0:0:0:
36,192,103334,1,2,0:0:0:0:
475,192,103453,1,0,0:0:0:0:
256,192,103572,1,0,0:0:0:0:
402,192,103691,1,8,0:0:0:0:
109,192,103691,1,0,0:0:0:0:
36,192,103810,1,2,0:0:0:0:
256,192,103929,1,0,0:0:0:0:
475,192,104048,1,2,0:0:0:0:
109,192,104167,1,8,0:0:0:0:
402,192,104167,1,0,0:0:0:0:
329,192,104286,1,0,0:0:0:0:
182,192,104405,1,0,0:0:0:70:LR_Clap Normal.wav
475,192,104405,1,0,0:0:0:0:
109,192,104524,1,2,0:0:0:0:
36,192,104644,1,2,0:0:0:0:
329,192,104882,1,2,0:0:0:0:
402,192,104882,1,0,0:0:0:0:
36,192,105120,1,0,0:0:0:0:
256,192,105358,1,8,0:0:0:0:
475,192,105358,1,0,0:0:0:0:
109,192,105477,1,0,0:0:0:0:
182,192,105596,1,0,0:0:0:0:
329,192,105715,1,0,0:0:0:0:
402,192,105834,1,2,0:0:0:0:
256,192,105953,1,0,0:0:0:0:
109,192,106072,1,0,0:0:0:0:
182,192,106310,1,8,0:0:0:0:
475,192,106310,1,0,0:0:0:0:
256,192,106548,1,0,0:0:0:0:
329,192,106667,1,0,0:0:0:0:
109,192,106786,1,2,0:0:0:0:
256,192,107024,1,0,0:0:0:0:
402,192,107144,1,0,0:0:0:0:
36,192,107263,1,8,0:0:0:0:
182,192,107263,1,0,0:0:0:0:
329,192,107501,1,0,0:0:0:0:
109,192,107620,1,0,0:0:0:0:
256,192,107739,1,2,0:0:0:0:
182,192,107977,1,0,0:0:0:0:
329,192,108096,1,0,0:0:0:0:
109,192,108215,1,8,0:0:0:0:
475,192,108215,1,0,0:0:0:0:
256,192,108334,1,0,0:0:0:0:
402,192,108453,1,0,0:0:0:0:
36,192,108691,1,2,0:0:0:0:
329,192,108691,1,0,0:0:0:0:
256,192,108929,1,0,0:0:0:0:
182,192,109048,1,0,0:0:0:0:
109,192,109167,1,8,0:0:0:0:
402,192,109167,1,0,0:0:0:0:
329,192,109286,1,0,0:0:0:0:
256,192,109405,1,0,0:0:0:0:
182,192,109524,1,0,0:0:0:0:
36,192,109644,1,2,0:0:0:0:
256,192,109763,1,0,0:0:0:0:
475,192,109882,1,0,0:0:0:0:
109,192,110120,128,8,110596:0:0:0:0:
402,192,110120,1,0,0:0:0:0:
182,192,110596,1,2,0:0:0:0:
329,192,110596,1,0,0:0:0:0:
256,192,110834,1,0,0:0:0:0:
329,192,110953,1,0,0:0:0:0:
109,192,111072,1,8,0:0:0:0:
402,192,111072,1,0,0:0:0:0:
182,192,111191,1,0,0:0:0:0:
256,192,111310,1,0,0:0:0:0:
36,192,111429,1,0,0:0:0:0:
329,192,111548,1,2,0:0:0:0:
109,192,111667,1,0,0:0:0:0:
256,192,111786,1,0,0:0:0:0:
402,192,111905,1,0,0:0:0:0:
36,192,112024,1,8,0:0:0:0:
475,192,112024,1,0,0:0:0:0:
182,192,112144,1,0,0:0:0:0:
329,192,112263,1,0,0:0:0:0:
256,192,112382,1,0,0:0:0:0:
182,192,112501,1,2,0:0:0:0:
402,192,112620,1,0,0:0:0:0:
329,192,112739,1,0,0:0:0:0:
256,192,112858,1,0,0:0:0:0:
36,192,112977,1,8,0:0:0:0:
475,192,112977,1,0,0:0:0:0:
402,192,113096,1,0,0:0:0:0:
329,192,113215,128,0,113453:0:0:0:0:
256,192,113453,1,2,0:0:0:0:
182,192,113453,1,0,0:0:0:0:
329,192,113691,1,0,0:0:0:0:
182,192,113810,1,0,0:0:0:0:
36,192,113929,1,8,0:0:0:0:
475,192,113929,1,0,0:0:0:0:
182,192,114167,1,0,0:0:0:0:
329,192,114286,1,0,0:0:0:0:
109,192,114405,1,2,0:0:0:0:
475,192,114405,1,8,0:0:0:0:
256,192,114524,1,0,0:0:0:0:
402,192,114644,1,0,0:0:0:0:
182,192,114763,1,0,0:0:0:0:
36,192,114882,1,2,0:0:0:0:
329,192,114882,1,8,0:0:0:0:
109,192,115120,1,0,0:0:0:0:
256,192,115120,1,0,0:0:0:0:
182,192,115358,1,2,0:0:0:0:
475,192,115358,1,8,0:0:0:0:
329,192,115477,1,0,0:0:0:0:
182,192,115596,1,0,0:0:0:0:
329,192,115715,1,0,0:0:0:0:
109,192,115834,1,8,0:0:0:0:
402,192,115834,1,2,0:0:0:0:
182,192,116072,1,0,0:0:0:0:
256,192,116072,1,0,0:0:0:0:
109,192,116310,1,2,0:0:0:0:
329,192,116310,1,0,0:0:0:0:
36,192,116667,1,0,0:0:0:0:
182,192,116667,1,0,0:0:0:0:
329,192,116786,1,8,0:0:0:0:
475,192,116786,1,0,0:0:0:0:
109,192,117024,1,0,0:0:0:0:
256,192,117024,1,0,0:0:0:0:
402,192,117263,1,2,0:0:0:0:
182,192,117501,1,0,0:0:0:0:
329,192,117620,1,0,0:0:0:0:
36,192,117739,1,8,0:0:0:0:
475,192,117739,1,0,0:0:0:0:
109,192,117977,1,0,0:0:0:0:
402,192,117977,1,0,0:0:0:0:
182,192,118215,1,2,0:0:0:0:
329,192,118215,1,0,0:0:0:0:
402,192,118572,1,0,0:0:0:0:
256,192,118572,1,0,0:0:0:0:
182,192,118929,1,2,0:0:0:0:
475,192,118929,1,0,0:0:0:0:
109,192,119167,1,8,0:0:0:0:
402,192,119167,1,0,0:0:0:0:
36,192,119405,1,0,0:0:0:0:
109,192,119524,1,0,0:0:0:0:
182,192,119644,1,2,0:0:0:0:
329,192,119644,1,0,0:0:0:0:
402,192,119882,1,0,0:0:0:0:
475,192,120001,1,0,0:0:0:0:
36,192,120120,1,2,0:0:0:0:
182,192,120120,1,0,0:0:0:0:
402,192,120477,1,0,0:0:0:0:
256,192,120477,1,0,0:0:0:0:
36,192,120596,1,2,0:0:0:0:
109,192,120596,1,0,0:0:0:0:
329,192,120834,1,0,0:0:0:0:
475,192,120834,1,0,0:0:0:0:
36,192,121072,1,8,0:0:0:0:
256,192,121072,1,0,0:0:0:0:
329,192,121310,1,0,0:0:0:0:
182,192,121429,1,2,0:0:0:0:
402,192,121548,1,0,0:0:0:0:
256,192,121667,1,0,0:0:0:0:
109,192,121786,1,2,0:0:0:0:
36,192,122024,1,2,0:0:0:0:
402,192,122024,1,0,0:0:0:0:
256,192,122144,1,0,0:0:0:0:
182,192,122144,1,0,0:0:0:0:
329,192,122382,1,0,0:0:0:0:
109,192,122501,1,0,0:0:0:0:
402,192,122620,1,0,0:0:0:0:
256,192,122739,1,2,0:0:0:0:
109,192,122858,1,0,0:0:0:0:
329,192,122977,1,8,0:0:0:0:
475,192,122977,1,0,0:0:0:0:
36,192,123096,1,0,0:0:0:0:
182,192,123215,1,0,0:0:0:0:
256,192,123453,1,2,0:0:0:0:
475,192,123453,1,0,0:0:0:0:
475,192,123691,1,0,0:0:0:0:
402,192,123810,1,0,0:0:0:0:
182,192,123929,1,2,0:0:0:0:
329,192,123929,1,0,0:0:0:0:
109,192,124048,1,0,0:0:0:0:
36,192,124167,1,0,0:0:0:0:
182,192,124524,1,0,0:0:0:0:
329,192,124644,1,2,0:0:0:0:
36,192,124763,1,0,0:0:0:0:
109,192,124882,1,8,0:0:0:0:
402,192,124882,1,0,0:0:0:0:
475,192,125001,1,0,0:0:0:0:
182,192,125120,1,0,0:0:0:0:
256,192,125239,1,0,0:0:0:0:
36,192,125358,1,4,0:0:0:0:
109,192,125358,1,0,0:0:0:0:
329,192,125358,1,0,0:0:0:0:
182,192,125596,1,0,0:0:0:0:
402,192,125596,1,0,0:0:0:0:
256,192,125834,1,2,0:0:0:0:
36,192,125834,1,0,0:0:0:0:
475,192,125834,1,0,0:0:0:0:
402,192,126072,1,0,0:0:0:0:
329,192,126191,1,0,0:0:0:0:
109,192,126191,1,0,0:0:0:0:
36,192,126429,1,0,0:0:0:0:
182,192,126548,1,2,0:0:0:0:
402,192,126548,1,0,0:0:0:0:
109,192,126786,1,8,0:0:0:0:
475,192,126786,1,0,0:0:0:0:
329,192,127024,1,0,0:0:0:0:
402,192,127144,1,0,0:0:0:0:
182,192,127263,1,2,0:0:0:0:
475,192,127263,1,0,0:0:0:0:
109,192,127382,1,0,0:0:0:0:
36,192,127501,1,0,0:0:0:0:
182,192,127739,1,2,0:0:0:0:
475,192,127739,1,0,0:0:0:0:
402,192,127858,1,0,0:0:0:0:
329,192,128096,1,0,0:0:0:0:
182,192,128096,1,0,0:0:0:0:
36,192,128215,1,2,0:0:0:0:
109,192,128215,1,0,0:0:0:0:
402,192,128334,1,0,0:0:0:0:
256,192,128453,1,0,0:0:0:0:
109,192,128691,1,8,0:0:0:0:
475,192,128691,1,0,0:0:0:0:
329,192,128810,1,0,0:0:0:0:
256,192,128929,1,0,0:0:0:0:
182,192,129048,1,2,0:0:0:0:
402,192,129167,1,0,0:0:0:0:
256,192,129286,1,0,0:0:0:0:
109,192,129405,1,2,0:0:0:0:
329,192,129524,1,0,0:0:0:0:
36,192,129644,1,2,0:0:0:0:
475,192,129644,1,0,0:0:0:0:
182,192,129763,1,0,0:0:0:0:
329,192,129882,1,0,0:0:0:0:
109,192,130001,1,0,0:0:0:0:
329,192,130120,1,0,0:0:0:0:
182,192,130239,1,0,0:0:0:0:
402,192,130358,1,2,0:0:0:0:
182,192,130477,1,0,0:0:0:0:
256,192,130596,1,8,0:0:0:0:
36,192,130596,1,0,0:0:0:0:
329,192,130715,1,0,0:0:0:0:
109,192,130834,1,0,0:0:0:0:
402,192,130953,1,0,0:0:0:0:
182,192,131072,1,2,0:0:0:0:
256,192,131072,1,0,0:0:0:0:
402,192,131310,1,0,0:0:0:0:
256,192,131429,1,0,0:0:0:0:
36,192,131548,1,2,0:0:0:0:
109,192,131548,1,0,0:0:0:0:
256,192,131667,1,0,0:0:0:0:
402,192,131786,1,0,0:0:0:0:
182,192,132024,1,0,0:0:0:0:
329,192,132144,1,0,0:0:0:0:
475,192,132263,1,2,0:0:0:0:
36,192,132501,1,8,0:0:0:0:
402,192,132501,1,0,0:0:0:0:
329,192,132620,1,0,0:0:0:0:
182,192,132739,1,0,0:0:0:0:
109,192,132858,1,0,0:0:0:0:
36,192,132977,1,0,0:0:0:70:LR_Clap Normal.wav
475,192,132977,1,0,0:0:0:0:
256,192,132977,128,0,133453:0:0:0:0:
36,192,133453,1,2,0:0:0:0:
402,192,133453,1,0,0:0:0:70:LR_Clap Normal.wav
475,192,133453,1,0,0:0:0:0:
182,192,133691,1,0,0:0:0:0:
36,192,133810,1,0,0:0:0:0:
402,192,133929,1,0,0:0:0:70:LR_Clap Normal.wav
475,192,133929,1,0,0:0:0:0:
36,192,134048,1,0,0:0:0:0:
182,192,134167,1,0,0:0:0:0:
109,192,134405,1,0,0:0:0:70:LR_Clap Normal.wav
402,192,134405,1,0,0:0:0:0:
475,192,134405,1,0,0:0:0:0:
182,192,134524,1,0,0:0:0:0:
36,192,134763,1,0,0:0:0:0:
109,192,134882,1,0,0:0:0:70:LR_Clap Normal.wav
402,192,134882,1,0,0:0:0:0:
475,192,134882,1,0,0:0:0:0:
256,192,135120,1,2,0:0:0:0:
329,192,135120,1,0,0:0:0:0:
182,192,135239,1,0,0:0:0:0:
36,192,135358,1,2,0:0:0:0:
109,192,135358,1,0,0:0:0:70:LR_Clap Normal.wav
475,192,135358,1,0,0:0:0:0:
182,192,135596,1,0,0:0:0:0:
402,192,135596,1,0,0:0:0:0:
36,192,135834,1,0,0:0:0:70:LR_Clap Normal.wav
109,192,135834,1,0,0:0:0:0:
329,192,135834,1,0,0:0:0:0:
475,192,135953,1,0,0:0:0:0:
402,192,136191,1,0,0:0:0:0:
36,192,136310,1,0,0:0:0:70:LR_Clap Normal.wav
109,192,136310,1,0,0:0:0:0:
329,192,136310,1,0,0:0:0:0:
182,192,136548,1,0,0:0:0:0:
256,192,136548,1,0,0:0:0:0:
36,192,136786,1,0,0:0:0:70:LR_Clap Normal.wav
109,192,136786,1,0,0:0:0:0:
329,192,136786,1,0,0:0:0:0:
182,192,137024,1,2,0:0:0:0:
402,192,137024,1,0,0:0:0:0:
36,192,137263,1,2,0:0:0:0:
256,192,137263,1,0,0:0:0:70:LR_Clap Normal.wav
475,192,137263,1,0,0:0:0:0:
329,192,137501,1,0,0:0:0:0:
402,192,137620,1,0,0:0:0:0:
36,192,137739,1,0,0:0:0:70:LR_Clap Normal.wav
475,192,137739,1,0,0:0:0:0:
182,192,137858,1,0,0:0:0:0:
329,192,137977,1,0,0:0:0:0:
36,192,138215,1,0,0:0:0:70:LR_Clap Normal.wav
256,192,138215,1,0,0:0:0:0:
475,192,138215,1,0,0:0:0:0:
402,192,138334,1,0,0:0:0:0:
329,192,138572,1,0,0:0:0:0:
36,192,138691,1,0,0:0:0:70:LR_Clap Normal.wav
182,192,138691,1,0,0:0:0:0:
475,192,138691,1,0,0:0:0:0:
182,192,138929,1,2,0:0:0:0:
329,192,138929,1,0,0:0:0:0:
109,192,139048,1,0,0:0:0:0:
36,192,139167,1,2,0:0:0:0:
475,192,139167,1,0,0:0:0:70:LR_Clap Normal.wav
256,192,139286,1,0,0:0:0:0:
402,192,139405,1,0,0:0:0:0:
36,192,139644,1,0,0:0:0:70:LR_Clap Normal.wav
182,192,139644,1,0,0:0:0:0:
475,192,139644,1,0,0:0:0:0:
329,192,139763,1,0,0:0:0:0:
402,192,140001,1,0,0:0:0:0:
36,192,140120,1,0,0:0:0:70:LR_Clap Normal.wav
256,192,140120,1,0,0:0:0:0:
475,192,140120,1,0,0:0:0:0:
182,192,140358,1,0,0:0:0:0:
329,192,140358,1,0,0:0:0:0:
36,192,140596,1,0,0:0:0:70:LR_Clap Normal.wav
109,192,140596,1,0,0:0:0:0:
475,192,140596,1,0,0:0:0:0:
182,192,140834,1,2,0:0:0:0:
402,192,140834,1,0,0:0:0:0:
36,192,141072,1,2,0:0:0:0:
256,192,141072,1,0,0:0:0:70:LR_Clap Normal.wav
329,192,141072,1,0,0:0:0:0:
402,192,141310,1,0,0:0:0:0:
475,192,141310,1,0,0:0:0:0:
36,192,141548,1,2,0:0:0:0:
256,192,141548,1,0,0:0:0:70:LR_Clap Normal.wav
329,192,141548,1,0,0:0:0:0:
475,192,141707,1,0,0:0:0:0:
402,192,141905,1,0,0:0:0:0:
36,192,142024,1,2,0:0:0:0:
256,192,142024,1,0,0:0:0:70:LR_Clap Normal.wav
329,192,142024,1,0,0:0:0:0:
182,192,142263,1,0,0:0:0:0:
475,192,142263,1,0,0:0:0:0:
36,192,142501,1,2,0:0:0:0:
256,192,142501,1,0,0:0:0:70:LR_Clap Normal.wav
329,192,142501,1,0,0:0:0:0:
109,192,142739,1,0,0:0:0:0:
402,192,142739,1,0,0:0:0:0:
182,192,142977,1,2,0:0:0:0:
256,192,142977,1,0,0:0:0:70:LR_Clap Normal.wav
475,192,142977,1,0,0:0:0:0:
36,192,143215,1,0,0:0:0:0:
109,192,143334,1,0,0:0:0:0:
182,192,143453,1,2,0:0:0:0:
256,192,143453,1,0,0:0:0:70:LR_Clap Normal.wav
475,192,143453,1,0,0:0:0:0:
36,192,143589,1,0,0:0:0:0:
109,192,143793,1,0,0:0:0:0:
182,192,143929,1,2,0:0:0:0:
256,192,143929,1,0,0:0:0:70:LR_Clap Normal.wav
475,192,143929,1,0,0:0:0:0:
36,192,144167,1,0,0:0:0:0:
109,192,144167,1,0,0:0:0:0:
182,192,144405,1,2,0:0:0:0:
256,192,144405,1,0,0:0:0:70:LR_Clap Normal.wav
475,192,144405,1,0,0:0:0:0:
109,192,144644,1,0,0:0:0:0:
402,192,144644,1,0,0:0:0:0:
36,192,144882,1,2,0:0:0:0:
256,192,144882,1,0,0:0:0:70:LR_Clap Normal.wav
329,192,144882,1,0,0:0:0:0:
182,192,145120,1,2,0:0:0:0:
475,192,145120,1,0,0:0:0:0:
36,192,145358,1,2,0:0:0:0:
256,192,145358,1,0,0:0:0:70:LR_Clap Normal.wav
329,192,145358,1,0,0:0:0:0:
109,192,145596,1,2,0:0:0:0:
402,192,145596,1,0,0:0:0:0:
36,192,145834,1,2,0:0:0:0:
256,192,145834,1,0,0:0:0:70:LR_Clap Normal.wav
329,192,145834,1,0,0:0:0:0:
182,192,145953,1,2,0:0:0:0:
109,192,146072,1,2,0:0:0:0:
402,192,146072,1,0,0:0:0:0:
329,192,146191,1,2,0:0:0:0:
182,192,146310,1,2,0:0:0:0:
256,192,146310,1,0,0:0:0:70:LR_Clap Normal.wav
475,192,146310,1,0,0:0:0:0:
36,192,146548,1,2,0:0:0:0:
329,192,146548,1,0,0:0:0:0:
109,192,146786,1,0,0:0:0:0:
402,192,146786,1,0,0:0:0:0:
36,192,147024,128,0,147263:0:0:0:0:
256,192,147024,128,0,147263:0:0:0:0:
109,192,147263,128,0,147501:0:0:0:0:
329,192,147263,128,0,147501:0:0:0:0:
182,192,147501,1,0,0:0:0:0:
402,192,147501,1,0,0:0:0:0:
36,192,147739,128,0,148215:0:0:0:0:
475,192,147739,128,0,148215:0:0:0:0:
182,192,148215,1,0,0:0:0:70:LR_Clap Normal.wav
329,192,148215,1,0,0:0:0:0:
182,192,148453,1,0,0:0:0:0:
329,192,148453,1,0,0:0:0:0:
36,192,148691,1,2,0:0:0:0:
109,192,148691,1,4,0:0:0:0:
475,192,148691,128,0,148929:0:0:0:0:
402,192,148929,1,0,0:0:0:0:
256,192,148929,1,0,0:0:0:0:
36,192,149167,128,8,149405:0:0:0:0:
182,192,149167,1,0,0:0:0:0:
475,192,149405,1,0,0:0:0:0:
109,192,149644,1,2,0:0:0:0:
329,192,149644,1,0,0:0:0:0:
402,192,149882,1,0,0:0:0:0:
182,192,150001,1,0,0:0:0:0:
36,192,150120,1,8,0:0:0:0:
475,192,150120,1,0,0:0:0:0:
329,192,150358,1,0,0:0:0:0:
402,192,150358,1,0,0:0:0:0:
36,192,150596,1,2,0:0:0:0:
182,192,150596,1,0,0:0:0:0:
256,192,150834,1,0,0:0:0:0:
402,192,150834,1,0,0:0:0:0:
109,192,151072,1,8,0:0:0:0:
475,192,151072,1,0,0:0:0:0:
182,192,151310,1,0,0:0:0:0:
402,192,151429,1,0,0:0:0:0:
36,192,151548,1,2,0:0:0:0:
109,192,151548,1,0,0:0:0:0:
329,192,151667,1,0,0:0:0:0:
182,192,151786,128,0,152024:0:0:0:0:
402,192,152024,1,8,0:0:0:0:
475,192,152024,1,0,0:0:0:0:
109,192,152263,1,0,0:0:0:0:
256,192,152263,1,0,0:0:0:0:
36,192,152501,1,2,0:0:0:0:
329,192,152501,1,0,0:0:0:0:
109,192,152620,1,0,0:0:0:0:
182,192,152739,1,0,0:0:0:0:
109,192,152977,1,8,0:0:0:0:
402,192,152977,1,0,0:0:0:0:
182,192,153215,1,0,0:0:0:0:
329,192,153215,1,0,0:0:0:0:
36,192,153453,1,2,0:0:0:0:
256,192,153453,1,0,0:0:0:0:
475,192,153572,1,0,0:0:0:0:
182,192,153691,1,0,0:0:0:0:
402,192,153810,1,0,0:0:0:0:
36,192,153929,1,8,0:0:0:0:
329,192,153929,1,0,0:0:0:0:
109,192,154167,1,0,0:0:0:0:
182,192,154167,1,0,0:0:0:0:
256,192,154405,1,2,0:0:0:0:
475,192,154405,1,0,0:0:0:0:
109,192,154524,1,0,0:0:0:0:
182,192,154644,1,0,0:0:0:0:
329,192,154763,1,0,0:0:0:0:
36,192,154882,1,8,0:0:0:0:
402,192,154882,1,0,0:0:0:0:
182,192,155001,1,0,0:0:0:0:
329,192,155120,1,0,0:0:0:0:
109,192,155239,1,0,0:0:0:0:
256,192,155358,128,2,155834:0:0:0:0:
402,192,155358,1,0,0:0:0:0:
36,192,155596,1,0,0:0:0:0:
109,192,155834,1,8,0:0:0:0:
329,192,155834,128,0,156072:0:0:0:0:
182,192,156072,1,0,0:0:0:0:
402,192,156072,128,0,156310:0:0:0:0:
36,192,156310,128,2,156548:0:0:0:0:
256,192,156310,1,0,0:0:0:0:
475,192,156310,1,0,0:0:0:0:
109,192,156548,1,0,0:0:0:0:
182,192,156786,1,8,0:0:0:0:
475,192,156786,128,0,157024:0:0:0:0:
402,192,157024,1,0,0:0:0:0:
109,192,157263,1,2,0:0:0:0:
329,192,157263,1,0,0:0:0:0:
182,192,157501,1,0,0:0:0:0:
402,192,157620,1,0,0:0:0:0:
36,192,157739,1,8,0:0:0:0:
256,192,157739,1,0,0:0:0:0:
329,192,157977,1,0,0:0:0:0:
475,192,157977,1,0,0:0:0:0:
109,192,158215,1,2,0:0:0:0:
182,192,158215,1,0,0:0:0:0:
256,192,158453,1,0,0:0:0:0:
402,192,158453,1,0,0:0:0:0:
36,192,158691,128,8,158929:0:0:0:0:
109,192,158691,1,0,0:0:0:0:
256,192,158929,1,0,0:0:0:0:
402,192,159048,1,0,0:0:0:0:
36,192,159167,1,2,0:0:0:0:
109,192,159167,1,0,0:0:0:0:
475,192,159286,1,0,0:0:0:0:
256,192,159405,1,0,0:0:0:0:
402,192,159524,1,0,0:0:0:0:
182,192,159644,1,8,0:0:0:0:
329,192,159644,1,0,0:0:0:0:
109,192,159882,1,0,0:0:0:0:
402,192,159882,1,0,0:0:0:0:
36,192,160120,1,2,0:0:0:0:
475,192,160120,1,0,0:0:0:0:
182,192,160239,1,0,0:0:0:0:
329,192,160358,1,0,0:0:0:0:
109,192,160477,1,0,0:0:0:0:
256,192,160596,1,8,0:0:0:0:
475,192,160596,1,0,0:0:0:0:
402,192,160715,1,0,0:0:0:0:
182,192,160834,1,0,0:0:0:0:
109,192,160953,1,0,0:0:0:0:
36,192,161072,1,2,0:0:0:0:
329,192,161072,1,0,0:0:0:0:
256,192,161310,1,0,0:0:0:0:
402,192,161310,1,0,0:0:0:0:
182,192,161548,1,8,0:0:0:0:
475,192,161548,1,0,0:0:0:0:
329,192,161667,1,0,0:0:0:0:
109,192,161786,1,0,0:0:0:0:
256,192,161905,1,0,0:0:0:0:
36,192,162024,1,2,0:0:0:0:
402,192,162024,1,0,0:0:0:0:
182,192,162144,1,0,0:0:0:0:
256,192,162263,1,0,0:0:0:0:
36,192,162382,1,0,0:0:0:0:
109,192,162501,1,8,0:0:0:0:
475,192,162501,1,0,0:0:0:0:
256,192,162620,1,0,0:0:0:0:
329,192,162739,1,0,0:0:0:0:
182,192,162858,1,0,0:0:0:0:
36,192,162977,1,2,0:0:0:0:
402,192,162977,1,0,0:0:0:0:
109,192,163215,1,0,0:0:0:0:
329,192,163215,1,0,0:0:0:0:
256,192,163453,1,8,0:0:0:0:
475,192,163453,1,0,0:0:0:0:
109,192,163691,1,0,0:0:0:0:
36,192,163929,1,2,0:0:0:0:
329,192,163929,128,4,164167:0:0:0:0:
402,192,163929,1,0,0:0:0:0:
256,192,164167,1,0,0:0:0:0:
182,192,164405,128,8,164644:0:0:0:0:
475,192,164405,1,0,0:0:0:0:
402,192,164644,1,0,0:0:0:0:
36,192,164882,1,2,0:0:0:0:
329,192,164882,1,0,0:0:0:0:
109,192,165120,1,0,0:0:0:0:
256,192,165239,1,0,0:0:0:0:
402,192,165358,1,8,0:0:0:0:
475,192,165358,1,0,0:0:0:0:
182,192,165596,1,0,0:0:0:0:
329,192,165596,1,0,0:0:0:0:
36,192,165834,1,2,0:0:0:0:
109,192,165834,1,0,0:0:0:0:
256,192,166072,1,0,0:0:0:0:
402,192,166072,1,0,0:0:0:0:
182,192,166310,1,8,0:0:0:0:
475,192,166310,128,0,166548:0:0:0:0:
329,192,166548,1,0,0:0:0:0:
182,192,166667,1,0,0:0:0:0:
36,192,166786,1,2,0:0:0:0:
109,192,166786,128,0,167024:0:0:0:0:
329,192,167024,1,0,0:0:0:0:
182,192,167024,128,0,167263:0:0:0:0:
402,192,167263,128,8,167501:0:0:0:0:
475,192,167263,1,0,0:0:0:0:
182,192,167501,1,0,0:0:0:0:
329,192,167501,128,0,167739:0:0:0:0:
36,192,167739,1,2,0:0:0:0:
256,192,167739,1,0,0:0:0:0:
109,192,167858,1,0,0:0:0:0:
329,192,167977,1,0,0:0:0:0:
182,192,168096,1,0,0:0:0:0:
256,192,168215,1,8,0:0:0:0:
475,192,168215,1,0,0:0:0:0:
329,192,168334,1,0,0:0:0:0:
109,192,168453,1,0,0:0:0:0:
402,192,168572,1,0,0:0:0:0:
36,192,168691,1,2,0:0:0:0:
475,192,168691,1,0,0:0:0:0:
109,192,168929,1,0,0:0:0:0:
329,192,168929,1,0,0:0:0:0:
182,192,169167,1,8,0:0:0:0:
402,192,169167,1,0,0:0:0:0:
475,192,169167,1,0,0:0:0:0:
329,192,169405,1,0,0:0:0:0:
182,192,169524,1,0,0:0:0:0:
36,192,169644,1,2,0:0:0:0:
109,192,169644,1,0,0:0:0:0:
402,192,169763,1,0,0:0:0:0:
256,192,169882,1,0,0:0:0:0:
36,192,170120,1,8,0:0:0:0:
329,192,170120,1,0,0:0:0:0:
182,192,170239,1,0,0:0:0:0:
402,192,170358,1,0,0:0:0:0:
109,192,170477,1,0,0:0:0:0:
36,192,170596,1,2,0:0:0:0:
475,192,170596,1,0,0:0:0:0:
182,192,170834,1,0,0:0:0:0:
402,192,170834,1,0,0:0:0:0:
36,192,171072,1,8,0:0:0:0:
109,192,171072,1,0,0:0:0:0:
329,192,171072,1,0,0:0:0:0:
256,192,171310,1,0,0:0:0:0:
402,192,171310,1,0,0:0:0:0:
109,192,171548,1,2,0:0:0:0:
182,192,171548,128,0,171786:0:0:0:0:
475,192,171548,1,0,0:0:0:0:
256,192,171786,1,0,0:0:0:0:
329,192,172024,128,8,172263:0:0:0:0:
402,192,172024,1,0,0:0:0:0:
256,192,172263,1,0,0:0:0:0:
36,192,172501,1,2,0:0:0:0:
182,192,172501,1,0,0:0:0:0:
329,192,172739,1,0,0:0:0:0:
109,192,172858,1,0,0:0:0:0:
182,192,172977,1,8,0:0:0:0:
475,192,172977,1,0,0:0:0:0:
36,192,173215,1,0,0:0:0:0:
256,192,173215,1,0,0:0:0:0:
256,192,173453,1,2,0:0:0:0:
475,192,173453,1,0,0:0:0:0:
36,192,173691,1,0,0:0:0:0:
329,192,173691,1,0,0:0:0:0:
256,192,173929,128,8,174167:0:0:0:0:
109,192,173929,1,0,0:0:0:0:
329,192,174167,1,0,0:0:0:0:
475,192,174286,1,0,0:0:0:0:
36,192,174405,1,2,0:0:0:0:
256,192,174405,1,0,0:0:0:0:
109,192,174644,1,0,0:0:0:0:
402,192,174644,1,0,0:0:0:0:
182,192,174882,1,8,0:0:0:0:
329,192,174882,1,0,0:0:0:0:
109,192,175001,1,0,0:0:0:0:
36,192,175120,1,0,0:0:0:0:
256,192,175358,1,2,0:0:0:0:
475,192,175358,1,0,0:0:0:0:
109,192,175477,1,0,0:0:0:0:
182,192,175596,1,0,0:0:0:0:
329,192,175715,1,0,0:0:0:0:
36,192,175834,1,8,0:0:0:0:
256,192,175834,1,0,0:0:0:0:
402,192,175953,1,0,0:0:0:0:
182,192,176072,1,0,0:0:0:0:
329,192,176191,1,0,0:0:0:0:
36,192,176310,1,2,0:0:0:0:
109,192,176310,1,0,0:0:0:0:
182,192,176548,1,0,0:0:0:0:
329,192,176548,1,0,0:0:0:0:
109,192,176786,1,8,0:0:0:0:
402,192,176786,1,0,0:0:0:0:
475,192,176786,1,0,0:0:0:0:
182,192,177024,1,0,0:0:0:0:
256,192,177144,1,0,0:0:0:0:
36,192,177263,1,2,0:0:0:0:
329,192,177263,1,0,0:0:0:0:
329,192,177501,1,0,0:0:0:0:
475,192,177620,1,0,0:0:0:0:
256,192,177739,1,8,0:0:0:0:
109,192,177739,1,0,0:0:0:0:
402,192,177858,1,0,0:0:0:0:
182,192,177977,1,0,0:0:0:0:
329,192,178096,1,0,0:0:0:0:
36,192,178215,1,2,0:0:0:0:
109,192,178215,1,0,0:0:0:0:
182,192,178453,1,0,0:0:0:0:
329,192,178453,1,0,0:0:0:0:
36,192,178691,1,8,0:0:0:0:
475,192,178691,1,0,0:0:0:0:
256,192,178691,128,0,179167:0:0:0:0:
36,192,179167,1,2,0:0:0:0:
329,192,179167,128,0,179405:0:0:0:0:
475,192,179167,1,0,0:0:0:0:
182,192,179405,128,0,179644:0:0:0:0:
109,192,179644,128,0,179882:0:0:0:0:
36,192,179882,1,2,0:0:0:0:
256,192,179882,128,0,180358:0:0:0:0:
475,192,179882,1,0,0:0:0:0:
36,192,180358,128,0,180596:0:0:0:0:
109,192,180596,128,0,180834:0:0:0:70:snare.wav
329,192,180596,1,0,0:0:0:0:
475,192,180596,1,0,0:0:0:0:
256,192,180834,128,0,181072:0:0:0:0:
329,192,181072,128,2,181310:0:0:0:0:
402,192,181072,1,0,0:0:0:0:
475,192,181072,1,0,0:0:0:0:
182,192,181310,128,0,181548:0:0:0:0:
109,192,181548,128,0,181786:0:0:0:0:
256,192,181786,128,2,182263:0:0:0:0:
329,192,181786,1,0,0:0:0:0:
475,192,181786,1,0,0:0:0:0:
36,192,182263,128,0,182501:0:0:0:0:
109,192,182501,128,0,182739:0:0:0:70:snare.wav
329,192,182501,1,0,0:0:0:0:
475,192,182501,1,0,0:0:0:0:
182,192,182739,128,2,183215:0:0:0:0:
475,192,182739,1,0,0:0:0:0:
256,192,182977,1,2,0:0:0:0:
475,192,182977,1,0,0:0:0:0:
109,192,183215,128,0,183453:0:0:0:0:
256,192,183453,128,0,183691:0:0:0:0:
36,192,183691,1,2,0:0:0:0:
402,192,183691,128,0,184167:0:0:0:0:
475,192,183691,1,0,0:0:0:0:
256,192,184167,128,0,184405:0:0:0:0:
182,192,184405,128,0,184644:0:0:0:70:snare.wav
329,192,184405,1,0,0:0:0:0:
475,192,184405,1,0,0:0:0:0:
109,192,184644,128,0,185120:0:0:0:0:
329,192,184882,1,2,0:0:0:0:
475,192,184882,1,0,0:0:0:0:
182,192,185120,128,0,185358:0:0:0:0:
109,192,185358,128,0,185596:0:0:0:0:
36,192,185596,128,2,186548:0:0:0:0:
256,192,185596,1,0,0:0:0:0:
475,192,185596,1,0,0:0:0:0:
475,192,186072,1,2,0:0:0:0:
329,192,186310,1,0,0:0:0:70:snare.wav
475,192,186310,1,0,0:0:0:0:
256,192,186548,1,2,0:0:0:0:
36,192,186786,1,2,0:0:0:0:
256,192,186786,1,0,0:0:0:0:
475,192,186786,128,0,187263:0:0:0:0:
402,192,187263,128,0,187501:0:0:0:0:
36,192,187501,1,2,0:0:0:0:
256,192,187501,1,0,0:0:0:0:
329,192,187739,128,0,187977:0:0:0:0:
256,192,187977,128,0,188215:0:0:0:0:
36,192,188215,1,0,0:0:0:70:snare.wav
182,192,188215,1,0,0:0:0:0:
475,192,188215,1,0,0:0:0:0:
256,192,188453,128,0,188691:0:0:0:0:
36,192,188691,1,2,0:0:0:0:
329,192,188691,1,0,0:0:0:0:
402,192,188691,128,0,188929:0:0:0:0:
182,192,188929,128,0,189167:0:0:0:0:
256,192,189167,128,0,189405:0:0:0:0:
36,192,189405,1,2,0:0:0:0:
329,192,189405,1,0,0:0:0:0:
475,192,189405,128,0,189882:0:0:0:0:
329,192,189882,128,0,190120:0:0:0:0:
36,192,190120,1,0,0:0:0:70:snare.wav
182,192,190120,1,0,0:0:0:0:
402,192,190120,128,0,190358:0:0:0:0:
256,192,190358,1,2,0:0:0:0:
256,192,190596,1,2,0:0:0:0:
475,192,190596,1,0,0:0:0:0:
36,192,190834,128,0,191072:0:0:0:0:
109,192,191072,128,0,191310:0:0:0:0:
182,192,191310,1,2,0:0:0:0:
475,192,191310,1,0,0:0:0:0:
256,192,191310,128,0,191548:0:0:0:0:
36,192,191548,128,0,191786:0:0:0:0:
256,192,191786,128,0,192024:0:0:0:0:
109,192,192024,1,0,0:0:0:70:snare.wav
329,192,192024,1,0,0:0:0:0:
475,192,192024,1,0,0:0:0:0:
256,192,192263,1,0,0:0:0:0:
109,192,192501,128,2,192739:0:0:0:0:
182,192,192501,1,0,0:0:0:0:
475,192,192501,1,0,0:0:0:0:
36,192,192739,128,0,192977:0:0:0:0:
329,192,192977,128,0,193215:0:0:0:0:
109,192,193215,128,2,193691:0:0:0:0:
182,192,193215,1,0,0:0:0:0:
475,192,193215,1,0,0:0:0:0:
182,192,193691,1,2,0:0:0:0:
36,192,193929,1,0,0:0:0:70:snare.wav
329,192,193929,1,0,0:0:0:0:
475,192,193929,1,0,0:0:0:0:
256,192,194167,1,2,0:0:0:0:
36,192,194405,1,2,0:0:0:0:
256,192,194405,1,0,0:0:0:0:
402,192,194405,128,0,194882:0:0:0:0:
329,192,194882,128,0,195358:0:0:0:0:
36,192,195120,1,2,0:0:0:0:
256,192,195120,1,0,0:0:0:0:
182,192,195358,128,0,195596:0:0:0:0:
109,192,195596,128,0,195834:0:0:0:0:
36,192,195834,1,0,0:0:0:70:snare.wav
329,192,195834,1,0,0:0:0:0:
475,192,195834,1,0,0:0:0:0:
182,192,196072,128,0,196310:0:0:0:0:
36,192,196310,1,2,0:0:0:0:
475,192,196310,1,0,0:0:0:0:
256,192,196310,128,0,196548:0:0:0:0:
329,192,196548,128,0,196786:0:0:0:0:
109,192,196786,128,0,197024:0:0:0:0:
36,192,197024,1,2,0:0:0:0:
329,192,197024,1,0,0:0:0:0:
402,192,197024,128,0,197263:0:0:0:0:
402,192,197501,128,0,197739:0:0:0:0:
36,192,197739,1,0,0:0:0:70:snare.wav
109,192,197739,128,0,197977:0:0:0:0:
475,192,197739,1,0,0:0:0:0:
256,192,197977,1,2,0:0:0:0:
256,192,198215,1,2,0:0:0:0:
475,192,198215,1,0,0:0:0:0:
109,192,198453,128,0,198691:0:0:0:0:
182,192,198691,128,0,198929:0:0:0:0:
36,192,198929,128,2,199167:0:0:0:0:
256,192,198929,1,0,0:0:0:0:
475,192,198929,1,0,0:0:0:0:
109,192,199167,128,0,199405:0:0:0:0:
256,192,199405,128,0,199644:0:0:0:0:
36,192,199644,1,0,0:0:0:70:snare.wav
182,192,199644,1,0,0:0:0:0:
475,192,199644,1,0,0:0:0:0:
329,192,199882,128,0,200120:0:0:0:0:
402,192,200120,1,2,0:0:0:0:
182,192,200120,128,0,200358:0:0:0:0:
475,192,200120,1,0,0:0:0:0:
256,192,200358,128,0,200596:0:0:0:0:
109,192,200596,128,0,200834:0:0:0:0:
182,192,200834,1,2,0:0:0:0:
329,192,200834,128,0,201310:0:0:0:0:
475,192,200834,1,0,0:0:0:0:
475,192,201310,1,2,0:0:0:0:
109,192,201548,1,0,0:0:0:70:LR_Clap Normal.wav
256,192,201548,1,0,0:0:0:0:
36,192,201548,1,0,0:0:0:0:
329,192,201667,1,0,0:0:0:0:
402,192,201786,1,2,0:0:0:0:
109,192,202024,128,2,202263:0:0:0:0:
256,192,202024,1,0,0:0:0:70:LR_Clap Normal.wav
475,192,202024,1,0,0:0:0:0:
36,192,202382,128,0,202620:0:0:0:0:
256,192,202501,1,0,0:0:0:70:LR_Clap Normal.wav
182,192,202739,128,0,202977:0:0:0:0:
256,192,202977,1,0,0:0:0:70:LR_Clap Normal.wav
329,192,202977,128,0,203215:0:0:0:0:
256,192,203453,1,0,0:0:0:70:LR_Clap Normal.wav
402,192,203572,1,0,0:0:0:0:
36,192,203691,1,2,0:0:0:0:
109,192,203691,1,0,0:0:0:0:
256,192,203929,1,2,0:0:0:0:
402,192,203929,128,0,204167:0:0:0:70:LR_Clap Normal.wav
475,192,204286,128,0,204524:0:0:0:0:
256,192,204405,1,0,0:0:0:70:LR_Clap Normal.wav
402,192,204644,128,0,204882:0:0:0:0:
256,192,204882,1,0,0:0:0:70:LR_Clap Normal.wav
329,192,204882,128,0,205120:0:0:0:0:
182,192,205358,1,0,0:0:0:70:LR_Clap Normal.wav
256,192,205358,1,0,0:0:0:0:
109,192,205596,1,2,0:0:0:0:
402,192,205596,1,0,0:0:0:0:
36,192,205834,128,2,206072:0:0:0:0:
256,192,205834,1,0,0:0:0:70:LR_Clap Normal.wav
475,192,206191,128,0,206429:0:0:0:0:
256,192,206310,1,0,0:0:0:70:LR_Clap Normal.wav
402,192,206548,128,0,207024:0:0:0:0:
256,192,206786,1,0,0:0:0:70:LR_Clap Normal.wav
329,192,207024,128,0,207263:0:0:0:0:
182,192,207263,128,0,207501:0:0:0:70:LR_Clap Normal.wav
256,192,207263,1,0,0:0:0:0:
109,192,207501,1,2,0:0:0:0:
475,192,207501,128,0,207739:0:0:0:0:
36,192,207739,128,2,207977:0:0:0:0:
256,192,207739,1,0,0:0:0:70:LR_Clap Normal.wav
402,192,208096,128,0,208334:0:0:0:0:
256,192,208215,1,0,0:0:0:70:LR_Clap Normal.wav
182,192,208453,128,0,208691:0:0:0:0:
109,192,208691,128,0,208929:0:0:0:70:LR_Clap Normal.wav
256,192,208691,1,0,0:0:0:0:
256,192,209167,1,0,0:0:0:70:LR_Clap Normal.wav
475,192,209167,1,0,0:0:0:0:
182,192,209286,1,0,0:0:0:0:
109,192,209405,1,2,0:0:0:0:
402,192,209405,1,0,0:0:0:0:
36,192,209644,128,2,209882:0:0:0:0:
256,192,209644,1,0,0:0:0:70:LR_Clap Normal.wav
475,192,209644,1,0,0:0:0:0:
109,192,210001,128,0,210239:0:0:0:0:
256,192,210120,1,2,0:0:0:0:
475,192,210120,1,0,0:0:0:70:LR_Clap Normal.wav
329,192,210358,128,0,210596:0:0:0:0:
182,192,210596,128,2,210834:0:0:0:0:
256,192,210596,1,0,0:0:0:70:LR_Clap Normal.wav
475,192,210596,1,0,0:0:0:0:
36,192,211072,1,2,0:0:0:0:
256,192,211072,1,0,0:0:0:70:LR_Clap Normal.wav
475,192,211072,1,0,0:0:0:0:
109,192,211191,1,0,0:0:0:0:
182,192,211310,1,0,0:0:0:0:
36,192,211548,1,2,0:0:0:0:
256,192,211548,1,0,0:0:0:70:LR_Clap Normal.wav
402,192,211548,128,0,211786:0:0:0:0:
475,192,211905,128,0,212144:0:0:0:0:
36,192,212024,1,2,0:0:0:0:
256,192,212024,1,0,0:0:0:70:LR_Clap Normal.wav
109,192,212263,128,0,212501:0:0:0:0:
36,192,212501,1,2,0:0:0:0:
256,192,212501,1,0,0:0:0:70:LR_Clap Normal.wav
402,192,212501,128,0,212739:0:0:0:0:
182,192,212739,1,0,0:0:0:0:
36,192,212977,128,2,213215:0:0:0:0:
256,192,212977,1,0,0:0:0:70:LR_Clap Normal.wav
475,192,212977,1,0,0:0:0:0:
329,192,213215,1,0,0:0:0:0:
402,192,213334,1,0,0:0:0:0:
182,192,213453,1,2,0:0:0:0:
475,192,213453,1,0,0:0:0:70:LR_Clap Normal.wav
36,192,213691,1,2,0:0:0:0:
329,192,213691,128,0,213929:0:0:0:0:
109,192,213929,1,2,0:0:0:0:
402,192,213929,128,0,214167:0:0:0:70:LR_Clap Normal.wav
475,192,213929,1,0,0:0:0:0:
182,192,214167,1,2,0:0:0:0:
36,192,214405,1,2,0:0:0:0:
256,192,214405,1,0,0:0:0:70:LR_Clap Normal.wav
475,192,214405,128,0,214644:0:0:0:0:
182,192,214524,1,2,0:0:0:0:
402,192,214644,1,2,0:0:0:0:
109,192,214644,128,0,214882:0:0:0:0:
329,192,214763,1,2,0:0:0:0:
182,192,214882,128,2,215358:0:0:0:0:
256,192,214882,1,0,0:0:0:70:LR_Clap Normal.wav
475,192,214882,1,0,0:0:0:0:
329,192,215358,128,0,215596:0:0:0:0:
182,192,215596,128,0,215834:0:0:0:0:
475,192,215834,128,0,216786:0:0:0:0:
36,192,216072,128,0,216786:0:0:0:0:
402,192,216786,1,0,0:0:0:70:snare.wav
109,192,216786,1,0,0:0:0:70:LR_Clap Normal.wav
256,192,216786,1,0,0:0:0:0:
36,192,217263,128,2,217501:0:0:0:0:
402,192,217263,1,4,0:0:0:0:
475,192,217263,1,0,0:0:0:0:
329,192,217501,1,0,0:0:0:0:
182,192,217501,1,0,0:0:0:0:
36,192,217739,1,8,0:0:0:0:
475,192,217739,128,0,217977:0:0:0:0:
109,192,217977,1,0,0:0:0:0:
182,192,218215,1,2,0:0:0:0:
475,192,218215,1,0,0:0:0:0:
475,192,218453,1,0,0:0:0:0:
329,192,218572,1,0,0:0:0:0:
36,192,218691,1,8,0:0:0:0:
182,192,218691,1,0,0:0:0:0:
402,192,218929,1,0,0:0:0:0:
475,192,218929,1,0,0:0:0:0:
109,192,219167,1,2,0:0:0:0:
256,192,219167,1,0,0:0:0:0:
329,192,219405,1,0,0:0:0:0:
402,192,219405,1,0,0:0:0:0:
36,192,219644,1,8,0:0:0:0:
182,192,219644,1,0,0:0:0:0:
402,192,219882,1,0,0:0:0:0:
256,192,220001,1,0,0:0:0:0:
36,192,220120,1,2,0:0:0:0:
475,192,220120,1,0,0:0:0:0:
109,192,220239,1,0,0:0:0:0:
256,192,220358,1,0,0:0:0:0:
109,192,220596,1,8,0:0:0:0:
402,192,220596,1,0,0:0:0:0:
329,192,220834,1,0,0:0:0:0:
182,192,220834,1,0,0:0:0:0:
36,192,221072,1,2,0:0:0:0:
256,192,221072,1,0,0:0:0:0:
402,192,221191,1,0,0:0:0:0:
182,192,221310,1,0,0:0:0:0:
109,192,221548,1,8,0:0:0:0:
402,192,221548,1,0,0:0:0:0:
109,192,221786,1,0,0:0:0:0:
256,192,221905,1,0,0:0:0:0:
402,192,222024,1,2,0:0:0:0:
475,192,222024,1,0,0:0:0:0:
182,192,222144,1,0,0:0:0:0:
329,192,222263,1,0,0:0:0:0:
109,192,222382,1,0,0:0:0:0:
256,192,222501,1,8,0:0:0:0:
475,192,222501,1,0,0:0:0:0:
36,192,222739,1,0,0:0:0:0:
109,192,222739,1,0,0:0:0:0:
182,192,222977,1,2,0:0:0:0:
329,192,222977,1,0,0:0:0:0:
402,192,223096,1,0,0:0:0:0:
475,192,223215,1,0,0:0:0:0:
36,192,223453,1,8,0:0:0:0:
256,192,223453,1,0,0:0:0:0:
475,192,223572,1,0,0:0:0:0:
182,192,223691,1,0,0:0:0:0:
329,192,223810,1,0,0:0:0:0:
109,192,223929,128,2,224167:0:0:0:0:
402,192,223929,1,0,0:0:0:0:
329,192,224167,1,0,0:0:0:0:
256,192,224405,1,8,0:0:0:0:
475,192,224405,1,0,0:0:0:0:
402,192,224644,1,0,0:0:0:0:
182,192,224644,1,0,0:0:0:0:
36,192,224882,128,2,225120:0:0:0:0:
109,192,224882,1,0,0:0:0:0:
475,192,224882,1,0,0:0:0:0:
256,192,225120,1,0,0:0:0:0:
36,192,225358,1,8,0:0:0:0:
475,192,225358,128,0,225596:0:0:0:0:
109,192,225596,1,0,0:0:0:0:
182,192,225834,1,2,0:0:0:0:
475,192,225834,1,0,0:0:0:0:
475,192,226072,1,0,0:0:0:0:
256,192,226191,1,0,0:0:0:0:
36,192,226310,1,8,0:0:0:0:
109,192,226310,1,0,0:0:0:0:
256,192,226548,1,0,0:0:0:0:
402,192,226548,1,0,0:0:0:0:
36,192,226786,1,2,0:0:0:0:
475,192,226786,1,0,0:0:0:0:
109,192,227024,1,0,0:0:0:0:
402,192,227024,1,0,0:0:0:0:
36,192,227263,1,8,0:0:0:0:
256,192,227263,128,0,227501:0:0:0:0:
402,192,227501,1,0,0:0:0:0:
256,192,227620,1,0,0:0:0:0:
36,192,227739,1,2,0:0:0:0:
109,192,227739,1,0,0:0:0:0:
329,192,227858,1,0,0:0:0:0:
182,192,227977,1,0,0:0:0:0:
36,192,228096,1,0,0:0:0:0:
402,192,228215,1,8,0:0:0:0:
475,192,228215,1,0,0:0:0:0:
256,192,228453,1,0,0:0:0:0:
329,192,228453,1,0,0:0:0:0:
36,192,228691,1,2,0:0:0:0:
182,192,228691,1,0,0:0:0:0:
182,192,228929,1,0,0:0:0:0:
329,192,229048,1,0,0:0:0:0:
36,192,229167,1,8,0:0:0:0:
475,192,229167,1,0,0:0:0:0:
475,192,229405,1,0,0:0:0:0:
329,192,229524,1,0,0:0:0:0:
109,192,229644,1,2,0:0:0:0:
182,192,229644,1,0,0:0:0:0:
256,192,229882,1,0,0:0:0:0:
402,192,229882,1,0,0:0:0:0:
36,192,230120,1,8,0:0:0:0:
109,192,230120,1,0,0:0:0:0:
402,192,230239,1,0,0:0:0:0:
256,192,230358,1,0,0:0:0:0:
109,192,230477,1,0,0:0:0:0:
329,192,230596,1,2,0:0:0:0:
475,192,230596,1,0,0:0:0:0:
182,192,230715,1,0,0:0:0:0:
329,192,230834,1,0,0:0:0:0:
182,192,230953,1,0,0:0:0:0:
36,192,231072,1,8,0:0:0:0:
402,192,231072,1,0,0:0:0:0:
256,192,231191,1,0,0:0:0:0:
109,192,231310,1,0,0:0:0:0:
182,192,231429,1,0,0:0:0:0:
256,192,231548,128,0,231786:0:0:0:0:
475,192,231548,128,2,231786:0:0:0:0:
182,192,231786,128,0,232024:0:0:0:0:
402,192,231786,128,0,232024:0:0:0:0:
109,192,232024,128,8,232501:0:0:0:0:
329,192,232024,128,0,232501:0:0:0:0:
36,192,232501,1,2,0:0:0:0:
402,192,232501,1,4,0:0:0:0:
475,192,232501,128,0,232739:0:0:0:0:
109,192,232739,1,0,0:0:0:0:
256,192,232977,128,8,233215:0:0:0:0:
402,192,232977,1,0,0:0:0:0:
182,192,233215,1,0,0:0:0:0:
109,192,233453,1,2,0:0:0:0:
329,192,233453,1,0,0:0:0:0:
256,192,233691,1,0,0:0:0:0:
402,192,233810,1,0,0:0:0:0:
182,192,233929,1,8,0:0:0:0:
475,192,233929,1,0,0:0:0:0:
256,192,234167,1,0,0:0:0:0:
329,192,234167,1,0,0:0:0:0:
36,192,234405,1,2,0:0:0:0:
109,192,234405,1,0,0:0:0:0:
402,192,234644,1,0,0:0:0:0:
475,192,234644,1,0,0:0:0:0:
329,192,234882,1,8,0:0:0:0:
182,192,234882,1,0,0:0:0:0:
256,192,235120,1,0,0:0:0:0:
402,192,235239,128,0,235596:0:0:0:0:
36,192,235358,1,2,0:0:0:0:
109,192,235358,1,0,0:0:0:0:
329,192,235596,1,0,0:0:0:0:
182,192,235596,1,0,0:0:0:0:
402,192,235834,128,0,236072:0:0:0:0:
36,192,235834,1,0,0:0:0:0:
329,192,236072,1,0,0:0:0:0:
182,192,236072,1,0,0:0:0:0:
36,192,236310,1,2,0:0:0:0:
402,192,236310,1,0,0:0:0:0:
109,192,236429,1,0,0:0:0:0:
402,192,236548,1,0,0:0:0:0:
109,192,236667,1,0,0:0:0:0:
256,192,236786,1,8,0:0:0:0:
475,192,236786,1,0,0:0:0:0:
329,192,236905,1,0,0:0:0:0:
182,192,237024,1,0,0:0:0:0:
256,192,237144,1,0,0:0:0:0:
36,192,237263,1,2,0:0:0:0:
109,192,237263,1,0,0:0:0:0:
182,192,237501,1,0,0:0:0:0:
475,192,237501,1,0,0:0:0:0:
36,192,237739,1,8,0:0:0:0:
256,192,237739,1,0,0:0:0:0:
402,192,237739,1,0,0:0:0:0:
329,192,237977,1,0,0:0:0:0:
182,192,238096,1,0,0:0:0:0:
36,192,238215,1,2,0:0:0:0:
256,192,238215,1,0,0:0:0:0:
402,192,238334,1,0,0:0:0:0:
329,192,238453,1,0,0:0:0:0:
182,192,238572,1,0,0:0:0:0:
109,192,238691,1,8,0:0:0:0:
475,192,238691,1,0,0:0:0:0:
329,192,238810,1,0,0:0:0:0:
182,192,238929,1,0,0:0:0:0:
256,192,239048,1,0,0:0:0:0:
36,192,239167,128,2,239405:0:0:0:0:
402,192,239167,1,0,0:0:0:0:
182,192,239405,1,0,0:0:0:0:
329,192,239405,1,0,0:0:0:0:
109,192,239644,1,8,0:0:0:0:
402,192,239644,128,0,239882:0:0:0:0:
475,192,239644,1,0,0:0:0:0:
329,192,239882,1,0,0:0:0:0:
182,192,239882,1,0,0:0:0:0:
36,192,240120,128,2,240358:0:0:0:0:
109,192,240120,1,0,0:0:0:0:
402,192,240120,1,0,0:0:0:0:
329,192,240358,1,0,0:0:0:0:
109,192,240596,1,8,0:0:0:0:
475,192,240596,128,0,240834:0:0:0:0:
182,192,240834,1,0,0:0:0:0:
36,192,241072,1,2,0:0:0:0:
402,192,241072,1,0,0:0:0:0:
256,192,241310,1,0,0:0:0:0:
109,192,241429,1,0,0:0:0:0:
182,192,241548,1,8,0:0:0:0:
475,192,241548,1,0,0:0:0:0:
256,192,241786,1,0,0:0:0:0:
402,192,241786,1,0,0:0:0:0:
36,192,242024,1,2,0:0:0:0:
109,192,242024,1,0,0:0:0:0:
329,192,242263,1,0,0:0:0:0:
475,192,242263,1,0,0:0:0:0:
109,192,242501,1,8,0:0:0:0:
182,192,242501,1,0,0:0:0:0:
36,192,242739,1,0,0:0:0:0:
329,192,242858,1,0,0:0:0:0:
182,192,242977,1,2,0:0:0:0:
475,192,242977,1,0,0:0:0:0:
109,192,243215,1,0,0:0:0:0:
402,192,243215,1,0,0:0:0:0:
36,192,243453,1,8,0:0:0:0:
329,192,243453,1,0,0:0:0:0:
402,192,243572,1,0,0:0:0:0:
475,192,243691,1,0,0:0:0:0:
182,192,243929,1,2,0:0:0:0:
329,192,243929,1,0,0:0:0:0:
36,192,244048,1,0,0:0:0:0:
256,192,244167,1,0,0:0:0:0:
109,192,244286,1,0,0:0:0:0:
329,192,244405,1,8,0:0:0:0:
475,192,244405,1,0,0:0:0:0:
182,192,244524,1,0,0:0:0:0:
36,192,244644,1,0,0:0:0:0:
256,192,244763,1,0,0:0:0:0:
475,192,244882,1,2,0:0:0:0:
402,192,244882,1,0,0:0:0:0:
109,192,245120,1,0,0:0:0:0:
182,192,245120,1,0,0:0:0:0:
36,192,245358,1,8,0:0:0:0:
329,192,245358,1,0,0:0:0:0:
475,192,245358,1,0,0:0:0:0:
182,192,245596,1,0,0:0:0:0:
256,192,245715,1,0,0:0:0:0:
36,192,245834,1,2,0:0:0:0:
329,192,245834,1,0,0:0:0:0:
329,192,246072,1,0,0:0:0:0:
475,192,246191,1,0,0:0:0:0:
36,192,246310,1,8,0:0:0:0:
182,192,246310,1,0,0:0:0:0:
402,192,246429,1,0,0:0:0:0:
256,192,246548,1,0,0:0:0:0:
329,192,246667,1,0,0:0:0:0:
109,192,246786,1,2,0:0:0:0:
402,192,246786,1,0,0:0:0:0:
182,192,247024,1,0,0:0:0:0:
329,192,247024,1,0,0:0:0:0:
36,192,247263,1,8,0:0:0:0:
256,192,247263,1,0,0:0:0:0:
475,192,247263,1,0,0:0:0:0:
109,192,247501,1,0,0:0:0:0:
329,192,247501,1,0,0:0:0:0:
182,192,247739,1,2,0:0:0:0:
402,192,247739,128,0,247977:0:0:0:0:
36,192,248096,1,2,0:0:0:0:
256,192,248096,128,0,248334:0:0:0:0:
109,192,248453,128,2,248691:0:0:0:0:
329,192,248453,1,0,0:0:0:0:
182,192,248929,128,0,249167:0:0:0:0:
36,192,248929,1,0,0:0:0:0:
329,192,249167,128,0,249405:0:0:0:0:
475,192,249167,1,0,0:0:0:0:
182,192,249405,1,0,0:0:0:0:
329,192,249524,1,0,0:0:0:0:
475,192,249524,1,0,0:0:0:0:
256,192,249763,1,0,0:0:0:0:
402,192,249882,1,0,0:0:0:0:
109,192,249882,128,0,250120:0:0:0:0:
475,192,250120,1,0,0:0:0:0:
182,192,250120,128,0,250358:0:0:0:0:
36,192,250358,1,0,0:0:0:0:
182,192,250477,1,0,0:0:0:0:
402,192,250477,128,0,250715:0:0:0:0:
36,192,250715,1,0,0:0:0:0:
256,192,250715,128,0,250953:0:0:0:0:
329,192,250953,1,0,0:0:0:0:
182,192,251072,128,0,251310:0:0:0:0:
475,192,251072,1,0,0:0:0:0:
256,192,251310,1,0,0:0:0:0:
402,192,251310,128,0,251548:0:0:0:0:
36,192,251548,1,2,0:0:0:0:
329,192,251548,128,0,251786:0:0:0:0:
109,192,251786,1,0,0:0:0:0:
475,192,251905,1,2,0:0:0:0:
256,192,251905,128,0,252144:0:0:0:0:
36,192,252144,1,0,0:0:0:0:
182,192,252263,128,2,252501:0:0:0:0:
475,192,252263,1,0,0:0:0:0:
475,192,252739,128,0,252977:0:0:0:0:
329,192,252739,1,0,0:0:0:0:
36,192,252977,128,0,253215:0:0:0:0:
182,192,252977,1,0,0:0:0:0:
475,192,253215,1,0,0:0:0:0:
182,192,253334,1,2,0:0:0:0:
402,192,253334,128,0,253691:0:0:0:0:
256,192,253691,1,2,0:0:0:0:
475,192,253691,128,0,253929:0:0:0:0:
36,192,253929,128,2,254167:0:0:0:0:
329,192,253929,1,0,0:0:0:0:
109,192,254167,128,2,254405:0:0:0:0:
402,192,254167,1,0,0:0:0:0:
182,192,254405,128,2,254882:0:0:0:0:
475,192,254405,128,0,254763:0:0:0:0:
